<?xml version="1.0" standalone="no"?>
<!DOCTYPE svg PUBLIC "-//W3C//DTD SVG 1.1//EN" "http://www.w3.org/Graphics/SVG/1.1/DTD/svg11.dtd" >
<svg xmlns="http://www.w3.org/2000/svg">
<metadata>Generated by IcoMoon</metadata>
<defs>
<font id="icomoon" horiz-adv-x="1024">
<font-face units-per-em="1024" ascent="960" descent="-64" />
<missing-glyph horiz-adv-x="1024" />
<glyph unicode="&#x20;" horiz-adv-x="512" d="" />
<glyph unicode="&#xe900;" glyph-name="thumbtack" d="M511.72-64.278c-25.684 0-46.342 20.659-46.342 46.342v279.171h-170.853c-60.301 0-90.451 0-116.135 20.659-22.334 17.867-35.176 44.667-35.176 73.143 0 32.384 18.984 56.393 56.393 103.293l73.143 91.568c3.35 3.908 5.025 6.142 6.7 8.375 0 0.558 0 3.908 0 8.933l-1.675 109.435-46.901 117.252c-16.192 40.201-25.684 64.209-20.1 92.126 5.025 24.009 18.984 45.226 39.642 58.626 23.45 15.634 49.692 15.634 92.685 15.634h338.356c42.992 0 69.234 0 92.685-15.634 20.659-13.959 34.617-34.617 39.642-58.626 5.583-27.359-3.908-51.368-19.542-91.010l-49.134-123.394v-5.025s0-99.385 0-99.385c0-5.025 0-8.375 0-10.609 0.558 0 2.792-2.792 6.142-6.7l73.143-91.568c37.967-47.459 56.393-70.909 56.393-103.293 0-28.475-12.842-55.276-35.176-72.585-25.125-20.659-55.834-20.659-116.135-20.659h-170.853v-279.171c0-25.684-20.659-46.342-46.342-46.342zM239.249 356.154c11.725-1.117 34.059-1.117 55.276-1.117h434.39c21.217 0 43.551 0 55.276 1.117-6.142 10.050-20.1 27.359-33.501 44.109l-73.143 91.568c-8.933 11.167-12.842 16.75-16.192 23.45-3.908 7.258-6.7 15.634-8.375 23.45-1.675 7.258-2.233 14.517-2.233 29.034v99.385c0 7.817 0 11.725 0 15.634 0 5.025 1.675 9.492 2.792 13.959s2.792 8.375 5.583 15.634l46.901 117.252c5.583 14.517 11.725 29.034 13.959 37.409-8.375 1.117-24.009 1.117-39.642 1.117h-337.797c-15.634 0-31.267 0-39.642-1.117 2.233-7.817 8.375-22.892 13.959-37.409l46.901-117.252c2.792-7.817 4.467-11.725 5.583-15.075 1.117-3.908 2.233-8.933 2.792-13.4 0-3.908 0.558-7.817 0.558-16.192v-99.385c0-14.517 0-21.217-1.675-28.475-1.675-8.375-4.467-16.192-8.375-24.009-4.467-8.375-9.492-14.517-16.192-23.45l-73.143-91.010c-13.4-16.75-27.359-34.059-33.501-44.109z" />
<glyph unicode="&#xe901;" glyph-name="tree" d="M948.058 217.939l-164.113 210.928h56.808c19.988 0 38.399 11.572 47.34 29.456s6.838 39.45-5.26 55.23l-329.279 427.116c-19.988 25.775-63.647 25.775-83.635 0l-328.226-427.116c-12.098-15.78-14.202-37.346-5.26-55.23s27.353-29.456 47.34-29.456h56.808l-164.64-210.928c-12.098-15.78-14.728-37.346-5.786-55.23s27.353-29.456 47.34-29.456h341.903v-144.652c0-28.931 23.67-52.601 52.601-52.601s52.601 23.67 52.601 52.601v144.652h341.903c19.988 0 38.399 11.572 47.34 29.456s6.312 39.45-5.786 55.23zM224.802 237.927l164.113 210.928c12.098 15.78 14.728 37.346 5.786 55.23s-27.353 29.456-47.34 29.456h-57.335l221.974 288.251 221.974-288.251h-57.335c-19.988 0-38.399-11.572-47.34-29.456s-6.312-39.45 5.786-55.23l164.113-210.928h-574.397z" />
<glyph unicode="&#xe902;" glyph-name="search" d="M971.964-63.769c-12.894 0-26.402 4.912-36.226 14.736l-144.29 144.29c-83.505-67.54-189.727-108.065-305.773-108.065-267.705 0.614-485.675 218.585-485.675 486.289s217.97 486.289 486.289 486.289 486.289-217.97 486.289-486.289c0-115.432-40.524-222.268-108.065-305.773l144.29-144.29c20.262-20.262 20.262-52.191 0-72.453-9.824-9.824-23.333-14.736-36.226-14.736zM486.288 857.233c-211.831 0-383.751-171.921-383.751-383.751s171.921-383.751 383.751-383.751c103.153 0 197.095 41.139 265.863 107.451 1.228 1.842 3.070 3.684 4.912 5.526s3.684 3.684 5.526 4.912c66.312 68.768 107.451 162.71 107.451 265.863 0 211.831-171.921 383.751-383.751 383.751z" />
<glyph unicode="&#xe903;" glyph-name="chat" d="M87.207-62.999c-23.489 0-44.478 10.495-58.971 28.486-16.492 20.49-16.492 43.479-16.492 77.962v626.192c0 91.955 0 137.932 21.99 180.911 19.49 37.981 49.475 67.966 87.458 87.458 42.979 21.99 88.956 21.99 180.911 21.99h419.794c91.955 0 137.932 0 180.911-21.99 37.981-19.49 67.966-49.475 87.458-87.458 21.99-42.979 21.99-88.956 21.99-180.911v-269.868c0-91.955 0-137.932-21.99-180.911-18.991-37.981-49.475-67.966-87.458-87.458-42.979-21.99-88.956-21.99-180.911-21.99h-325.84c-27.986 0-41.48 0-51.474-1.999-8.996-1.999-17.491-4.998-25.488-8.996-8.996-4.497-19.991-12.994-40.98-30.485l-119.442-95.953c-26.986-21.489-44.478-35.982-70.965-35.982zM112.194 15.463v0zM301.601 859.549c-73.464 0-113.944 0-135.433-10.995-18.991-9.495-33.983-24.987-43.479-43.479-10.995-21.489-10.995-61.97-10.995-135.433v-605.702l102.95 82.46c26.487 20.99 40.481 32.484 58.471 41.48 15.993 7.996 32.984 13.993 50.975 17.992 19.991 3.998 37.981 3.998 71.465 3.998h325.84c73.464 0 113.944 0 135.433 10.995 18.991 9.495 33.983 24.987 43.479 43.479 10.995 21.489 10.995 61.97 10.995 135.433v269.868c0 73.464 0 113.944-10.995 135.433-9.495 18.991-24.987 33.983-43.479 43.479-21.489 10.995-61.97 10.995-135.433 10.995h-419.794z" />
<glyph unicode="&#xe904;" glyph-name="info" d="M511.721-64c-139.51 0-265.626 55.804-358.261 146.206-1.116 1.116-2.79 2.232-3.906 3.348s-2.232 2.232-3.348 3.906c-90.402 92.635-146.206 218.751-146.206 358.261s55.804 265.626 146.764 358.261c1.116 1.116 2.232 2.232 3.348 3.906s2.232 2.232 3.906 3.348c92.076 90.402 218.751 146.764 358.261 146.764s265.626-55.804 358.261-146.206c1.116-1.116 2.232-2.232 3.906-3.348 1.116-1.116 2.232-2.232 3.348-3.906 90.402-92.076 146.206-218.751 146.206-358.261s-55.804-265.626-146.206-357.702c-1.116-1.116-2.232-2.79-3.348-3.906s-2.79-2.232-3.906-3.348c-92.635-90.402-218.751-146.206-357.702-146.206zM250.559 120.71c71.429-57.478 162.39-91.518 261.162-91.518s189.175 34.040 261.162 91.518l-99.331 99.331c-45.759-32.366-101.563-51.898-161.831-51.898s-116.072 18.974-161.831 51.898l-99.331-99.331zM184.71 708.883c-57.478-71.429-91.518-162.39-91.518-261.162s34.040-189.175 91.518-261.162l99.331 99.331c-32.366 45.759-51.898 101.563-51.898 161.831s18.974 116.072 51.898 161.831l-99.331 99.331zM738.842 286.448l99.331-99.331c57.478 71.429 91.518 162.39 91.518 261.162s-34.040 189.175-91.518 261.162l-99.331-99.331c32.366-45.759 51.34-101.563 51.34-161.831s-18.974-116.072-51.34-161.831zM511.721 633.548c-102.679 0-185.827-83.148-185.827-185.827s83.148-185.827 185.827-185.827 185.827 83.705 185.827 185.827-83.148 185.827-185.827 185.827zM511.721 726.74c60.268 0 116.072-18.974 161.831-51.898l99.331 99.331c-71.429 57.478-162.39 91.518-261.162 91.518s-189.175-34.040-261.162-91.518l99.331-99.331c45.759 32.366 101.563 51.898 161.831 51.898z" />
<glyph unicode="&#xe905;" glyph-name="settings" d="M512.837 262.173c-102.678 0-185.826 83.706-185.826 185.826s83.706 185.826 185.826 185.826 185.826-83.706 185.826-185.826-83.706-185.826-185.826-185.826zM512.837 541.191c-51.34 0-93.192-41.852-93.192-93.192s41.852-93.192 93.192-93.192 93.192 41.852 93.192 93.192-41.852 93.192-93.192 93.192zM516.185-63.163c-35.156 0-68.080 13.393-92.634 38.505s-38.505 58.036-38.505 92.634c0 7.254-1.674 11.718-4.464 15.625s-6.696 6.696-11.161 8.371c-6.696 2.79-11.718 3.349-16.183 2.79-4.464-1.117-8.928-2.79-12.277-6.139-14.509-14.509-28.46-23.996-44.643-30.692-32.366-13.393-68.639-13.393-100.446 0-15.625 6.696-30.134 16.183-42.411 28.46s-21.763 26.785-28.46 42.969c-6.696 16.183-10.045 32.924-10.045 50.223s3.349 34.041 10.045 50.223c6.696 16.183 16.183 30.134 28.46 42.411 5.581 5.581 7.813 9.486 8.371 13.95 1.117 4.464 0 9.486-1.674 13.393-2.232 4.464-5.022 7.813-8.928 10.603-3.906 2.232-8.371 3.906-12.835 3.906h-7.254c-35.156 0-68.080 13.393-92.634 38.505-24.553 24.553-38.505 57.477-38.505 92.634s13.393 68.080 38.505 92.634 57.477 38.505 92.634 38.505c7.254 0 11.718 1.674 15.625 4.464s6.696 6.696 8.371 10.603c2.79 7.254 3.349 11.718 2.79 16.183-1.117 4.464-2.79 8.928-6.139 12.277-14.509 14.509-23.996 29.018-30.692 44.643s-10.045 32.924-10.045 50.223 3.349 34.041 10.045 50.223c6.696 16.183 16.183 30.134 28.46 42.411s26.785 21.763 42.411 28.46c31.808 13.393 68.639 13.393 100.446 0 16.183-6.696 30.134-16.183 42.411-28.46 5.581-5.581 9.486-7.254 14.509-8.371 4.464-1.117 9.486 0 13.393 1.674 2.79 1.117 5.581 2.232 8.371 2.79 2.232 1.674 3.906 3.906 5.581 6.139 2.232 3.906 3.906 8.371 3.906 12.835v7.254c0 35.156 13.393 68.080 38.505 92.634 49.108 49.108 136.161 49.108 185.268 0 24.553-24.553 38.505-57.477 38.505-92.634 0-8.371 1.117-12.277 3.906-16.183s6.139-6.696 10.045-8.371c4.464-2.232 8.928-2.79 13.95-1.674 4.464 1.117 8.928 2.79 12.277 6.139 14.509 14.509 28.46 23.996 44.643 30.692 31.808 13.393 68.639 13.393 100.446 0 16.183-6.696 30.134-16.183 42.411-28.46s21.763-26.785 28.46-42.411c6.696-16.183 10.045-32.924 10.045-50.223s-3.349-34.041-10.045-50.223c-6.696-16.183-16.183-30.134-28.46-42.411-5.581-5.581-7.813-9.486-8.371-14.509-0.558-4.464 0-8.928 1.674-13.393 1.117-2.79 2.232-5.581 2.79-8.371 1.674-2.232 3.349-3.906 6.139-5.581 3.906-2.79 8.371-3.906 12.835-3.906h7.254c34.598 0 68.080-13.95 92.634-38.505s38.505-57.477 38.505-92.634-13.393-68.080-38.505-92.634c-24.553-24.553-58.036-38.505-92.634-38.505-8.371 0-12.277-1.117-16.183-3.906s-6.696-6.139-8.371-10.603c0 0 0 0 0 0-1.674-4.464-2.232-8.928-1.674-13.393 1.117-4.464 2.79-8.928 6.139-12.277 14.509-14.509 23.996-28.46 30.692-44.643s10.045-32.924 10.045-50.223-3.349-34.041-10.045-50.223c-6.696-16.183-16.183-30.134-28.46-42.411s-26.785-21.763-42.411-28.46c-31.808-13.393-68.639-13.393-100.446 0-16.183 6.696-30.134 16.183-42.411 28.46-5.581 5.581-9.486 7.813-14.509 8.371-4.464 0.558-9.486 0-13.393-1.674-4.464-2.232-7.813-5.022-10.603-8.928-2.232-3.906-3.906-8.371-3.906-12.835v-7.254c0-34.598-13.95-68.080-38.505-92.634s-57.477-38.505-92.634-38.505zM357.703 188.512c16.183 0 31.808-3.349 46.875-10.045 19.531-7.254 37.946-21.206 51.897-40.737 13.393-18.973 21.206-41.295 21.763-64.732 0-15.067 3.906-24.553 11.161-31.808 14.509-14.509 39.62-14.509 53.572 0 7.254 7.254 11.161 16.741 11.161 26.785v7.254c0 22.88 6.696 45.201 19.531 64.175 12.277 18.973 30.134 33.482 50.781 42.411 21.206 9.486 44.643 12.277 67.522 7.813 22.88-3.906 43.527-15.067 60.268-31.25 6.696-6.696 10.603-9.486 15.625-11.161 8.928-3.906 20.089-3.906 29.018 0 4.464 1.674 8.928 4.464 12.277 8.371 3.349 3.349 6.139 7.813 8.371 12.277 1.674 4.464 2.79 9.486 2.79 14.509s-1.117 10.045-2.79 14.509c-1.674 4.464-4.464 8.928-8.371 12.277-18.973 19.531-30.134 40.737-34.041 63.616-4.464 22.88-1.674 46.317 7.813 67.522 8.928 20.648 23.438 38.505 42.411 50.781 18.973 12.835 41.295 19.531 63.616 19.531 13.95 0 23.996 3.906 30.692 11.161 7.254 7.254 11.161 16.741 11.161 26.785s-3.906 19.531-11.161 26.785c-7.254 7.254-16.741 11.161-26.785 11.161h-7.254c-22.88 0-45.201 6.696-64.175 19.531-18.973 12.277-33.482 30.134-42.411 51.34-1.674 3.906-2.79 7.813-3.349 11.718-6.696 18.973-8.371 39.063-4.464 58.594 4.464 22.88 15.067 44.085 31.25 60.268 6.696 6.696 9.486 10.603 11.161 15.067s2.79 9.486 2.79 14.509-1.117 10.045-2.79 14.509c-1.674 4.464-4.464 8.928-8.371 12.277-3.349 3.349-7.813 6.139-12.277 8.371-9.486 3.906-20.089 3.906-29.018 0-4.464-1.674-8.928-4.464-12.277-8.371-19.531-19.531-40.737-30.134-63.616-34.041s-46.317-1.117-67.522 7.813c-20.648 8.928-37.946 23.438-50.781 42.411s-19.531 40.737-19.531 63.616c0 13.95-3.906 23.438-11.161 30.692-13.95 13.95-39.62 13.95-53.572 0-7.254-7.254-11.161-16.741-11.161-26.785v-7.254c0-22.88-6.696-45.201-19.531-64.175s-30.134-33.482-51.34-42.411c-3.906-1.674-7.813-2.79-11.718-3.349-18.973-6.696-39.063-8.371-58.594-4.464-22.88 4.464-44.085 15.067-60.826 31.25-6.696 6.696-10.603 9.486-15.067 11.161-9.486 3.906-20.089 3.906-29.018 0-4.464-1.674-8.928-4.464-12.277-8.371-3.349-3.349-6.139-7.813-8.371-12.277-1.674-4.464-2.79-9.486-2.79-14.509s1.117-10.045 2.79-14.509c1.674-4.464 4.464-8.928 8.371-12.277 18.973-19.531 30.134-40.737 34.041-63.616s1.117-46.317-7.813-67.522c-6.696-18.973-21.206-37.946-40.179-51.897-18.973-13.393-41.295-21.206-64.732-21.763-15.067 0-24.553-3.906-31.808-11.161s-11.161-16.741-11.161-26.785 3.906-19.531 11.161-26.785c7.254-7.254 16.741-11.161 26.785-11.161h7.254c22.88 0 45.201-6.696 64.175-19.531 18.973-12.277 33.482-30.134 42.411-51.34 9.486-21.206 12.277-44.643 7.813-67.522-3.906-22.88-15.067-43.527-31.25-60.268-6.696-6.696-9.486-10.603-11.161-15.067s-2.79-9.486-2.79-14.509 1.117-10.045 2.79-14.509c1.674-4.464 4.464-8.928 8.371-12.277 3.349-3.349 7.813-6.139 12.277-8.371 9.486-3.906 20.089-3.906 29.018 0 4.464 1.674 8.928 4.464 12.277 8.371 19.531 18.973 40.737 30.134 63.616 34.041 6.696 1.117 13.95 1.674 21.206 1.674zM825.338 321.882v0 0z" />
<glyph unicode="&#xe906;" glyph-name="user" d="M920.802-64c-28.257 0-50.985 22.728-50.985 50.985 0 63.885 0 99.513-6.757 121.627-14.743 49.142-53.442 87.227-102.584 102.584-21.5 6.757-57.128 6.757-121.013 6.757h-256.154c-64.499 0-99.513 0-121.627-6.757-49.142-14.743-87.227-53.442-101.97-102.584-6.757-21.5-6.757-57.128-6.757-121.627 0-28.257-22.728-50.985-50.985-50.985s-50.985 22.728-50.985 50.985c0 76.17 0 114.87 11.057 151.112 24.571 82.313 88.456 146.198 170.769 170.769 36.242 11.057 74.942 11.057 151.112 11.057h256.154c76.17 0 114.87 0 151.112-11.057 82.313-25.185 146.198-89.070 170.769-170.769 11.057-36.242 11.057-74.942 11.057-151.112 0-28.257-22.728-50.985-50.985-50.985zM511.079 396.708c-155.412 0-281.339 126.541-281.339 281.339s125.927 281.953 281.339 281.953 281.339-126.541 281.339-281.339-126.541-281.339-281.339-281.339zM511.079 857.416c-98.899 0-179.369-80.47-179.369-179.369s80.47-179.369 179.369-179.369 179.369 80.47 179.369 179.369-80.47 179.369-179.369 179.369z" />
<glyph unicode="&#xe907;" glyph-name="trash" d="M614.847-64h-205.135c-85.52 0-128.559 0-168.245 20.122-35.214 17.887-63.721 46.393-81.607 81.607-20.122 39.686-20.122 82.725-20.122 168.245v475.109h-46.393c-25.712 0-46.393 20.681-46.393 46.393s20.681 46.393 46.393 46.393h186.131c0 51.982 1.118 81.607 15.091 110.113 13.415 26.27 34.655 47.511 60.926 60.926 30.183 15.091 61.485 15.091 119.615 15.091h74.341c57.572 0 89.433 0 119.057-15.091 26.27-13.415 47.511-34.655 60.926-60.926 14.533-28.507 15.091-58.131 15.091-110.113h186.131c25.712 0 46.393-20.681 46.393-46.393s-20.681-46.393-46.393-46.393h-46.393v-475.109c0-85.52 0-128.559-20.122-168.245-17.887-35.214-46.393-63.161-81.607-81.607-39.686-20.122-82.725-20.122-168.245-20.122zM232.523 681.082v-475.109c0-68.192 0-106.201 10.061-126.323 8.943-17.327 22.918-31.86 40.803-40.803 20.122-10.061 57.572-10.061 126.323-10.061h205.135c68.192 0 106.201 0 126.323 10.061 17.887 8.943 31.86 22.918 40.803 40.803 10.061 20.122 10.061 57.572 10.061 126.323v475.109h-559.511zM372.262 774.428h279.477c0 35.214 0 58.69-5.031 67.633-4.471 8.943-11.738 15.651-20.681 20.122-10.061 5.031-36.891 5.031-77.135 5.031h-74.341c-40.245 0-67.075 0-77.135-5.031-8.943-4.471-15.651-11.738-20.122-20.122-4.471-8.943-5.031-32.42-5.031-67.633zM605.345 191.999c-25.712 0-46.393 20.681-46.393 46.393v233.083c0 25.712 20.681 46.393 46.393 46.393s46.393-20.681 46.393-46.393v-233.083c0-25.712-20.681-46.393-46.393-46.393zM419.214 191.999c-25.712 0-46.393 20.681-46.393 46.393v233.083c0 25.712 20.681 46.393 46.393 46.393s46.393-20.681 46.393-46.393v-233.083c0-25.712-20.681-46.393-46.393-46.393z" />
<glyph unicode="&#xe908;" glyph-name="document" d="M926.237 619.782c-2.794 11.173-6.145 21.787-11.173 32.402 0 1.118-0.558 1.676-1.118 2.794-2.794 6.704-6.145 12.849-10.055 18.994-11.731 18.994-25.698 32.96-51.396 58.658l-148.6 148.6c-25.698 25.698-40.223 40.223-59.216 51.396-6.145 3.91-12.291 7.262-18.994 10.055-0.558 0-1.676 0.558-2.234 1.118-10.615 4.469-21.229 8.38-32.402 11.173-21.229 5.028-41.34 5.028-78.211 5.028h-149.718c-85.473 0-128.489 0-168.153-20.111-35.195-17.877-63.686-46.367-81.563-81.563-20.111-39.664-20.111-82.68-20.111-168.153v-484.347c0-85.473 0-128.489 20.111-168.153 17.877-35.195 46.367-63.686 81.563-81.563 39.664-20.111 82.68-20.111 168.153-20.111h297.76c85.473 0 128.489 0 168.153 20.111 35.195 17.877 63.686 45.809 81.563 81.563 20.111 39.664 20.111 82.68 20.111 168.153v335.747c0 36.871 0 56.982-5.028 78.211zM651.94 800.784l120.11-120.11h-92.176c-12.849 0-26.256 0-26.815-2.234-1.118 3.91-1.118 17.318-1.118 30.166v92.176zM837.97 205.825c0-68.155 0-106.143-10.055-125.696-8.938-17.877-22.905-31.843-40.781-40.781-20.111-10.055-57.54-10.055-126.254-10.055h-297.76c-68.714 0-106.143 0-126.254 10.055-17.318 8.938-31.843 22.905-40.781 40.781-10.055 20.111-10.055 57.54-10.055 126.254v483.789c0 68.714 0 106.143 10.055 126.254 8.938 17.877 22.905 31.843 40.781 40.781 20.111 10.055 57.54 10.055 126.254 10.055h149.718c21.787 0 35.754 0 45.809-1.118v-156.98c0-30.166 0-50.278 10.055-70.389 8.938-17.877 22.905-31.843 40.781-40.781 20.111-10.055 39.664-10.055 70.389-10.055h157.539c1.118-10.055 1.118-24.022 1.118-45.809v-335.747z" />
<glyph unicode="&#xe909;" glyph-name="edit" d="M879.54 445.014c-25.558 0-46.116-20.558-46.116-46.116v-194.466c0-67.785 0-105.567-10.001-125.569-8.89-17.78-22.78-31.67-40.56-40.56-20.002-10.001-57.228-10.001-125.569-10.001h-388.931c-68.341 0-105.567 0-125.569 10.001-17.78 8.89-31.67 22.78-40.56 40.56-10.001 20.002-10.001 57.228-10.001 125.569v388.931c0 68.341 0 105.567 10.001 125.569 8.89 17.78 22.78 31.67 40.56 40.56 20.002 10.001 57.228 10.001 125.569 10.001h194.466c25.558 0 46.116 20.558 46.116 46.116s-20.558 46.116-46.116 46.116h-194.466c-85.009 0-127.792 0-167.24-20.002-35.004-17.78-63.34-45.56-81.12-81.12-20.002-39.449-20.002-82.231-20.002-167.24v-388.931c0-85.009 0-127.792 20.002-167.24 17.78-35.004 46.116-62.785 81.12-81.12 39.449-20.002 82.231-20.002 167.24-20.002h388.931c85.009 0 127.792 0 167.24 20.002 35.004 17.78 62.785 46.116 81.12 81.12 20.002 39.449 20.002 82.231 20.002 167.24v194.466c0 25.558-20.558 46.116-46.116 46.116zM981.773 917.843c-56.117 56.117-147.794 56.117-204.467 0l-442.826-442.826c-17.224-17.224-27.781-27.781-36.671-41.671-7.779-12.224-13.335-26.114-16.668-40.004-3.889-16.113-3.889-30.559-3.889-55.562v-77.786c0-25.558 20.558-46.116 46.116-46.116h77.786c24.447 0 39.449 0 55.562 3.889 14.446 3.334 27.781 8.89 40.004 16.668 13.89 8.334 24.447 18.891 42.227 36.671l442.826 442.826c27.225 27.225 42.227 63.34 42.227 102.233s-15.002 75.008-42.227 102.233zM916.211 778.939l-443.381-443.381c-12.224-12.224-19.447-19.447-24.447-22.78-3.889-2.778-8.89-4.445-13.335-5.556-5.556-1.111-16.113-1.111-33.893-1.111h-31.114v31.114c0 18.335 0 28.336 1.111 33.893 1.111 4.445 2.778 9.445 5.556 13.335 2.778 4.445 10.557 12.224 22.78 25.003l443.381 442.826c20.558 20.002 53.339 20.002 73.341 0 10.001-10.001 15.002-22.78 15.002-36.671s-5.556-26.67-15.002-36.671z" />
<glyph unicode="&#xe90a;" glyph-name="warning-circle" d="M514.738-61.262c-284.749 0-514.738 229.989-514.738 509.262s229.989 509.262 514.738 509.262 509.262-229.989 509.262-509.262-229.989-509.262-509.262-509.262zM514.738 847.743c-219.037 0-399.743-180.706-399.743-399.743s180.706-399.743 399.743-399.743 399.743 180.706 399.743 399.743-180.706 399.743-399.743 399.743zM514.738 212.535c-32.856 0-54.759 21.904-54.759 54.759s21.904 54.759 54.759 54.759v0c32.856 0 54.759-21.904 54.759-54.759s-21.904-54.759-54.759-54.759zM514.738 393.241c-32.856 0-54.759 21.904-54.759 54.759v180.706c0 32.856 21.904 54.759 54.759 54.759s54.759-21.904 54.759-54.759v-180.706c0-32.856-21.904-54.759-54.759-54.759z" />
<glyph unicode="&#xe90b;" glyph-name="wallet" d="M738.623 28.328h-542.776c-55.956 0-89.53 0-117.508 16.787-27.978 11.191-50.361 33.574-61.552 61.552-16.787 27.978-16.787 61.552-16.787 117.508v447.65c0 55.956 0 89.53 16.787 117.508 11.191 27.978 33.574 50.361 61.552 61.552 27.978 16.787 61.552 16.787 117.508 16.787h542.776c55.956 0 89.53 0 117.508-16.787 27.978-11.191 50.361-33.574 61.552-61.552 16.787-27.978 16.787-61.552 16.787-117.508v-67.148c44.765-16.787 78.339-55.956 89.53-106.317 0-11.191 0-27.978 0-50.361s0-39.169 0-50.361c-11.191-50.361-44.765-89.53-89.53-106.317v-67.148c0-55.956 0-89.53-16.787-117.508-11.191-27.978-33.574-50.361-61.552-61.552-27.978-16.787-61.552-16.787-117.508-16.787zM195.847 772.546c-39.169 0-67.148 0-78.339 0s-16.787-11.191-22.383-22.383c0-11.191 0-39.169 0-78.339v-447.65c0-39.169 0-67.148 0-78.339s11.191-16.787 22.383-22.383c11.191 0 39.169 0 78.339 0h542.776c39.169 0 67.148 0 78.339 0s16.787 11.191 22.383 22.383c0 11.191 0 39.169 0 78.339v61.552h-67.148c-22.383 0-39.169 0-50.361 0-55.956 11.191-100.721 55.956-111.913 111.913 0 11.191 0 27.978 0 50.361s0 39.169 0 50.361c11.191 55.956 55.956 100.721 111.913 111.913 11.191 0 27.978 0 50.361 0h67.148v61.552c0 39.169 0 67.148 0 78.339s-11.191 16.787-22.383 22.383c-11.191 0-39.169 0-78.339 0h-542.776zM772.197 515.148c-16.787 0-27.978 0-33.574 0-16.787 0-33.574-16.787-39.169-39.169 0 0 0-16.787 0-33.574s0-27.978 0-33.574 16.787-33.574 39.169-39.169c0 0 16.787 0 33.574 0h95.126c16.787 0 27.978 0 33.574 0 16.787 0 33.574 16.787 39.169 39.169 0 0 0 16.787 0 33.574s0 27.978 0 33.574-16.787 33.574-39.169 39.169c0 0-16.787 0-33.574 0h-95.126z" />
<glyph unicode="&#xe90c;" glyph-name="menu" d="M972.8 89.6h-921.6c-30.72 0-51.2 20.48-51.2 51.2s20.48 51.2 51.2 51.2h921.6c30.72 0 51.2-20.48 51.2-51.2s-20.48-51.2-51.2-51.2zM972.8 396.8h-921.6c-30.72 0-51.2 20.48-51.2 51.2s20.48 51.2 51.2 51.2h921.6c30.72 0 51.2-20.48 51.2-51.2s-20.48-51.2-51.2-51.2zM972.8 704h-921.6c-30.72 0-51.2 20.48-51.2 51.2s20.48 51.2 51.2 51.2h921.6c30.72 0 51.2-20.48 51.2-51.2s-20.48-51.2-51.2-51.2z" />
<glyph unicode="&#xe90d;" glyph-name="down" d="M515.275 158.704c-17.467 0-34.934 0-52.401 17.467l-436.674 436.674c-34.934 26.2-34.934 78.601 0 104.802 26.2 26.2 78.601 26.2 104.802 0l384.273-384.273 384.273 384.273c26.2 26.2 78.601 26.2 104.802 0s26.2-78.601 0-104.802l-436.674-436.674c-17.467-17.467-34.934-17.467-52.401-17.467z" />
<glyph unicode="&#xe90e;" glyph-name="top" d="M508.725 737.296c17.467 0 34.934 0 52.401-17.467l436.674-436.674c34.934-26.2 34.934-78.601 0-104.802-26.2-26.2-78.601-26.2-104.802 0l-384.273 384.273-384.273-384.273c-26.2-26.2-78.601-26.2-104.802 0s-26.2 78.601 0 104.802l436.674 436.674c17.467 17.467 34.934 17.467 52.401 17.467z" />
<glyph unicode="&#xe90f;" glyph-name="left" d="M222.704 444.725c0 17.467 0 34.934 17.467 52.401l436.674 436.674c26.2 34.934 78.601 34.934 104.802 0 26.2-26.2 26.2-78.601 0-104.802l-384.273-384.273 384.273-384.273c26.2-26.2 26.2-78.601 0-104.802s-78.601-26.2-104.802 0l-436.674 436.674c-17.467 17.467-17.467 34.934-17.467 52.401z" />
<glyph unicode="&#xe910;" glyph-name="right" d="M801.296 451.275c0-17.467 0-34.934-17.467-52.401l-436.674-436.674c-26.2-34.934-78.601-34.934-104.802 0-26.2 26.2-26.2 78.601 0 104.802l384.273 384.273-384.273 384.273c-26.2 26.2-26.2 78.601 0 104.802s78.601 26.2 104.802 0l436.674-436.674c17.467-17.467 17.467-34.934 17.467-52.401z" />
<glyph unicode="&#xe911;" glyph-name="check-circle" d="M512-64c-280.774 0-512 231.226-512 512s231.226 512 512 512 512-231.226 512-512-231.226-512-512-512zM512 849.892c-220.215 0-401.892-181.677-401.892-401.892s181.677-401.892 401.892-401.892 401.892 181.677 401.892 401.892-181.677 401.892-401.892 401.892zM445.935 255.312c-16.516 0-27.527 0-38.538 16.516l-137.634 137.634c-22.022 22.022-22.022 55.054 0 77.075s55.054 22.022 77.075 0l99.097-99.097 236.731 236.731c22.022 22.022 55.054 22.022 77.075 0s22.022-55.054 0-77.075l-275.269-275.269c-11.011-11.011-27.527-16.516-38.538-16.516z" />
<glyph unicode="&#xe912;" glyph-name="add-circle" d="M512-64c-283.826 0-512 228.174-512 512s228.174 512 512 512 512-228.174 512-512-228.174-512-512-512zM512 865.391c-228.174 0-417.391-189.217-417.391-417.391s189.217-417.391 417.391-417.391 417.391 189.217 417.391 417.391-189.217 417.391-417.391 417.391zM512 214.261c-27.826 0-44.522 22.261-44.522 44.522v139.13h-139.13c-27.826 0-44.522 22.261-44.522 44.522s22.261 44.522 44.522 44.522h139.13v139.13c0 27.826 22.261 44.522 44.522 44.522s44.522-22.261 44.522-44.522v-139.13h139.13c27.826 0 44.522-22.261 44.522-44.522s-22.261-44.522-44.522-44.522h-139.13v-139.13c0-27.826-22.261-44.522-44.522-44.522z" />
<glyph unicode="&#xe913;" glyph-name="close" d="M951.485-61.802c-17.579 0-35.159 0-52.738 17.579l-386.747 386.747-386.747-386.747c-26.369-26.369-79.107-26.369-105.476 0s-26.369 79.107 0 105.476l386.747 386.747-386.747 386.747c-26.369 26.369-26.369 79.107 0 105.476s79.107 26.369 105.476 0l386.747-386.747 386.747 386.747c26.369 26.369 79.107 26.369 105.476 0s26.369-79.107 0-105.476l-386.747-386.747 386.747-386.747c26.369-26.369 26.369-79.107 0-105.476-17.579-17.579-35.159-17.579-52.738-17.579z" />
<glyph unicode="&#xe914;" glyph-name="chevron-selector" d="M512-64c-13.631 0-27.261 0-40.892 13.631l-286.243 286.243c-20.446 20.446-20.446 61.338 0 81.784s61.338 20.446 81.784 0l245.351-245.351 245.351 245.351c20.446 20.446 61.338 20.446 81.784 0s20.446-61.338 0-81.784l-286.243-286.243c-13.631-13.631-27.261-13.631-40.892-13.631zM798.243 563.008c-13.631 0-27.261 0-40.892 13.631l-245.351 245.351-245.351-245.351c-20.446-20.446-61.338-20.446-81.784 0s-20.446 61.338 0 81.784l286.243 286.243c20.446 20.446 61.338 20.446 81.784 0l286.243-286.243c20.446-20.446 20.446-61.338 0-81.784s-27.261-13.631-40.892-13.631z" />
<glyph unicode="&#xe915;" glyph-name="check2" d="M350.316 70.737c-26.947 0-44.912 0-62.877 26.947l-260.492 260.492c-35.93 35.93-35.93 89.825 0 125.754s89.825 35.93 125.754 0l197.614-197.614 520.982 512c35.93 35.93 89.825 35.93 125.754 0s35.93-89.825 0-125.754l-574.877-574.877c-17.965-17.965-44.912-26.947-62.877-26.947z" />
<glyph unicode="&#xe916;" glyph-name="check1" d="M341.9 79.734c-13.608 0-27.216 0-40.824 13.608l-285.768 285.768c-20.412 20.412-20.412 61.236 0 81.648s61.236 20.412 81.648 0l244.943-244.943 585.143 585.143c20.412 20.412 61.236 20.412 81.648 0s20.412-61.236 0-81.648l-625.967-625.967c-13.608-13.608-27.216-13.608-40.824-13.608z" />
<glyph unicode="&#xe917;" glyph-name="bar-chart" d="M892.952-64h-755.81c-30.476 0-54.857 0-79.238 12.19-18.286 12.19-36.571 24.381-42.667 42.667-12.19 24.381-12.19 42.667-12.19 79.238v292.571c0 30.476 0 54.857 12.19 79.238 12.19 18.286 24.381 36.571 42.667 42.667 24.381 12.19 42.667 12.19 79.238 12.19h170.667v121.905c0 30.476 0 54.857 12.19 79.238 12.19 18.286 24.381 36.571 42.667 42.667 24.381 12.19 42.667 12.19 79.238 12.19h140.19c12.19 0 18.286 0 30.476 0v73.143c0 30.476 0 54.857 12.19 79.238 12.19 18.286 24.381 36.571 42.667 42.667 24.381 12.19 42.667 12.19 79.238 12.19h140.19c30.476 0 54.857 0 79.238-12.19 18.286-12.19 36.571-24.381 42.667-42.667 12.19-24.381 12.19-42.667 12.19-79.238v-749.714c0-30.476 0-54.857-12.19-79.238-12.19-18.286-24.381-36.571-42.667-42.667-24.381-12.19-42.667-12.19-79.238-12.19zM137.143 393.143c-12.19 0-30.476 0-30.476 0s0-12.19 0-30.476v-292.571c0-12.19 0-30.476 0-30.476s18.286 0 30.476 0h170.667v353.524h-170.667zM716.19 33.524h170.667c12.19 0 30.476 0 30.476 0s0 18.286 0 30.476v755.81c0 12.19 0 30.476 0 30.476s-12.19 0-30.476 0h-140.19c-12.19 0-30.476 0-30.476 0s0-12.19 0-30.476v-170.667s0 0 0 0c0-6.095 0-18.286 0-24.381v-579.048zM411.429 33.524h201.143v579.048c0 12.19 0 30.476 0 30.476s-18.286 0-30.476 0h-140.19c-12.19 0-30.476 0-30.476 0s0-18.286 0-30.476v-579.048z" />
<glyph unicode="&#xe918;" glyph-name="home" d="M798.816-63.999h-573.036c-61.037 0-94.815 0-126.815 16-27.852 14.222-50.37 36.741-64.593 64.593-16 32-16 65.185-16 126.815v357.332c0 32 0 49.185 5.333 68.741 4.741 17.185 13.037 33.778 23.704 48 11.852 16 26.667 27.259 50.37 46.222l335.406 261.333c20.148 16 33.778 26.074 52.741 31.407 16.593 4.741 34.963 4.741 51.556 0 18.963-5.333 32.593-15.407 52.741-31.407l335.406-260.741c24.296-18.963 39.111-30.222 50.963-46.815 10.667-14.222 18.963-30.815 23.704-48 5.333-19.556 5.333-37.333 5.333-68.741v-357.332c0-61.037 0-94.815-16-126.815-14.222-27.852-36.741-50.37-64.593-64.593-32-16-65.185-16-126.815-16zM510.224 861.629s-6.519-7.704-16-14.815c0 0 0 0 0 0l-334.814-260.148c-17.778-13.63-28.444-21.926-32-27.259-3.556-4.741-5.926-10.074-7.704-16-1.778-6.519-1.778-20.148-1.778-42.074v-357.332c0-42.667 0-71.111 5.333-81.778 4.741-9.481 12.444-16.593 21.333-21.333 10.667-5.333 38.519-5.333 81.778-5.333h573.036c42.667 0 71.111 0 81.778 5.333 9.481 4.741 16.593 12.444 21.333 21.333 5.333 10.667 5.333 38.519 5.333 81.778v357.332c0 22.519 0 35.556-1.778 42.074-1.778 5.926-4.148 11.259-7.704 16-4.148 5.333-14.815 13.63-32 27.259l-335.999 260.148c-9.481 7.111-14.815 12.444-20.148 14.815zM709.928 133.334h-395.258c-27.259 0-49.185 21.926-49.185 49.185s21.926 49.185 49.185 49.185h395.258c27.259 0 49.185-21.926 49.185-49.185s-21.926-49.185-49.185-49.185zM464.001 885.925v0z" />
<glyph unicode="&#xe919;" glyph-name="logout" d="M358.338-63.998h-61.465c-94.040 0-141.369 0-185.008 22.127-38.722 19.669-70.070 51.016-89.738 89.738-22.127 43.64-22.127 90.968-22.127 185.008v430.252c0 94.040 0 141.369 22.127 185.008 19.669 38.722 51.016 70.070 89.738 89.738 43.64 22.127 90.968 22.127 185.008 22.127h61.465c28.274 0 51.016-22.742 51.016-51.016s-22.742-51.016-51.016-51.016h-61.465c-75.601 0-116.783 0-138.91-11.064-19.669-9.834-35.035-25.2-44.869-44.869-11.064-22.127-11.064-63.309-11.064-138.91v-430.252c0-74.987 0-116.783 11.064-138.91 9.834-19.054 25.2-35.035 44.869-44.869 22.127-11.064 63.309-11.064 138.91-11.064h61.465c28.274 0 51.016-22.742 51.016-51.016s-22.742-51.016-51.016-51.016zM717.29 140.679c-12.908 0-26.43 4.917-36.264 14.752-20.283 20.283-20.283 52.86 0 72.528l168.413 168.413h-490.487c-28.274 0-51.016 22.742-51.016 51.016s22.742 51.016 51.016 51.016h490.487l-168.413 168.413c-20.283 20.283-20.283 52.245 0 72.528s52.86 20.283 72.528 0l255.692-255.692s1.23-1.23 1.23-1.23c0 0 0 0 0 0v0c4.303-4.303 7.375-9.834 9.834-14.752 0 0 0 0 0 0 2.458-6.147 3.688-12.908 3.688-19.669s-1.23-13.522-3.688-19.669c0 0 0 0 0 0-2.458-5.531-5.531-10.449-9.834-14.752v0s0 0 0 0c0 0-0.614-1.23-1.23-1.23l-255.692-256.308c-9.834-9.834-23.357-14.752-36.264-14.752z" />
<glyph unicode="&#xe91a;" glyph-name="doc" d="M660.879-64h-297.759c-85.473 0-128.489 0-168.153 20.111-35.195 17.877-63.686 46.368-81.562 81.562-20.111 39.664-20.111 82.68-20.111 168.153v484.347c0 85.473 0 128.489 20.111 168.153 17.877 35.195 45.809 63.127 81.562 81.562 39.664 20.111 82.68 20.111 168.153 20.111h297.759c85.473 0 128.489 0 168.153-20.111 35.195-17.877 63.127-45.809 81.562-81.562 20.111-39.664 20.111-82.68 20.111-168.153v-484.347c0-85.473 0-128.489-20.111-168.153-17.877-35.195-46.368-63.686-81.562-81.562-39.664-20.111-82.68-20.111-168.153-20.111zM362.562 866.706c-68.714 0-106.143 0-126.254-10.056-17.877-8.938-31.843-22.905-40.781-40.781-10.056-20.111-10.056-57.541-10.056-126.254v-484.347c0-68.714 0-106.143 10.056-126.254 8.938-17.318 23.463-31.843 40.781-40.781 20.111-10.056 57.541-10.056 126.254-10.056h297.759c68.155 0 106.143 0 126.254 10.056 17.877 8.938 31.843 22.905 40.781 40.781 10.056 20.111 10.056 57.541 10.056 126.254v484.906c0 68.714 0 106.143-10.056 126.254-8.938 17.318-22.905 31.843-40.781 40.781-20.111 10.056-57.541 10.056-126.254 10.056h-297.759zM418.426 261.691h-93.294c-25.698 0-46.368 20.67-46.368 46.368s20.67 46.368 46.368 46.368h93.294c25.698 0 46.368-20.67 46.368-46.368s-20.67-46.368-46.368-46.368zM605.014 447.721h-279.324c-25.698 0-46.368 20.67-46.368 46.368s20.67 46.368 46.368 46.368h279.324c25.698 0 46.368-20.67 46.368-46.368s-20.67-46.368-46.368-46.368zM697.75 634.309h-372.618c-25.698 0-46.368 20.67-46.368 46.368s20.67 46.368 46.368 46.368h372.618c25.698 0 46.368-20.67 46.368-46.368s-20.67-46.368-46.368-46.368z" />
<glyph unicode="&#xe91b;" glyph-name="info-circle" d="M512-63.311c-282.221 0-512 229.089-512 511.311s229.779 512 512 512 512-229.779 512-512-229.779-512-512-512zM512 856.496c-225.639 0-408.496-182.857-408.496-408.496s182.857-408.496 408.496-408.496 408.496 182.857 408.496 408.496-183.547 408.496-408.496 408.496zM512 212.701c-28.291 0-51.752 23.461-51.752 51.752v184.237c0 28.291 23.461 51.752 51.752 51.752s51.752-23.461 51.752-51.752v-184.237c0-28.291-23.461-51.752-51.752-51.752zM512 580.485c-28.291 0-51.752 23.461-51.752 51.752s22.771 51.752 51.752 51.752v0c28.291 0 51.752-23.461 51.752-51.752s-23.461-51.752-51.752-51.752z" />
<glyph unicode="&#xe91c;" glyph-name="star" d="M163.141-64c-25.6 0-46.545 20.945-46.545 46.545v69.818h-69.818c-25.6 0-46.545 20.945-46.545 46.545s20.945 46.545 46.545 46.545h69.818v69.818c0 25.6 20.945 46.545 46.545 46.545s46.545-20.945 46.545-46.545v-69.818h69.818c25.6 0 46.545-20.945 46.545-46.545s-20.945-46.545-46.545-46.545h-69.818v-69.818c0-25.6-20.945-46.545-46.545-46.545zM558.778-17.455c-19.084 0-36.305 11.636-43.287 29.789l-80.524 209.92c-12.567 32.582-17.687 46.080-24.204 55.389-6.051 8.378-13.498 15.825-21.876 21.876-9.309 6.516-23.738 12.102-55.389 24.204l-209.92 80.524c-18.153 6.982-29.789 24.204-29.789 43.287s11.636 36.305 29.789 43.287l209.92 80.524c30.72 11.636 45.615 17.687 55.389 24.204 8.378 6.051 15.825 13.498 21.876 21.876 6.982 9.775 12.567 24.669 24.204 55.389l80.524 209.92c6.982 18.153 24.204 29.789 43.287 29.789s36.771-11.636 43.287-29.789l80.524-209.92c11.636-30.72 17.687-45.615 24.204-55.389 6.051-8.378 13.498-15.825 21.876-21.876 9.775-6.982 24.669-12.567 54.924-24.204l210.385-80.989c18.153-6.982 29.789-24.204 29.789-43.287s-11.636-36.305-29.789-43.287l-209.92-80.524c-31.651-12.102-46.080-17.687-55.389-24.204-8.378-6.051-15.825-13.498-21.876-21.876-6.982-9.775-12.567-24.669-24.204-54.924l-80.989-210.385c-6.982-18.153-24.204-29.789-43.287-29.789zM269.731 448.001l96.815-37.236c36.305-13.964 56.32-21.876 75.869-35.375 17.222-12.102 31.651-26.996 43.753-43.753 13.498-19.084 21.411-39.098 35.375-75.869l37.236-96.815 37.236 96.815c13.964 36.771 21.876 56.785 35.375 75.869 12.102 16.756 26.531 31.651 43.753 43.753 19.549 13.498 39.564 21.411 75.869 35.375l96.815 37.236-96.815 37.236c-36.771 13.964-56.785 21.876-75.869 35.375-17.222 12.102-31.651 26.996-43.753 43.753-13.498 19.084-21.411 39.098-34.909 74.938l-37.702 97.745-37.236-96.815c-13.964-36.305-21.876-56.785-35.375-75.869-12.102-17.222-26.996-31.651-43.753-43.753-19.084-13.498-39.098-21.411-75.404-35.375l-97.28-37.702zM163.141 634.183c-25.6 0-46.545 20.945-46.545 46.545v69.818h-69.818c-25.6 0-46.545 20.945-46.545 46.545s20.945 46.545 46.545 46.545h69.818v69.818c0 25.6 20.945 46.545 46.545 46.545s46.545-20.945 46.545-46.545v-69.818h69.818c25.6 0 46.545-20.945 46.545-46.545s-20.945-46.545-46.545-46.545h-69.818v-69.818c0-25.6-20.945-46.545-46.545-46.545z" />
<glyph unicode="&#xe91d;" glyph-name="warning-triangle" d="M881.996-6.913h-739.319c-48.524 0-78.178 0-103.113 18.197-21.567 16.174-35.719 40.437-39.089 67.395-3.37 31.002 11.457 55.937 35.719 98.396l369.996 638.227c24.262 41.784 39.089 66.72 67.395 79.525 24.936 10.783 53.242 10.783 77.504 0 28.306-12.805 43.132-37.741 67.395-79.525l369.322-638.227c24.262-42.459 39.089-67.395 35.719-98.396-2.696-26.958-16.849-51.22-39.089-67.395-24.936-18.197-53.915-18.197-103.113-18.197zM101.567 83.395v0zM449.997 789.691l43.807-25.61-369.322-638.227c-6.739-11.457-13.479-23.588-18.197-32.349 8.087 0 22.914 0 36.393 0h739.319c13.479 0 27.632 0 37.067 0-4.044 6.739-11.457 19.544-18.197 31.002l-369.996 639.574c-6.739 11.457-13.479 23.588-18.871 31.675-4.044-7.414-10.783-19.544-18.197-31.675l-43.807 24.936zM512.673 150.116c-27.632 0-50.546 22.914-50.546 50.546s22.24 50.546 50.546 50.546v0c27.632 0 50.546-22.914 50.546-50.546s-22.914-50.546-50.546-50.546zM512 330.059c-27.632 0-50.546 22.24-50.546 50.546v179.943c0 27.632 22.914 50.546 50.546 50.546s50.546-22.914 50.546-50.546v-179.943c0-27.632-22.914-50.546-50.546-50.546z" />
<glyph unicode="&#xe91e;" glyph-name="grid" d="M328.244 499.231h-194.493c-33.131 0-55.219 0-77.306 11.044-19.020 9.816-34.972 25.155-44.788 44.788-11.044 22.088-11.044 43.562-11.044 77.306v194.493c0 33.131 0 55.219 11.044 77.306 9.816 19.633 25.155 34.972 44.788 44.788 22.088 11.044 43.562 11.044 77.306 11.044h194.493c33.131 0 55.219 0 77.306-11.044 19.020-9.816 34.972-25.155 44.788-44.788 11.044-22.088 11.044-44.175 11.044-77.306v-194.493c0-33.131 0-55.219-11.044-77.306-9.816-19.633-25.155-34.972-44.788-44.788-22.088-11.044-43.562-11.044-77.306-11.044zM134.365 856.926c-14.111 0-28.836 0-33.131-1.228 2.454-0.613 2.454-15.339 2.454-29.45v-194.493c0-14.111 0-28.836 1.228-33.131 0.613 2.454 15.339 2.454 29.45 2.454h194.493c14.111 0 28.836 0 33.131 1.228-2.454 0.613-2.454 15.339-2.454 29.45v194.493c0 14.111 0 28.836-1.228 33.131-0.613-2.454-15.339-2.454-29.45-2.454h-194.493zM890.862 499.231h-194.493c-33.131 0-55.219 0-77.306 11.044-19.020 9.816-34.972 25.769-44.788 44.788-11.044 21.474-11.044 43.562-11.044 76.693v194.493c0 33.131 0 55.219 11.044 77.306 9.816 19.020 25.769 34.972 44.788 44.788 21.474 11.044 43.562 11.044 76.693 11.044h194.493c33.131 0 55.219 0 77.306-11.044 19.020-9.816 34.972-25.155 44.788-44.788 11.044-22.088 11.044-44.175 11.044-77.306v-194.493c0-33.131 0-55.219-11.044-77.306-9.816-19.633-25.155-34.972-44.788-44.788-21.474-11.044-43.562-11.044-76.693-11.044zM696.369 856.926c-14.111 0-28.836 0-33.131-1.228 2.454-0.613 2.454-15.339 2.454-29.45v-194.493c0-14.111 0-28.836 1.228-33.131 0.613 2.454 15.339 2.454 29.45 2.454h194.493c14.111 0 28.836 0 33.131 1.228-2.454 0.613-2.454 15.339-2.454 29.45v194.493c0 14.111 0 28.836-1.228 33.131-0.613-2.454-15.339-2.454-29.45-2.454h-194.493zM890.862-63.387h-194.493c-33.131 0-55.219 0-77.306 11.044-19.020 9.816-34.972 25.769-44.788 44.788-11.044 22.088-11.044 43.562-11.044 76.693v194.493c0 33.131 0 55.219 11.044 77.306 9.816 19.020 25.769 34.972 44.788 44.788 22.088 11.044 43.562 11.044 77.306 11.044h194.493c33.131 0 55.219 0 76.693-11.044 19.633-9.816 34.972-25.155 44.788-44.788 11.044-22.088 11.044-44.175 11.044-77.306v-194.493c0-33.131 0-55.219-11.044-77.306-9.816-19.633-25.769-34.972-44.788-44.788-22.088-11.044-43.562-11.044-77.306-11.044zM696.369 294.922c-14.111 0-28.836 0-33.131-1.228 2.454-0.613 2.454-15.339 2.454-29.45v-194.493c0-14.111 0-28.836 1.228-33.131 0.613 2.454 15.339 2.454 29.45 2.454h194.493c14.111 0 28.836 0 33.131 1.228-2.454 0.613-2.454 15.339-2.454 29.45v194.493c0 14.111 0 28.836-1.228 33.131 0-2.454-15.339-2.454-29.45-2.454h-194.493zM328.244-63.387h-194.493c-33.131 0-55.219 0-77.306 11.044-19.020 9.816-34.972 25.155-44.788 44.788-11.044 22.088-11.044 44.175-11.044 77.306v194.493c0 33.131 0 55.219 11.044 77.306 9.816 19.633 25.155 34.972 44.788 44.788 22.088 11.044 44.175 11.044 77.306 11.044h194.493c33.131 0 55.219 0 76.693-11.044 19.633-9.816 34.972-25.155 44.788-44.788 11.044-22.088 11.044-44.175 11.044-77.306v-194.493c0-33.131 0-55.219-11.044-77.306-9.816-19.633-25.155-34.972-44.788-44.788-22.088-11.044-44.175-11.044-77.306-11.044zM134.365 294.922c-14.111 0-28.836 0-33.131-1.228 2.454-0.613 2.454-15.339 2.454-29.45v-194.493c0-14.111 0-28.836 1.228-33.131 0.613 2.454 15.339 2.454 29.45 2.454h194.493c14.111 0 28.836 0 33.131 1.228-2.454 0.613-2.454 15.339-2.454 29.45v194.493c0 14.111 0 28.836-1.228 33.131 0-2.454-15.339-2.454-29.45-2.454h-194.493z" />
<glyph unicode="&#xe91f;" glyph-name="facebook" d="M1024 444.801c0 282.88-229.12 512-512 512s-512-229.12-512-512c0-255.574 187.307-467.2 431.787-505.6v357.974h-130.134v148.053h130.134v112.64c0 128.426 76.374 199.253 193.28 199.253 55.893 0 114.773-9.813 114.773-9.813v-125.866h-64.427c-63.573 0-83.627-39.68-83.627-80.214v-96h142.080l-22.614-148.053h-119.467v-357.974c244.907 38.401 431.787 250.027 431.787 505.6z" />
<glyph unicode="&#xe920;" glyph-name="instagram" d="M512.64 867.84c136.96 0 153.173-0.427 206.933-2.987 49.92-2.133 76.8-10.667 95.147-17.493 23.893-9.387 40.96-20.48 58.88-38.4s29.013-34.987 38.4-58.88c6.827-17.92 15.36-45.227 17.493-95.147 2.56-54.187 2.987-70.4 2.987-206.933s-0.427-153.173-2.987-206.933c-2.133-49.92-10.667-76.8-17.493-95.147-9.387-23.893-20.48-40.96-38.4-58.88s-34.987-29.013-58.88-38.4c-17.92-6.827-45.227-15.36-95.147-17.493-54.187-2.56-70.4-2.987-206.933-2.987s-153.173 0.427-206.933 2.987c-49.92 2.133-76.8 10.667-95.147 17.493-23.893 9.387-40.96 20.48-58.88 38.4s-29.013 34.987-38.4 58.88c-6.827 17.92-15.36 45.227-17.493 95.147-2.56 54.187-2.987 70.4-2.987 206.933s0.427 153.173 2.987 206.933c2.133 49.92 10.667 76.8 17.493 95.147 9.387 23.893 20.48 40.96 38.4 58.88s34.987 29.013 58.88 38.4c17.92 6.827 45.227 15.36 95.147 17.493 53.76 2.56 69.973 2.987 206.933 2.987zM512.64 960c-139.093 0-156.587-0.427-211.2-2.987s-91.733-11.093-124.16-23.893c-33.707-13.227-62.293-30.72-90.88-59.307s-46.080-57.173-59.307-90.453c-12.8-32.427-21.333-69.973-23.893-124.16-2.56-54.613-2.987-72.107-2.987-211.2s0.427-156.587 2.987-211.2c2.56-54.613 11.093-91.733 23.893-124.16 13.227-33.707 30.72-62.293 59.307-90.88s57.173-46.080 90.453-58.88c32.427-12.8 69.973-21.333 124.16-23.893 54.613-2.56 72.107-2.987 211.2-2.987s156.587 0.427 211.2 2.987c54.187 2.56 91.733 11.093 124.16 23.893 33.707 12.8 62.293 30.72 90.453 58.88s46.080 57.173 58.88 90.453c12.8 32.427 21.333 69.973 23.893 124.16 2.56 54.613 2.987 72.107 2.987 211.2s-0.427 156.587-2.987 211.2c-2.56 54.613-11.093 91.733-23.893 124.16-12.8 34.133-29.867 62.72-58.453 90.88-28.587 28.587-57.173 46.080-90.453 58.88-32.427 12.8-69.973 21.333-124.16 23.893-54.613 2.56-72.107 3.413-211.2 3.413zM512.64 710.827c-145.067 0-262.827-117.76-262.827-262.827s117.76-262.827 262.827-262.827 262.827 117.76 262.827 262.827-117.76 262.827-262.827 262.827zM512.64 277.333c-94.293 0-170.667 76.373-170.667 170.667s76.373 170.667 170.667 170.667 170.667-76.373 170.667-170.667-76.373-170.667-170.667-170.667zM847.573 721.493c0-34.133-27.733-61.44-61.44-61.44s-61.44 27.733-61.44 61.44 27.733 61.44 61.44 61.44 61.44-27.733 61.44-61.44z" />
<glyph unicode="&#xe921;" glyph-name="link" d="M300-63.75c-77 0-153.5 29-212 87.5-56.5 56.5-88 132-88 212s31 155.5 88 212l70.5 70.5c19.5 19.5 51 19.5 70.5 0s19.5-51 0-70.5l-70.5-70.5c-38-38-58.5-88-58.5-141.5s21-103.5 58.5-141.5c78-78 205-78 283 0l70.5 71c19.5 19.5 51 19.5 70.5 0s19.5-51 0-70.5l-70.5-71c-58.5-58.5-135.5-87.5-212-87.5zM337 223.25c-13 0-25.5 5-35.5 14.5-19.5 19.5-19.5 51 0 70.5l350 350c19.5 19.5 51 19.5 70.5 0s19.5-51 0-70.5l-350-350c-10-10-22.5-14.5-35.5-14.5zM830.5 362.75c-13 0-25.5 5-35.5 14.5-19.5 19.5-19.5 51 0 70.5l70.5 70.5c38 38 58.5 88 58.5 141.5s-21 103.5-58.5 141.5c-38 38-88 58.5-141.5 58.5s-103.5-21-141.5-58.5l-70.5-70.5c-19.5-19.5-51-19.5-70.5 0s-19.5 51 0 70.5l70.5 70.5c56.5 56.5 132 88 212 88s155.5-31 212-88c56.5-56.5 88-132 88-212s-31-155.5-88-212l-70.5-70.5c-10-10-22.5-14.5-35.5-14.5z" />
<glyph unicode="&#xe922;" glyph-name="linkedin" d="M948.053 959.999h-872.533c-41.813 0-75.52-32.853-75.52-73.813v-876.373c0-40.96 33.707-73.813 75.52-73.813h872.533c41.813 0 75.947 33.28 75.947 73.813v876.373c0 40.96-34.133 73.813-75.947 73.813zM303.787 87.466h-151.893v488.96h151.893v-488.96zM227.84 642.986c-48.64 0-88.32 39.253-88.32 87.893s39.253 87.893 88.32 87.893 87.893-39.253 87.893-87.893-39.253-87.893-87.893-87.893zM872.533 87.466h-151.893v237.653c0 56.747-0.853 129.707-78.933 129.707s-90.88-61.867-90.88-125.44v-241.493h-151.467v488.96h145.493v-66.987h2.133c20.053 38.4 69.973 78.933 143.787 78.933 153.6 0 182.187-101.12 182.187-232.96v-268.373z" />
<glyph unicode="&#xe923;" glyph-name="x" d="M687.715-41.952h336.285l-396.416 564.782 364.347 415.124h-130.951l-291.744-332.277-232.95 332.277h-336.285l382.163-544.738-382.163-435.167h130.951l309.561 352.32 247.204-352.32zM833.364 57.374h-88.191l-557.655 781.251h88.191l557.655-781.251z" />
<glyph unicode="&#xe924;" glyph-name="arrow-right" d="M512.767-64c-16.123 0-33.013 6.142-45.297 18.426-25.336 25.336-25.336 66.027 0 90.596l338.582 338.582h-741.656c-35.317 0-63.724 28.407-63.724 63.724s28.407 63.724 63.724 63.724h740.888l-337.814 339.349c-25.336 25.336-25.336 65.259 0 90.596s65.259 25.336 90.596 0l447.604-447.604s0 0 0 0c0 0 0 0 0 0s0 0 0 0v0s0 0 0 0v0c6.142-6.142 9.981-13.051 13.051-19.962 3.071-7.677 4.607-16.123 4.607-24.569s-1.535-16.891-4.607-24.569c0 0 0 0 0 0-3.071-6.91-7.677-13.82-13.051-19.962v0s0 0 0 0v0s0 0 0 0c0 0 0 0 0 0s0 0 0 0v0s0 0 0 0v0s-447.604-447.604-447.604-447.604c-12.284-12.284-29.174-18.426-45.297-18.426z" />
<glyph unicode="&#xe925;" glyph-name="arrow-top" d="M1024 448.767c0-16.123-6.142-33.013-18.426-45.297-25.336-25.336-66.027-25.336-90.596 0l-338.582 338.582v-741.656c0-35.317-28.407-63.724-63.724-63.724s-63.724 28.407-63.724 63.724v740.888l-339.349-337.814c-25.336-25.336-65.259-25.336-90.596 0s-25.336 65.259 0 90.596l447.604 447.604s0 0 0 0c0 0 0 0 0 0s0 0 0 0v0s0 0 0 0v0c6.142 6.142 13.051 9.981 19.962 13.051 7.677 3.071 16.123 4.607 24.569 4.607s16.891-1.535 24.569-4.607c0 0 0 0 0 0 6.91-3.071 13.82-7.677 19.962-13.051v0s0 0 0 0v0s0 0 0 0c0 0 0 0 0 0s0 0 0 0v0s0 0 0 0v0s447.604-447.604 447.604-447.604c12.284-12.284 18.426-29.174 18.426-45.297z" />
<glyph unicode="&#xe926;" glyph-name="arrow-left" d="M511.233 960c16.123 0 33.013-6.142 45.297-18.426 25.336-25.336 25.336-66.027 0-90.596l-338.582-338.582h741.656c35.317 0 63.724-28.407 63.724-63.724s-28.407-63.724-63.724-63.724h-740.888l337.814-339.349c25.336-25.336 25.336-65.259 0-90.596s-65.259-25.336-90.596 0l-447.604 447.604s0 0 0 0c0 0 0 0 0 0s0 0 0 0v0s0 0 0 0v0c-6.142 6.142-9.981 13.051-13.051 19.962-3.071 7.677-4.607 16.123-4.607 24.569s1.535 16.891 4.607 24.569c0 0 0 0 0 0 3.071 6.91 7.677 13.82 13.051 19.962v0s0 0 0 0v0s0 0 0 0c0 0 0 0 0 0s0 0 0 0v0s0 0 0 0v0s447.604 447.604 447.604 447.604c12.284 12.284 29.174 18.426 45.297 18.426z" />
<glyph unicode="&#xe927;" glyph-name="arrow-down" d="M0 447.233c0 16.123 6.142 33.013 18.426 45.297 25.336 25.336 66.027 25.336 90.596 0l338.582-338.582v741.656c0 35.317 28.407 63.724 63.724 63.724s63.724-28.407 63.724-63.724v-740.888l339.349 337.814c25.336 25.336 65.259 25.336 90.596 0s25.336-65.259 0-90.596l-447.604-447.604s0 0 0 0c0 0 0 0 0 0s0 0 0 0v0s0 0 0 0v0c-6.142-6.142-13.051-9.981-19.962-13.051-7.677-3.071-16.123-4.607-24.569-4.607s-16.891 1.535-24.569 4.607c0 0 0 0 0 0-6.91 3.071-13.82 7.677-19.962 13.051v0s0 0 0 0v0s0 0 0 0c0 0 0 0 0 0s0 0 0 0v0s0 0 0 0v0s-447.604 447.604-447.604 447.604c-12.284 12.284-18.426 29.174-18.426 45.297z" />
<glyph unicode="&#xe928;" glyph-name="book" d="M735.55-63.999h-372.194c-85.605 0-128.406 0-168.418 20.471-35.359 18.145-63.273 46.059-81.418 81.418-10.7 20.935-15.818 42.337-18.145 70.252-1.395 4.653-2.326 9.305-2.326 14.422s0 10.235 0.465 15.353c-0.465 19.54-0.465 41.872-0.465 68.391v483.387c0 85.605 0 128.406 20.471 168.418 18.145 35.359 46.059 63.273 81.418 81.418 40.011 20.471 82.813 20.471 168.418 20.471h372.194c57.69 0 89.326 0 119.102-15.353 26.519-13.492 47.454-34.428 60.947-60.947 15.353-29.775 15.353-61.412 15.353-119.102v-642.034c0-52.107-0.931-81.883-15.353-109.797-13.492-26.519-34.428-47.454-60.947-60.947-29.775-15.353-61.412-15.353-119.102-15.353zM187.495 134.194c0.931-25.588 3.722-42.802 9.305-54.433 8.84-17.679 23.262-31.637 40.477-40.477 20.006-10.235 57.69-10.235 126.080-10.235h372.194c40.477 0 66.994 0 76.765 5.118 8.84 4.653 15.818 11.631 20.471 20.471 5.118 9.771 5.118 36.754 5.118 76.765v83.744h-558.29c-46.99 0-86.536-35.359-92.118-80.952zM363.357 866.485c-68.391 0-106.076 0-126.080-10.235-17.679-8.84-31.637-23.262-40.477-40.477-10.235-20.006-10.235-57.69-10.235-126.080v-406.622c27.449 15.818 59.086 25.124 93.049 25.124h558.29v455.937c0 40.477 0 66.994-5.118 76.765-4.653 8.84-11.631 15.818-20.471 20.471-9.771 5.118-36.754 5.118-76.765 5.118h-372.194z" />
<glyph unicode="&#xe929;" glyph-name="chat-face" d="M287.609-63.498c-23.489 0-44.478 10.495-58.971 28.486-16.492 20.49-16.492 43.479-16.492 77.961v66.967c-20.99 0.499-36.482 1.999-51.975 6.496-68.966 18.491-122.939 72.465-141.43 141.43-6.997 25.488-6.997 50.975-6.997 101.95v309.848c0 91.955 0 137.932 21.99 180.911 19.49 37.981 49.475 67.966 87.458 87.458 42.979 21.99 88.956 21.99 180.911 21.99h419.794c91.955 0 137.932 0 180.911-21.99 37.981-19.49 67.966-49.475 87.458-87.458 21.99-42.979 21.99-88.956 21.99-180.911v-269.868c0-91.955 0-137.932-21.99-180.911-18.991-37.981-49.475-67.966-87.458-87.458-42.979-21.99-88.956-21.99-180.911-21.99h-125.938c-27.986 0-41.48 0-51.474-1.999-8.996-1.999-17.491-4.998-25.488-8.996-8.996-4.497-19.991-12.994-40.98-30.485l-119.442-95.953c-26.986-21.489-44.478-35.982-70.965-35.982zM312.597 14.964v0zM302.101 859.049c-73.464 0-113.944 0-135.433-10.995-18.991-9.495-33.983-24.987-43.479-43.479-10.995-21.489-10.995-61.97-10.995-135.433v-309.848c0-40.481 0-62.97 3.498-75.962 8.996-34.483 36.482-61.47 70.466-70.466 12.494-3.498 34.983-3.498 75.962-3.498 27.487 0 49.976-22.489 49.976-49.976v-95.953l102.95 82.46c26.487 20.99 40.481 32.484 58.471 41.48 15.993 7.996 32.984 13.993 50.975 17.992 19.991 3.998 37.981 3.998 71.465 3.998h125.938c73.464 0 113.944 0 135.433 10.995 18.991 9.495 33.983 24.987 43.479 43.479 10.995 21.489 10.995 61.97 10.995 135.433v269.868c0 73.464 0 113.944-10.995 135.433-9.495 18.991-24.987 33.983-43.479 43.479-21.489 10.995-61.97 10.995-135.433 10.995h-419.794zM511.999 309.32c-130.436 0-209.397 88.457-212.396 91.955-17.992 20.99-15.993 52.474 4.497 70.466 20.99 17.992 51.975 15.993 70.466-4.497 2.999-2.999 53.974-57.972 137.432-57.972s135.433 55.973 137.432 57.972c18.491 20.49 49.976 22.489 70.466 3.998 20.49-17.992 22.489-49.475 4.497-69.965-3.498-3.998-81.96-91.955-212.396-91.955zM649.431 609.172c-41.48 0-74.963 33.484-74.963 74.963s33.484 74.963 74.963 74.963 74.963-33.484 74.963-74.963-33.484-74.963-74.963-74.963zM374.566 609.172c-41.48 0-74.963 33.484-74.963 74.963s33.484 74.963 74.963 74.963 74.963-33.484 74.963-74.963-33.484-74.963-74.963-74.963z" />
<glyph unicode="&#xe92a;" glyph-name="chat1" d="M551.942-24.057c-58.634 0-115.282 10.435-169.443 31.305-4.969 1.987-7.951 3.478-10.435 3.975-0.497 0-3.478-0.497-7.453-0.994l-254.414-26.336c-31.802-3.478-53.168-5.466-74.535 7.453-18.883 11.429-31.305 30.311-34.783 52.175-3.975 24.845 5.962 43.727 21.367 72.051l80.995 150.562c3.478 6.957 5.962 10.932 7.453 14.41-0.994 1.491-2.982 6.957-6.46 16.895-16.397 48.697-24.845 99.381-24.845 151.058 0.497 259.88 212.177 471.56 472.554 471.56s472.057-211.681 472.057-472.057-211.681-472.057-472.057-472.057zM98.271 46.006v0zM373.555 110.604s1.987 0 2.982 0c6.46 0 11.429-0.994 18.385-2.484 4.969-0.994 10.932-2.982 23.354-7.951 42.733-16.397 87.455-24.845 133.667-24.845 205.717 0 372.676 166.959 372.676 372.676s-166.959 372.676-372.676 372.676-372.676-166.959-372.676-372.676c0-40.746 6.46-80.995 19.379-119.257 6.46-18.883 9.938-29.814 10.932-41.74 0.994-11.429 0-21.367-2.982-32.298-2.982-11.926-8.448-21.863-15.901-36.274l-72.547-133.667 235.531 24.348c9.441 0.994 14.907 1.491 19.379 1.491z" />
<glyph unicode="&#xe92b;" glyph-name="dollar-circle" d="M512-64c-282.531 0-512 229.469-512 512s229.469 512 512 512 512-229.469 512-512-229.469-512-512-512zM512 866.909c-230.865 0-418.909-188.044-418.909-418.909s188.044-418.909 418.909-418.909 418.909 188.044 418.909 418.909-188.044 418.909-418.909 418.909zM512 98.909c-25.6 0-46.545 20.945-46.545 46.545v23.273h-7.913c-85.644 0-154.996 69.818-154.996 154.996 0 25.6 20.945 46.545 46.545 46.545s46.545-20.945 46.545-46.545c0-34.444 27.927-61.905 61.905-61.905h101.004c38.633 0 69.818 31.185 69.818 69.818s-31.185 69.818-69.818 69.818h-93.091c-89.833 0-162.909 73.076-162.909 162.909s73.076 162.909 162.909 162.909v23.273c0 25.6 20.945 46.545 46.545 46.545s46.545-20.945 46.545-46.545v-23.273h7.913c85.644 0 154.996-69.818 154.996-154.996 0-25.6-20.945-46.545-46.545-46.545s-46.545 20.945-46.545 46.545c0 33.978-27.927 61.905-61.905 61.905h-101.004c-38.633 0-69.818-31.185-69.818-69.818s31.185-69.818 69.818-69.818h93.091c89.833 0 162.909-73.076 162.909-162.909s-73.076-162.909-162.909-162.909v-23.273c0-25.6-20.945-46.545-46.545-46.545z" />
<glyph unicode="&#xe92c;" glyph-name="flag" d="M76.544-64c-28.16 0-51.2 23.040-51.2 51.2v870.4c0 4.096 0 8.192 1.536 11.776 1.536 12.8 4.096 23.552 9.728 34.816 9.728 19.456 25.6 34.816 44.544 44.544 22.016 11.264 44.032 11.264 77.312 11.264h296.96c33.28 0 55.296 0 77.312-11.264 19.456-9.728 34.816-25.088 44.544-44.544 7.168-14.336 9.728-28.672 10.752-46.592h276.992c33.28 0 55.296 0 77.312-11.264 19.456-9.728 34.816-25.6 45.056-44.544 11.264-22.016 11.264-44.032 11.264-77.312v-348.16c0-33.28 0-55.296-11.264-77.312-9.728-19.456-25.6-34.816-45.056-45.056-22.016-11.264-44.032-11.264-77.312-11.264h-245.76c-33.28 0-55.296 0-77.312 11.264-19.456 9.728-34.816 25.088-44.544 44.544-7.68 14.848-9.728 29.184-10.752 47.104-9.216 0-19.456 0-31.232 0h-327.68v-358.4c0-28.16-23.040-51.2-51.2-51.2zM588.544 478.72v-102.4c0-14.336 0-29.184 1.024-33.28 1.024 2.56 15.36 2.56 29.696 2.56h245.76c14.336 0 29.184 0 33.28 1.024-2.56 0.512-2.56 15.36-2.56 29.696v348.16c0 14.336 0 29.184-1.024 33.28-0.512-2.56-15.36-2.56-29.696-2.56h-276.48v-276.48zM127.744 448h327.68c12.288 0 24.576 0 30.72 0.512v378.368c0 14.336 0 29.184-1.024 33.28-0.512-2.56-15.36-2.56-29.696-2.56h-296.96c-12.288 0-24.576 0-30.72-0.512v-409.088z" />
<glyph unicode="&#xe92d;" glyph-name="lightning" d="M465.453-64c-6.051 0-12.568 1.396-18.619 3.724-19.085 8.378-30.257 27.928-27.463 48.409l40.031 320.249h-286.735c-33.049 0-54.461 0-73.546 15.361-16.757 13.965-26.066 33.98-26.066 55.392 0 24.67 14.43 41.427 34.911 66.563l414.741 497.597c13.034 15.826 35.377 20.946 54.461 13.034 19.085-8.378 30.257-27.928 27.463-48.409l-40.031-320.249h286.735c32.584 0 54.461 0 73.546-15.361 16.757-13.499 26.066-33.98 26.066-55.392 0-24.67-14.43-41.427-35.377-66.563l-414.741-497.597c-8.844-10.706-22.343-16.757-35.842-16.757zM192.683 401.479h319.783c13.499 0 26.066-5.585 34.911-15.826s13.034-23.274 11.172-36.773l-26.997-215.051 300.233 360.28h-319.318c-13.499 0-26.066 5.585-34.911 15.826-8.844 9.776-13.034 23.274-11.172 36.773l26.997 215.051-300.233-360.28z" />
<glyph unicode="&#xe92e;" glyph-name="play-circle" d="M512-64c-282.531 0-512 229.469-512 512s229.469 512 512 512 512-229.469 512-512-229.469-512-512-512zM512 866.909c-230.865 0-418.909-188.044-418.909-418.909s188.044-418.909 418.909-418.909 418.909 188.044 418.909 418.909-188.044 418.909-418.909 418.909zM418.444 211.549s-2.793 0-4.655 0c-20.48 1.396-39.098 11.636-51.2 27.927-13.964 18.618-13.964 39.098-13.964 67.491v282.531c0 28.393 0 48.873 13.964 67.491 12.102 16.291 30.72 26.531 50.735 27.927 23.273 1.396 40.495-9.309 64.233-24.669l219.695-141.498c21.411-13.498 36.305-23.273 44.684-43.287 7.447-17.222 7.447-36.771 0-54.458-8.378-19.549-23.273-29.324-44.218-42.822l-220.16-141.498c-22.342-14.429-38.633-25.135-59.578-25.135zM442.647 284.16v0zM408.669 302.778v0zM442.182 572.276v-248.553l193.164 124.276-193.164 124.276zM663.273 429.847v0zM408.669 593.222v0z" />
<glyph unicode="&#xe92f;" glyph-name="users" d="M977.455-17.456c-25.6 0-46.545 20.945-46.545 46.545v93.091c0 63.767-42.822 119.156-104.727 135.447-25.135 6.516-40.029 31.651-33.513 56.785s32.116 40.029 56.785 33.513c102.865-26.531 174.545-119.156 174.545-225.28v-93.091c0-25.6-20.945-46.545-46.545-46.545zM744.726-17.456c-25.6 0-46.545 20.945-46.545 46.545 0 80.524 0 121.018-10.705 146.618-13.964 33.978-41.425 61.44-75.404 75.404-25.6 10.705-66.095 10.705-146.618 10.705h-139.636c-80.524 0-121.018 0-146.618-10.705-33.978-13.964-61.44-41.425-75.404-75.404-10.705-25.6-10.705-66.095-10.705-146.618 0-25.6-20.945-46.545-46.545-46.545s-46.545 20.945-46.545 46.545c0 92.625 0 139.636 17.687 181.993 23.273 56.785 69.353 102.4 126.138 126.138 42.822 17.687 89.367 17.687 181.993 17.687h139.636c92.625 0 139.171 0 181.993-17.687 57.251-23.738 101.935-68.422 126.138-126.138 17.687-42.822 17.687-89.367 17.687-181.993 0-25.6-20.945-46.545-46.545-46.545zM395.635 448c-128.465 0-232.727 104.262-232.727 232.727s104.262 232.727 232.727 232.727 232.727-104.262 232.727-232.727-104.262-232.727-232.727-232.727zM395.635 820.365c-76.8 0-139.636-62.836-139.636-139.636s62.836-139.636 139.636-139.636 139.636 62.836 139.636 139.636-62.836 139.636-139.636 139.636zM674.908 461.498c-18.618 0-35.84 11.171-43.287 29.324-9.775 23.738 1.862 50.735 25.6 60.509 53.062 21.411 87.505 72.145 87.505 129.396s-34.444 107.985-87.505 129.396c-23.738 9.775-35.375 36.771-25.6 60.509s36.771 35.375 60.509 25.6c88.436-35.84 145.222-120.553 145.222-215.971s-57.251-180.131-145.222-215.971c-5.585-2.327-11.636-3.258-17.687-3.258z" />
<glyph unicode="&#xe930;" glyph-name="cube" d="M511.435-64c-6.22 0-12.441 0.566-18.662 1.696-14.138 2.828-24.883 9.048-39.586 16.965l-349.487 194.537c-16.965 9.048-27.711 15.269-37.889 26.579-9.048 9.614-15.834 21.489-20.359 34.496-4.524 14.138-4.524 27.145-4.524 46.372v382.286c0 19.227 0 31.669 4.524 46.372 3.958 13.007 10.745 24.317 20.359 34.496 10.179 11.31 21.489 17.531 37.889 26.579l348.355 193.971c15.834 9.048 26.013 14.703 40.717 17.531 12.441 2.828 25.448 2.828 37.889 0 14.138-2.828 24.883-8.482 40.717-17.531l348.921-193.971c16.965-9.614 27.711-15.269 37.889-26.579 9.048-9.614 15.834-21.489 20.359-34.496 4.524-14.138 4.524-27.145 4.524-46.372v-382.286c0-19.227 0-31.669-4.524-46.372-4.524-13.007-11.31-24.317-20.359-34.496-10.179-10.745-20.924-16.965-37.889-26.013l-348.921-193.971c-15.834-9.048-26.579-14.703-40.717-17.531-6.22-1.131-12.441-1.696-18.662-1.696zM134.805 603.305v-346.659c0-8.482 0-13.572 0-18.097 1.696 0 6.786-2.262 14.138-6.786l314.99-175.309v363.059l-329.128 183.791zM558.939 420.079v-363.059l314.99 175.309c7.352 3.958 12.441 6.22 15.834 9.048-0.566 1.696-1.131 7.352-1.131 15.834v346.659l-329.694-183.226zM184.569 683.608l326.866-181.529 326.866 181.529-313.294 174.178c-6.786 3.958-11.31 6.786-15.269 7.917-1.131-1.131-5.090-3.958-12.441-7.917l-313.294-174.178z" />
<glyph unicode="&#xe931;" glyph-name="house-smile" d="M798.815-63.999h-573.037c-61.037 0-94.815 0-126.815 16-27.852 14.222-50.37 36.741-64.593 64.593-16 32-16 65.185-16 126.815v357.333c0 32 0 49.185 5.333 68.741 4.741 17.778 13.037 33.778 23.704 48 11.852 16 26.667 27.852 50.963 46.222l334.815 261.333c20.148 16 33.778 26.074 52.741 31.407 17.185 4.741 34.963 4.741 51.556 0 18.963-5.333 32.593-16 53.333-31.407l334.815-260.741c24.296-18.963 39.111-30.222 50.963-46.815 10.667-14.222 18.963-30.815 23.704-48 5.333-19.556 5.333-37.333 5.333-68.741v-357.333c0-61.037 0-94.815-16-126.815-14.222-27.852-36.741-50.37-64.593-64.593-32-16-65.185-16-126.815-16zM510.223 861.631s-7.111-7.704-16-14.815v0l-334.815-260.148c-17.778-13.63-28.444-21.926-32-27.259-3.556-4.741-5.926-10.074-7.704-16-1.778-6.519-1.778-20.148-1.778-42.074v-357.333c0-42.667 0-71.111 5.333-81.778 4.741-9.481 12.444-16.593 21.333-21.333 10.667-5.333 38.519-5.333 81.778-5.333h573.037c42.667 0 71.111 0 81.778 5.333 9.481 4.741 16.593 12.444 21.333 21.333 5.333 10.667 5.333 38.519 5.333 81.778v357.333c0 22.519 0 35.556-1.778 42.074-1.778 5.926-4.148 11.259-7.704 16-4.148 5.926-14.815 13.63-32 27.259l-336 260.148c-9.481 7.111-14.815 12.444-20.148 14.815zM464.001 885.927v0 0zM512.001 133.334c-112.593 0-210.963 76.444-239.407 185.481-7.111 26.667 8.889 53.333 35.556 60.444s53.333-8.889 60.444-35.556c16.593-65.185 75.852-110.815 143.407-110.815s126.815 45.63 143.407 110.815c7.111 26.667 34.37 42.074 60.444 35.556 26.667-7.111 42.667-33.778 35.556-60.444-27.852-109.037-126.222-185.481-239.407-185.481z" />
<glyph unicode="&#xe932;" glyph-name="roller-brush" d="M507.533-63.999h-37.409c-30.15 0-50.251 0-70.351 10.050-17.309 8.375-31.826 22.892-40.759 40.759-10.050 20.1-10.050 40.201-10.050 70.351v176.995c0 30.15 0 50.251 10.050 70.351 8.933 17.867 22.892 31.826 40.759 40.759 12.842 6.7 26.242 8.933 42.434 9.492 0 51.926 0.558 82.076 15.075 110.552 13.4 26.242 34.617 47.459 60.859 60.859 29.592 15.075 61.418 15.075 119.485 15.075h167.503c40.201 0 67.001 0 77.051 5.025 8.933 4.467 15.634 11.725 20.1 20.1 5.025 10.050 5.025 36.851 5.025 77.051v13.959c0 33.501 0 55.834-3.35 64.209-4.467 11.725-13.959 20.1-25.125 25.125-3.908 1.675-10.609 2.233-19.542 2.792 0-1.117 0-2.233-0.558-3.35-11.167-55.834-54.159-98.827-109.993-109.993-13.4-2.792-26.8-2.792-50.809-2.792h-511.442c-24.009 0-36.851 0-50.809 2.792-55.834 11.167-98.827 54.159-109.435 109.993-2.792 13.4-2.792 26.8-2.792 50.251s0 36.851 2.792 50.809c11.167 55.834 54.159 98.827 109.435 109.993 13.4 2.792 26.8 2.792 50.809 2.792h512c24.009 0 36.851 0 50.251-2.792 55.834-11.167 98.827-54.159 109.993-109.993 0-1.675 0-2.792 0.558-4.467 22.334-1.117 39.084-3.35 55.276-10.050 34.617-14.517 61.418-41.317 75.376-75.376 10.609-25.684 10.609-51.926 10.609-99.943v-13.959c0-57.509 0-89.335-15.075-119.485-13.4-26.242-34.617-47.459-60.859-60.859-30.15-15.075-61.418-15.075-118.927-15.075h-167.503c-40.201 0-67.001 0-77.051-5.025-8.933-4.467-15.634-11.725-20.1-20.1-4.467-8.933-5.025-32.384-5.025-68.118 16.192-0.558 29.034-2.792 41.876-9.492 17.867-8.933 31.826-23.45 40.759-40.759 10.050-20.1 10.050-40.201 10.050-70.351v-176.995c0-30.15 0-50.251-10.050-70.351-8.933-17.309-23.45-31.826-40.759-40.759-19.542-10.050-39.642-10.050-70.351-10.050zM470.124 262.073c-12.842 0-26.242 0-30.15-1.117 2.233 0 2.233-13.959 2.233-26.8v-176.995c0-12.842 0-26.242 1.117-30.15 0.558 2.233 13.959 2.233 26.8 2.233h37.409c12.842 0 26.242 0 30.15 1.117-2.233 0-2.233 13.959-2.233 26.8v176.995c0 12.842 0 26.242-1.117 30.15-0.558-2.233-13.959-2.233-26.8-2.233h-37.409zM186.486 866.758c-16.75 0-27.917 0-32.384-1.117-18.425-3.908-32.942-17.867-36.292-36.292-1.117-4.467-1.117-15.634-1.117-32.384s0-27.917 1.117-32.384c3.908-18.425 17.867-32.942 36.292-36.292 4.467-1.117 15.634-1.117 32.384-1.117h512c16.75 0 27.917 0 32.384 1.117 18.425 3.908 32.942 17.867 36.292 36.292 1.117 4.467 1.117 15.634 1.117 32.384s0 27.917-1.117 32.384c-3.908 18.425-17.867 32.384-36.292 36.292-4.467 1.117-15.634 1.117-32.384 1.117h-512z" />
<glyph unicode="&#xe933;" glyph-name="tool" d="M151.478-64c-40.704 0-78.5 15.7-106.994 44.193s-44.193 66.289-44.193 106.994 15.7 78.5 44.193 106.994l302.954 302.954c7.56 7.56 12.793 12.211 15.7 16.282-1.744 2.326-4.071 11.049-7.56 26.749-6.396 26.167-9.885 53.497-9.885 80.827 0 187.238 152.349 339.007 339.007 339.007 48.845 0 95.945-9.885 139.557-30.238 14.537-6.396 25.004-19.771 27.911-35.471s-2.326-31.982-13.374-43.030l-137.813-137.813c-9.304-9.304-19.189-19.189-21.515-22.678 2.326 1.163 12.211-9.304 21.515-18.026v0s35.471-36.052 35.471-36.052c9.304-9.304 19.189-19.189 22.678-21.515-1.163 2.326 8.722 12.211 18.026 21.515l137.813 137.813c11.049 11.049 27.329 16.282 43.030 13.374s29.074-13.374 35.471-27.911c19.771-44.193 30.238-91.293 30.238-139.557 0-187.238-152.349-339.007-339.007-339.007-26.749 0-54.078 3.489-80.245 9.885-15.7 4.071-25.004 6.396-30.818 6.978 0-1.744-4.071-6.978-11.629-13.956l-302.954-302.954c-28.493-28.493-66.289-44.193-106.994-44.193zM684.702 862.308c-133.742 0-242.48-108.738-242.48-242.48 0-19.771 2.326-38.96 6.978-57.567 6.978-28.493 10.467-43.030 9.304-57.567s-4.071-25.004-10.467-37.796c-6.978-13.374-16.282-22.678-31.982-38.378l-302.954-302.954c-10.467-10.467-15.7-23.841-15.7-38.378s5.815-27.911 15.7-38.378c20.352-20.352 56.404-20.352 76.756 0l302.954 302.954c15.7 15.7 25.585 25.004 38.96 31.982 12.793 6.396 23.26 9.885 37.796 10.467 14.537 1.163 29.074-2.326 57.567-9.304 19.189-4.652 38.96-6.978 58.149-6.978 133.742 0 242.48 108.738 242.48 242.48 0 8.722 0 18.026-1.163 26.749l-79.082-79.082c-22.096-22.096-37.215-37.215-59.311-44.193-19.771-6.396-40.122-6.396-59.893 0-22.096 6.978-36.634 22.096-59.311 44.193l-35.471 35.471c-22.096 22.096-37.215 37.215-44.193 59.311-6.396 19.771-6.396 40.122 0 59.893 6.978 22.096 22.096 36.634 44.193 59.311l79.082 79.082c-8.722 1.163-17.445 1.163-26.749 1.163z" />
<glyph unicode="&#xe934;" glyph-name="calendar" d="M707.403-63.534h-390.804c-85.605 0-128.406 0-168.418 20.471-35.359 18.145-63.273 46.059-81.418 81.418-20.471 40.011-20.471 82.813-20.471 168.418v390.338c0 85.605 0 128.406 20.471 168.418 18.145 35.359 46.059 63.273 81.418 81.418 33.498 17.214 69.321 19.54 131.198 20.006v46.524c0 25.588 20.935 46.524 46.524 46.524s46.524-20.935 46.524-46.524v-46.524h279.146v46.524c0 25.588 20.935 46.524 46.524 46.524s46.524-20.935 46.524-46.524v-46.524c61.412 0 97.236-3.257 131.198-20.006 35.359-18.145 63.273-46.059 81.418-81.418 20.471-40.011 20.471-82.813 20.471-168.418v-390.804c0-85.605 0-128.406-20.471-168.418-17.679-35.359-46.059-63.273-81.418-81.418-40.011-20.471-82.813-20.471-168.418-20.471zM139.808 494.757v-288.45c0-68.391 0-106.076 10.235-126.080 8.84-17.679 23.262-31.637 40.477-40.477 20.006-10.235 57.69-10.235 126.080-10.235h390.804c68.391 0 106.076 0 126.080 10.235 17.679 8.84 31.637 23.262 40.477 40.477 10.235 20.006 10.235 57.69 10.235 126.080v288.45h-744.387zM139.808 587.805h744.387v9.305c0 68.391 0 106.076-10.235 126.080-8.84 17.679-23.262 31.637-40.477 40.477-15.818 7.909-43.267 9.771-88.861 10.235v-46.524c0-25.588-20.935-46.524-46.524-46.524s-46.524 20.935-46.524 46.524v46.524h-279.146v-46.524c0-25.588-20.935-46.524-46.524-46.524s-46.524 20.935-46.524 46.524v46.524c-45.594 0-73.043-1.861-88.861-10.235-17.679-8.84-31.637-23.262-40.477-40.477-10.235-20.006-10.235-57.69-10.235-126.080v-9.305z" />
<glyph unicode="&#xe935;" glyph-name="eye-off" d="M937.288-24.485c-12.286 0-24.1 4.725-33.551 13.704l-148.851 148.851c-77.497-45.364-159.247-68.519-242.887-68.519-262.734 0.473-431.904 223.513-492.389 319.439-7.561 11.814-13.704 22.21-17.484 37.803-2.835 12.759-2.835 29.298 0 42.056 3.78 15.594 9.923 25.99 17.484 37.803 29.298 46.309 86.948 127.114 171.060 196.105l-137.037 137.037c-18.429 18.429-18.429 48.199 0 66.629s48.199 18.902 66.629 0.473l172.006-172.006c2.835-2.363 5.198-4.725 7.561-7.561l145.071-145.071s0 0 0.473-0.473c0 0 0 0 0.473-0.473l198.94-198.94s0.945-0.945 0.945-0.945 0.945-0.945 0.945-0.945l143.653-143.653c3.308-2.363 6.143-5.671 8.978-8.978l171.060-171.060c18.429-18.429 18.429-48.199 0-66.629-9.451-9.451-21.264-13.704-33.551-13.704zM257.772 635.658c-77.97-61.431-131.839-136.565-158.302-179.094-2.363-4.253-4.253-6.616-5.671-9.451 1.418-0.945 3.308-3.78 5.671-7.561 52.452-82.695 197.050-275.020 413.002-275.020 59.068 0 117.191 14.649 173.423 43.474l-77.024 77.024c-28.825-17.012-61.903-25.99-95.926-25.99-104.432 0-189.017 84.585-189.017 189.017 0 34.496 8.978 67.101 25.99 95.926l-91.673 91.673zM420.799 472.63c-1.89-8.033-3.308-16.066-3.308-24.572 0-51.98 42.529-94.509 94.509-94.509 8.506 0 16.539 0.945 24.572 3.308l-115.773 115.773zM900.43 278.888c-10.868 0-21.264 3.78-30.243 10.868-19.847 16.539-22.682 46.309-5.671 66.629 27.407 33.078 48.199 63.321 60.485 83.168 2.363 4.253 4.253 6.616 5.671 9.451-1.418 0.945-3.308 3.78-5.671 7.561-52.452 82.695-197.050 275.020-413.002 275.020-17.484 0-35.441-1.418-52.452-3.78-25.517-3.78-49.617 14.176-53.87 39.694-3.78 25.99 14.176 49.617 39.694 53.87 21.737 3.308 44.419 4.725 66.156 4.725 262.734 0 431.904-223.040 492.862-318.966 7.561-12.286 14.176-22.21 17.484-37.803 2.835-12.759 2.835-29.298 0-42.056-3.78-16.066-10.396-26.462-17.957-38.276-13.704-21.737-36.858-56.233-68.046-93.091-9.451-11.341-22.682-17.012-36.386-17.012z" />
<glyph unicode="&#xe936;" glyph-name="eye" d="M511.764 70.14c-262.613 0-431.705 222.937-492.162 318.819v0s40.148 25.033 40.148 25.033l-40.148-25.033c-7.557 11.808-13.697 22.199-17.476 37.786-2.834 12.753-2.834 29.284 0 42.037 3.779 15.587 9.919 25.506 17.476 37.314 60.458 96.827 229.55 319.764 492.162 319.764s431.705-222.937 492.635-318.819c7.557-12.28 14.17-22.199 17.476-37.786 2.834-12.753 2.834-29.284 0-42.037-3.779-15.587-9.919-25.978-17.476-37.786-60.93-95.882-230.022-319.292-492.635-319.292zM99.424 439.498c51.956-82.657 196.959-274.893 412.339-274.893s360.384 192.236 412.339 274.893c2.362 3.779 4.251 6.613 5.668 9.446-1.417 0.945-3.306 3.779-5.668 7.557-52.428 82.657-196.959 274.893-412.812 274.893s-359.911-192.236-411.867-274.893c-2.362-4.251-4.251-6.613-5.668-9.446 1.417-0.945 3.306-3.779 5.668-7.557l-39.675-25.506 40.148 25.033zM511.764 259.070c-104.384 0-188.93 84.546-188.93 188.93s84.546 188.93 188.93 188.93 188.93-84.546 188.93-188.93-84.546-188.93-188.93-188.93zM511.764 542.465c-51.956 0-94.465-42.509-94.465-94.465s42.509-94.465 94.465-94.465 94.465 42.509 94.465 94.465-42.509 94.465-94.465 94.465z" />
<glyph unicode="&#xe937;" glyph-name="marker-pin" d="M512 354.909c-102.865 0-186.182 83.316-186.182 186.182s83.316 186.182 186.182 186.182 186.182-83.316 186.182-186.182-83.316-186.182-186.182-186.182zM512 634.182c-51.2 0-93.091-41.891-93.091-93.091s41.891-93.091 93.091-93.091 93.091 41.891 93.091 93.091-41.891 93.091-93.091 93.091zM512-64c-12.102 0-23.738 4.655-33.047 13.498l-44.684 44.218c-175.476 174.545-341.178 338.851-341.178 547.375 0 230.865 188.044 418.909 418.909 418.909s418.909-188.044 418.909-418.909c0-208.524-165.702-372.829-341.644-547.375l-44.684-44.218c-9.309-9.309-20.945-13.498-33.047-13.498zM512 866.909c-179.665 0-325.818-146.153-325.818-325.818 0-169.891 152.669-321.164 314.182-481.28l11.636-11.636 11.636 11.636c161.513 160.116 314.182 311.389 314.182 481.28 0 179.665-146.153 325.818-325.818 325.818z" />
<glyph unicode="&#xe938;" glyph-name="mail" d="M753.35 29.472h-483.632c-85.566 0-128.348 0-168.341 20.461-35.343 18.136-63.244 46.038-81.381 81.381-19.996 39.528-19.996 82.31-19.996 167.876v297.62c0 29.297 0 53.943 0.93 74.87-1.395 7.44-0.93 15.346 1.395 23.251 2.325 27.902 7.44 49.293 18.136 70.219 18.136 35.343 46.038 63.244 81.381 81.381 39.992 20.461 82.775 20.461 168.341 20.461h483.632c85.566 0 128.348 0 168.341-20.461 35.343-18.136 63.244-46.038 81.381-81.381 10.695-20.461 15.346-42.318 18.136-70.219 2.325-7.44 2.79-15.346 1.395-23.251 0.93-20.926 0.93-45.573 0.93-74.87v-297.62c0-85.566 0-128.348-20.461-168.341-17.671-35.343-46.038-63.244-81.381-81.381-39.992-20.461-82.775-20.461-168.341-20.461zM93.006 591.23v-292.039c0-68.36 0-106.027 10.231-126.023 8.836-17.671 23.251-31.622 40.457-40.457 19.996-10.231 57.664-10.231 126.023-10.231h483.632c68.36 0 106.027 0 126.023 10.231 17.671 8.836 31.622 23.251 40.457 40.457 10.231 19.996 10.231 57.664 10.231 126.023v292.039l-306.455-214.379c-34.412-24.181-53.013-37.202-78.125-43.248-22.322-5.581-45.573-5.581-67.43 0-25.112 6.046-43.713 19.531-78.125 43.248l-306.921 214.379zM96.726 701.907l356.214-249.256c24.647-17.206 39.063-27.436 47.433-29.297 7.44-1.86 15.346-1.86 22.322 0 8.371 1.86 22.787 12.556 47.433 29.297l356.214 249.256c-1.395 8.371-3.72 15.346-6.046 20.926-8.836 17.671-23.251 31.622-40.457 40.457-19.996 10.231-57.664 10.231-126.023 10.231h-484.097c-68.36 0-106.027 0-126.023-10.231-17.671-8.836-31.622-23.251-40.457-40.457-2.79-5.581-4.65-12.091-6.51-20.926z" />
<glyph unicode="&#xe939;" glyph-name="doc2" d="M660.812-63.535h-297.62c-85.566 0-128.348 0-168.342 20.461-35.343 18.136-63.244 46.038-81.381 81.381-20.461 39.993-20.461 82.776-20.461 168.342v483.167c0 85.566 0 128.348 20.461 168.342 18.136 35.343 46.038 63.244 81.381 81.381 39.993 20.461 82.776 20.461 168.342 20.461h149.275c36.738 0 56.733 0 78.125-5.115 19.067-4.651 37.202-12.091 53.944-22.322 18.601-11.625 33.017-25.577 58.594-51.153l148.81-148.81c25.577-25.577 39.993-39.993 51.618-59.059 10.231-16.741 17.671-34.877 22.322-53.944 5.115-21.392 5.115-41.387 5.115-78.125v-335.288c0-85.566 0-128.348-20.461-168.342-17.671-35.343-46.038-63.244-81.381-81.381-39.993-20.461-82.776-20.461-168.342-20.461zM363.191 866.527c-68.36 0-106.027 0-126.023-10.231-17.671-8.836-31.622-23.252-40.458-40.458-10.231-19.997-10.231-57.664-10.231-126.023v-483.633c0-68.36 0-106.027 10.231-126.023 8.836-17.671 23.252-31.622 40.458-40.458 19.997-10.231 57.664-10.231 126.023-10.231h297.62c68.36 0 106.027 0 126.023 10.231 17.671 8.836 31.622 23.252 40.458 40.458 10.231 19.997 10.231 57.664 10.231 126.023v335.288c0 21.856 0 35.807-0.93 46.038h-157.181c-30.227 0-50.223 0-70.22 10.231-17.671 8.836-31.622 23.252-40.458 40.458-10.231 19.997-10.231 39.993-10.231 70.22v157.181c-10.231 0.93-24.182 0.93-46.038 0.93h-149.275zM651.51 800.958v-92.541c0-13.021 0-26.507 0.93-30.227 0.465 2.325 13.951 2.325 26.971 2.325h92.541l-120.443 120.443zM605.007 168.98h-279.019c-25.577 0-46.503 20.926-46.503 46.503s20.926 46.503 46.503 46.503h279.019c25.577 0 46.503-20.926 46.503-46.503s-20.926-46.503-46.503-46.503zM698.014 354.993h-372.025c-25.577 0-46.503 20.926-46.503 46.503s20.926 46.503 46.503 46.503h372.025c25.577 0 46.503-20.926 46.503-46.503s-20.926-46.503-46.503-46.503z" />
<glyph unicode="&#xe93a;" glyph-name="euro-circle" d="M512-64c-282.531 0-512 229.469-512 512s229.469 512 512 512 512-229.469 512-512-229.469-512-512-512zM512 866.909c-230.865 0-418.909-188.044-418.909-418.909s188.044-418.909 418.909-418.909 418.909 188.044 418.909 418.909-188.044 418.909-418.909 418.909zM512 168.727c-112.64 0-209.455 67.025-253.673 162.909h-25.6c-25.6 0-46.545 20.945-46.545 46.545s20.945 46.545 46.545 46.545h0.931c-0.465 7.913-0.931 15.36-0.931 23.273s0 15.36 0.931 23.273h-0.931c-25.6 0-46.545 20.945-46.545 46.545s20.945 46.545 46.545 46.545h25.6c44.218 95.884 141.498 162.909 253.673 162.909 68.887 0 134.982-25.135 186.182-71.215 19.084-17.222 20.945-46.545 3.724-65.629s-46.545-20.945-65.629-3.724c-33.978 30.72-78.196 47.476-124.276 47.476-58.647 0-111.244-27.462-145.222-69.818h98.676c25.6 0 46.545-20.945 46.545-46.545s-20.945-46.545-46.545-46.545h-138.24c-0.931-7.447-1.396-15.36-1.396-23.273s0.465-15.825 1.396-23.273h138.24c25.6 0 46.545-20.945 46.545-46.545s-20.945-46.545-46.545-46.545h-98.676c33.978-42.356 86.575-69.818 145.222-69.818 46.080 0 89.833 16.756 124.276 47.476 19.084 17.222 48.407 15.36 65.629-3.724s15.36-48.407-3.724-65.629c-51.2-46.080-117.295-71.215-186.182-71.215z" />
<glyph unicode="&#xe93b;" glyph-name="home2" d="M798.645-63.505h-98.758c-17.777 0-32.59 0-48.392 8.394-13.826 6.914-25.183 18.27-32.096 32.59-7.901 15.801-7.901 30.615-7.901 48.392v325.902c0 13.826 0 28.146-0.988 32.096-0.494-2.469-14.814-2.469-28.64-2.469h-138.262c-13.826 0-28.146 0-32.096-0.988 2.469-0.494 2.469-14.814 2.469-28.64v-325.902c0-17.777 0-32.59-8.394-48.392-6.914-13.826-18.27-25.183-32.59-32.096-15.801-7.901-30.615-7.901-48.392-7.901h-98.758c-61.23 0-94.808 0-126.41 16.295-28.146 14.32-50.367 36.541-64.687 64.687-16.295 31.603-16.295 65.674-16.295 126.41v357.011c0 30.615 0 49.379 5.432 69.131 4.938 17.283 12.838 33.578 23.702 47.898 11.851 16.295 26.664 27.652 50.861 46.416l334.791 259.734c20.246 15.801 34.072 26.171 52.836 31.603 16.789 4.444 35.059 4.444 51.848 0 19.258-4.938 32.59-15.801 52.836-31.603 0 0 0 0 0 0l334.791-260.722c25.183-19.752 39.010-30.121 50.861-46.416 10.863-14.814 18.764-31.109 23.702-48.392 5.432-19.752 5.432-38.022 5.432-69.131v-357.011c0-61.23 0-94.808-16.295-126.41-14.32-28.146-36.541-50.367-64.687-64.687-31.603-16.295-65.674-16.295-126.41-16.295zM709.762 35.253h88.883c42.959 0 71.106 0 81.476 5.432 9.382 4.938 16.789 12.345 21.727 21.727 5.432 10.369 5.432 39.010 5.432 81.476v357.011c0 22.221 0 35.553-1.975 42.466-1.481 5.926-4.444 11.357-7.901 16.295-3.951 5.432-14.814 13.826-32.096 27.158l-334.791 260.228s0 0 0 0c-8.394 6.42-17.283 13.332-20.246 14.814 0.988-1.481-7.901-8.394-16.295-14.814l-334.791-260.228c-17.777-13.826-28.146-21.727-32.096-27.158-3.457-4.938-6.42-10.369-7.901-16.295-1.975-6.42-1.975-20.246-1.975-42.466v-357.011c0-42.959 0-71.106 5.432-81.969 4.938-9.382 12.345-16.789 21.727-21.727 10.369-5.432 39.010-5.432 81.476-5.432h88.883v316.027c0 32.096 0 53.33 10.863 74.562 9.382 18.764 24.69 33.578 42.959 42.959 21.233 10.863 42.466 10.863 74.562 10.863h138.262c32.096 0 53.33 0 74.562-10.863 18.764-9.382 33.578-24.69 42.959-43.453 10.863-21.233 10.863-42.466 10.863-74.562v-316.027z" />
<glyph unicode="&#xe93c;" glyph-name="sale" d="M358.418-64c-18.151 0-36.767 3.724-53.987 10.704-34.905 14.427-61.898 41.42-76.326 76.326l-33.509 81.446c-5.119 12.101-13.962 20.943-26.062 26.062l-80.98 33.509c-34.905 14.427-61.898 41.42-76.326 76.326-14.427 34.44-14.427 73.534 0 107.973l33.509 80.98c4.654 11.635 4.654 25.132 0 36.767l-33.509 81.446c-6.981 17.22-10.704 35.371-10.704 53.987s3.724 36.767 10.704 53.987c6.981 17.22 17.22 32.578 30.716 46.075 13.031 13.031 28.39 23.27 45.61 30.716l80.98 33.509c11.635 5.119 20.943 13.962 26.062 26.062l33.509 80.98c14.427 34.905 41.42 61.898 76.326 76.326s73.068 14.427 107.973 0l80.98-33.509c11.635-5.119 25.132-5.119 36.767 0l81.446 33.509c34.905 14.427 73.068 14.427 107.973 0s61.898-41.42 76.326-76.326l32.578-79.118s0.465-1.396 0.931-1.862c5.119-11.635 13.962-20.943 26.062-26.062l80.98-33.509c34.905-14.427 61.898-41.42 76.326-76.326s14.427-73.068 0-107.973l-33.509-80.98c-4.654-11.635-4.654-25.132 0-36.767l33.509-81.446c6.981-17.22 10.704-35.371 10.704-53.987s-3.724-36.767-10.704-53.987c-6.981-17.22-17.22-32.578-30.716-45.61s-28.39-23.27-45.61-30.716l-81.446-33.509c-11.635-5.119-20.943-13.962-26.062-26.062l-33.509-80.98c-14.427-34.905-41.42-61.898-76.326-76.326s-73.068-14.427-107.973 0l-81.446 33.509c-11.635 4.654-25.132 4.654-36.767 0l-81.446-33.509c-17.22-6.981-35.836-10.704-53.987-10.704zM358.418 866.802c-6.050 0-12.566-1.396-18.151-3.724-11.635-4.654-21.409-14.427-26.062-26.062l-33.509-81.446c-14.427-34.905-41.42-61.898-76.326-76.326l-80.98-33.509c-6.050-2.327-11.17-6.050-15.358-10.239s-7.912-9.774-10.239-15.823c-2.327-6.050-3.724-12.101-3.724-18.616s1.396-12.566 3.724-18.616l33.509-81.446c14.427-34.905 14.427-73.068 0-107.973l-33.509-81.446c-4.654-11.635-4.654-25.132 0-36.767 5.119-11.635 13.962-20.943 26.062-26.062l81.446-33.509c34.905-14.427 61.898-41.886 76.326-76.326l33.509-81.446c5.119-11.635 13.962-20.943 26.062-26.062s25.132-4.654 36.767 0l81.446 33.509c34.44 14.427 73.068 14.427 107.973 0l81.446-33.509c11.635-5.119 25.132-5.119 36.767 0s20.943 13.962 26.062 26.062l33.509 81.446c14.427 34.905 41.42 61.898 76.326 76.326l80.98 33.509c6.050 2.327 11.17 6.050 15.823 10.239s7.912 9.774 10.239 15.358c2.327 6.050 3.724 12.101 3.724 18.616s-1.396 12.566-3.724 18.151l-33.509 81.446c-14.427 33.974-14.427 73.534 0 107.973l33.509 80.98c5.119 11.635 5.119 25.132 0 36.767s-13.962 20.943-26.062 26.062l-81.446 33.509c-33.974 13.962-60.502 40.024-75.395 73.534 0 0.931-0.931 1.862-0.931 2.327l-33.509 81.446c-4.654 11.635-14.427 20.943-26.062 26.062-12.101 4.654-25.132 4.654-36.767 0l-81.446-33.509c-34.44-14.427-73.068-14.427-107.973 0l-81.446 33.509c-6.050 2.327-12.101 3.724-18.616 3.724zM325.84 215.241c-12.101 0-23.735 4.654-33.043 13.496-18.151 18.151-18.151 47.471 0 65.621l372.321 372.786c18.151 18.151 47.471 18.151 65.621 0s18.151-47.471 0-65.621l-371.855-372.786c-9.308-9.308-20.943-13.496-33.043-13.496zM651.62 238.51c-38.629 0-69.81 31.181-69.81 69.81s31.181 69.81 69.81 69.81 69.81-31.181 69.81-69.81-31.181-69.81-69.81-69.81zM372.38 517.751c-38.629 0-69.81 31.181-69.81 69.81s31.181 69.81 69.81 69.81 69.81-31.181 69.81-69.81-31.181-69.81-69.81-69.81z" />
</font>
</defs>
</svg>
