<?xml version="1.0" standalone="no"?>
<!DOCTYPE svg PUBLIC "-//W3C//DTD SVG 1.1//EN" "http://www.w3.org/Graphics/SVG/1.1/DTD/svg11.dtd" >
<svg xmlns="http://www.w3.org/2000/svg" xmlns:xlink="http://www.w3.org/1999/xlink" version="1.1">
<metadata>
Created by FontForge 20190801 at Sat May 25 20:24:13 2024
 By root
Copyright 2022 The Fustat Project Authors (https://github.com/Kief-Type-Foundry/Fustat)
</metadata>
<defs>
<font id="Fustat-Regular" horiz-adv-x="350" >
  <font-face 
    font-family="Fustat"
    font-weight="400"
    font-stretch="normal"
    units-per-em="1000"
    panose-1="0 0 0 0 0 0 0 0 0 0"
    ascent="800"
    descent="-200"
    x-height="500"
    cap-height="700"
    bbox="-170 -518 1248 1007"
    underline-thickness="50"
    underline-position="-125"
    unicode-range="U+0020-FDF2"
  />
<missing-glyph horiz-adv-x="660" 
d="M80 0v700h500v-700h-500zM140 60h380v580h-380v-580zM523 0l-443 670v30h57l443 -670v-30h-57zM80 0v30l443 670h57v-30l-443 -670h-57z" />
    <glyph glyph-name="uniFDF2" unicode="&#xfdf2;" horiz-adv-x="1200" arabic-form="isolated" 
d="M1040 0v746l72 9l3 -8v-500q0 -41 2.5 -82t5 -75.5t5 -55l2.5 -20.5l-15 -14h-75zM825 0v540l72 9l3 -8v-527l-15 -14h-60zM495 0v75h364v-75h-364zM581 0v540l72 9l3 -8v-527l-15 -14h-60zM228 33q-57 0 -98 24.5t-63 67.5t-22 96q0 46 15 82l7 6q83 25 152.5 52.5
t126.5 58.5l37 -65q-57 -32 -130 -61t-165 -56l36 33q0 -9 -2 -21.5t-2 -28.5q0 -35 13 -60.5t38 -39t59 -13.5q27 0 56 7.5t63 23.5l31 -68q-41 -19 -79 -28.5t-73 -9.5zM334 0v75h161v-75h-161zM334 0v448l72 9l3 -8v-449h-75zM495 0v75q12 0 16 -10t4 -27q0 -16 -4 -27
t-16 -11zM666 632q-34 0 -52.5 22t-18.5 60v56h43l2 -2v-55q0 -41 24 -41t24 41q0 11 -1.5 23.5t-4.5 31.5l2 2h43q3 -19 4.5 -32t1.5 -24q0 -38 -17.5 -60t-49.5 -22zM570 632q-32 0 -49.5 22t-17.5 60q0 11 1.5 24t4.5 32h43l2 -2q-3 -19 -4.5 -31.5t-1.5 -23.5
q0 -41 24 -41q8 0 16.5 4t14.5 11l25 -26q-21 -29 -58 -29zM594 834l-1 167l44 6l2 -3v-88q0 -27 2.5 -52.5l2.5 -25.5l-5 -4h-45z" />
    <glyph glyph-name=".notdef" horiz-adv-x="660" 
d="M80 0v700h500v-700h-500zM140 60h380v580h-380v-580zM523 0l-443 670v30h57l443 -670v-30h-57zM80 0v30l443 670h57v-30l-443 -670h-57z" />
    <glyph glyph-name="A" unicode="A" horiz-adv-x="617" 
d="M531 0l-253 679l-7 21h75l266 -692v-8h-81zM5 0v8l266 692h75l-7 -21l-253 -679h-81zM103 185l30 73h361l30 -73h-421z" />
    <glyph glyph-name="Aacute" unicode="&#xc1;" horiz-adv-x="617" 
d="M531 0l-253 679l-7 21h75l266 -692v-8h-81zM5 0v8l266 692h75l-7 -21l-253 -679h-81zM103 185l30 73h361l30 -73h-421zM296 771l75 145h100v-8l-101 -137h-74z" />
    <glyph glyph-name="Abreve" unicode="&#x102;" horiz-adv-x="617" 
d="M531 0l-253 679l-7 21h75l266 -692v-8h-81zM5 0v8l266 692h75l-7 -21l-253 -679h-81zM103 185l30 73h361l30 -73h-421zM308 769q-41 0 -74 18.5t-52 52t-19 76.5h71q1 -36 22 -60.5t52 -24.5q32 0 53 24.5t22 60.5h71q0 -43 -19 -76.5t-52 -52t-75 -18.5z" />
    <glyph glyph-name="Acircumflex" unicode="&#xc2;" horiz-adv-x="617" 
d="M531 0l-253 679l-7 21h75l266 -692v-8h-81zM5 0v8l266 692h75l-7 -21l-253 -679h-81zM103 185l30 73h361l30 -73h-421zM153 771l106 145h99l106 -145h-85l-71 88l-71 -88h-84z" />
    <glyph glyph-name="Adieresis" unicode="&#xc4;" horiz-adv-x="617" 
d="M531 0l-253 679l-7 21h75l266 -692v-8h-81zM5 0v8l266 692h75l-7 -21l-253 -679h-81zM103 185l30 73h361l30 -73h-421zM406 788q-23 0 -39 16t-16 39t16 39t39 16t39 -16t16 -39t-16 -39t-39 -16zM224 788q-23 0 -39 16t-16 39t16 39t39 16t39 -16t16 -39t-16 -39
t-39 -16z" />
    <glyph glyph-name="Agrave" unicode="&#xc0;" horiz-adv-x="617" 
d="M531 0l-253 679l-7 21h75l266 -692v-8h-81zM5 0v8l266 692h75l-7 -21l-253 -679h-81zM103 185l30 73h361l30 -73h-421zM336 771h-74l-101 137v8h100z" />
    <glyph glyph-name="Amacron" unicode="&#x100;" horiz-adv-x="617" 
d="M531 0l-253 679l-7 21h75l266 -692v-8h-81zM5 0v8l266 692h75l-7 -21l-253 -679h-81zM103 185l30 73h361l30 -73h-421zM156 807v73h306v-73h-306z" />
    <glyph glyph-name="Aogonek" unicode="&#x104;" horiz-adv-x="617" 
d="M531 0l-253 679l-7 21h75l266 -692v-8h-81zM5 0v8l266 692h75l-7 -21l-253 -679h-81zM103 185l30 73h361l30 -73h-421zM570 -205q-49 0 -78.5 27.5t-29.5 73.5q0 43 27 77.5t81 62.5l42 -36q-38 -20 -58.5 -43.5t-20.5 -46.5q0 -21 13.5 -34t35.5 -13q14 0 25 4l5 -11
v-56q-12 -2 -22 -3.5t-20 -1.5z" />
    <glyph glyph-name="Aring" unicode="&#xc5;" horiz-adv-x="617" 
d="M531 0l-253 679l-7 21h75l266 -692v-8h-81zM5 0v8l266 692h75l-7 -21l-253 -679h-81zM103 185l30 73h361l30 -73h-421zM309 688q-33 0 -60 15t-42.5 41.5t-15.5 58.5q0 33 15.5 59t42.5 41t60 15q34 0 60.5 -15t42 -41t15.5 -59q0 -32 -15.5 -58.5t-42 -41.5t-60.5 -15z
M309 747q24 0 40 16.5t16 39.5t-16 39.5t-40 16.5t-40 -16.5t-16 -39.5t16 -39.5t40 -16.5z" />
    <glyph glyph-name="Atilde" unicode="&#xc3;" horiz-adv-x="617" 
d="M531 0l-253 679l-7 21h75l266 -692v-8h-81zM5 0v8l266 692h75l-7 -21l-253 -679h-81zM103 185l30 73h361l30 -73h-421zM375 782q-21 0 -38 8t-31.5 19t-28.5 19t-29 8q-17 0 -27 -15t-10 -38h-64q0 54 26.5 88t69.5 34q21 0 38 -8t31.5 -19t28.5 -19t29 -8q17 0 27 15
t10 38h64q0 -54 -26.5 -88t-69.5 -34z" />
    <glyph glyph-name="AE" unicode="&#xc6;" horiz-adv-x="911" 
d="M-10 0l1 9l387 691h75l-4 -21l-372 -679h-87zM120 185l43 73h286v-73h-329zM420 0v700h75v-700h-75zM459 0v73h402v-73h-402zM459 318v73h382v-73h-382zM459 627v73h402v-73h-402z" />
    <glyph glyph-name="B" unicode="B" horiz-adv-x="595" 
d="M123 0v74h216q67 0 101 35.5t34 97.5q0 60 -36 94t-99 34h-216v73h198q37 0 64 14t41.5 38.5t14.5 56.5q0 48 -30.5 78.5t-89.5 30.5h-198v74h198q95 0 148 -51.5t53 -131.5q0 -34 -16.5 -65.5t-44 -54t-61.5 -32.5v24q43 -7 78 -33.5t56 -65t21 -83.5q0 -94 -57 -150.5
t-159 -56.5h-216zM80 0v700h75v-700h-75z" />
    <glyph glyph-name="C" unicode="C" horiz-adv-x="709" 
d="M371 -12q-93 0 -165.5 45t-114 126.5t-41.5 190.5q0 110 41.5 191t114 126t165.5 45q101 0 180 -53.5t118 -152.5l-65 -19l-11 2q-31 74 -88 112t-131 38q-71 0 -127 -35t-88 -100t-32 -154t32 -154t88 -100t127 -35q74 0 131 38.5t88 111.5l11 2l65 -19
q-39 -99 -118 -152.5t-180 -53.5z" />
    <glyph glyph-name="Cacute" unicode="&#x106;" horiz-adv-x="709" 
d="M371 -12q-93 0 -165.5 45t-114 126.5t-41.5 190.5q0 110 41.5 191t114 126t165.5 45q101 0 180 -53.5t118 -152.5l-65 -19l-11 2q-31 74 -88 112t-131 38q-71 0 -127 -35t-88 -100t-32 -154t32 -154t88 -100t127 -35q74 0 131 38.5t88 111.5l11 2l65 -19
q-39 -99 -118 -152.5t-180 -53.5zM338 771l75 145h100v-8l-101 -137h-74z" />
    <glyph glyph-name="Ccaron" unicode="&#x10c;" horiz-adv-x="709" 
d="M371 -12q-93 0 -165.5 45t-114 126.5t-41.5 190.5q0 110 41.5 191t114 126t165.5 45q101 0 180 -53.5t118 -152.5l-65 -19l-11 2q-31 74 -88 112t-131 38q-71 0 -127 -35t-88 -100t-32 -154t32 -154t88 -100t127 -35q74 0 131 38.5t88 111.5l11 2l65 -19
q-39 -99 -118 -152.5t-180 -53.5zM215 864h84l71 -88l71 88h85l-106 -145h-99z" />
    <glyph glyph-name="Ccedilla" unicode="&#xc7;" horiz-adv-x="709" 
d="M371 -12q-93 0 -165.5 45t-114 126.5t-41.5 190.5q0 110 41.5 191t114 126t165.5 45q101 0 180 -53.5t118 -152.5l-65 -19l-11 2q-31 74 -88 112t-131 38q-71 0 -127 -35t-88 -100t-32 -154t32 -154t88 -100t127 -35q74 0 131 38.5t88 111.5l11 2l65 -19
q-39 -99 -118 -152.5t-180 -53.5zM347 -205q-12 0 -26 3.5t-30 13.5l16 48l9 2q8 -4 15.5 -6t12.5 -2q16 0 25.5 8.5t9.5 20.5q0 14 -9.5 22.5t-24.5 8.5t-25 -8l-28 40l46 67h71l-65 -87l-7 38q5 1 10 1.5t10 0.5q35 0 59 -24t24 -59q0 -38 -27.5 -63t-65.5 -25z" />
    <glyph glyph-name="Cdotaccent" unicode="&#x10a;" horiz-adv-x="709" 
d="M371 -12q-93 0 -165.5 45t-114 126.5t-41.5 190.5q0 110 41.5 191t114 126t165.5 45q101 0 180 -53.5t118 -152.5l-65 -19l-11 2q-31 74 -88 112t-131 38q-71 0 -127 -35t-88 -100t-32 -154t32 -154t88 -100t127 -35q74 0 131 38.5t88 111.5l11 2l65 -19
q-39 -99 -118 -152.5t-180 -53.5zM371 789q-23 0 -39 16t-16 39t16 39t39 16t39 -16t16 -39t-16 -39t-39 -16z" />
    <glyph glyph-name="D" unicode="D" horiz-adv-x="682" 
d="M116 0v73h199q76 0 129.5 34.5t82 96.5t28.5 146q0 85 -28.5 147t-82 96t-129.5 34h-199v73h199q99 0 170 -44t109 -122.5t38 -183.5t-38 -183.5t-109 -122.5t-170 -44h-199zM80 0v700h75v-700h-75z" />
    <glyph glyph-name="Dcaron" unicode="&#x10e;" horiz-adv-x="682" 
d="M116 0v73h199q76 0 129.5 34.5t82 96.5t28.5 146q0 85 -28.5 147t-82 96t-129.5 34h-199v73h199q99 0 170 -44t109 -122.5t38 -183.5t-38 -183.5t-109 -122.5t-170 -44h-199zM80 0v700h75v-700h-75zM159 864h84l71 -88l71 88h85l-106 -145h-99z" />
    <glyph glyph-name="Dcroat" unicode="&#x110;" horiz-adv-x="682" 
d="M116 0v73h199q76 0 129.5 34.5t82 96.5t28.5 146q0 85 -28.5 147t-82 96t-129.5 34h-199v73h199q99 0 170 -44t109 -122.5t38 -183.5t-38 -183.5t-109 -122.5t-170 -44h-199zM80 0v700h75v-700h-75zM0 314v73h312v-73h-312z" />
    <glyph glyph-name="Eth" unicode="&#xd0;" horiz-adv-x="682" 
d="M116 0v73h199q76 0 129.5 34.5t82 96.5t28.5 146q0 85 -28.5 147t-82 96t-129.5 34h-199v73h199q99 0 170 -44t109 -122.5t38 -183.5t-38 -183.5t-109 -122.5t-170 -44h-199zM80 0v700h75v-700h-75zM0 314v73h312v-73h-312z" />
    <glyph glyph-name="E" unicode="E" horiz-adv-x="571" 
d="M80 0v700h75v-700h-75zM119 0v73h402v-73h-402zM119 318v73h382v-73h-382zM119 627v73h402v-73h-402z" />
    <glyph glyph-name="Eacute" unicode="&#xc9;" horiz-adv-x="571" 
d="M80 0v700h75v-700h-75zM119 0v73h402v-73h-402zM119 318v73h382v-73h-382zM119 627v73h402v-73h-402zM255 771l75 145h100v-8l-101 -137h-74z" />
    <glyph glyph-name="Ecaron" unicode="&#x11a;" horiz-adv-x="571" 
d="M80 0v700h75v-700h-75zM119 0v73h402v-73h-402zM119 318v73h382v-73h-382zM119 627v73h402v-73h-402zM132 864h84l71 -88l71 88h85l-106 -145h-99z" />
    <glyph glyph-name="Ecircumflex" unicode="&#xca;" horiz-adv-x="571" 
d="M80 0v700h75v-700h-75zM119 0v73h402v-73h-402zM119 318v73h382v-73h-382zM119 627v73h402v-73h-402zM132 771l106 145h99l106 -145h-85l-71 88l-71 -88h-84z" />
    <glyph glyph-name="Edieresis" unicode="&#xcb;" horiz-adv-x="571" 
d="M80 0v700h75v-700h-75zM119 0v73h402v-73h-402zM119 318v73h382v-73h-382zM119 627v73h402v-73h-402zM385 788q-23 0 -39 16t-16 39t16 39t39 16t39 -16t16 -39t-16 -39t-39 -16zM203 788q-23 0 -39 16t-16 39t16 39t39 16t39 -16t16 -39t-16 -39t-39 -16z" />
    <glyph glyph-name="Edotaccent" unicode="&#x116;" horiz-adv-x="571" 
d="M80 0v700h75v-700h-75zM119 0v73h402v-73h-402zM119 318v73h382v-73h-382zM119 627v73h402v-73h-402zM288 789q-23 0 -39 16t-16 39t16 39t39 16t39 -16t16 -39t-16 -39t-39 -16z" />
    <glyph glyph-name="Egrave" unicode="&#xc8;" horiz-adv-x="571" 
d="M80 0v700h75v-700h-75zM119 0v73h402v-73h-402zM119 318v73h382v-73h-382zM119 627v73h402v-73h-402zM315 771h-74l-101 137v8h100z" />
    <glyph glyph-name="Emacron" unicode="&#x112;" horiz-adv-x="571" 
d="M80 0v700h75v-700h-75zM119 0v73h402v-73h-402zM119 318v73h382v-73h-382zM119 627v73h402v-73h-402zM135 807v73h306v-73h-306z" />
    <glyph glyph-name="Eogonek" unicode="&#x118;" horiz-adv-x="571" 
d="M80 0v700h75v-700h-75zM119 0v73h402v-73h-402zM119 318v73h382v-73h-382zM119 627v73h402v-73h-402zM479 -205q-49 0 -78.5 27.5t-29.5 73.5q0 43 27 77.5t81 62.5l42 -36q-38 -20 -58.5 -43.5t-20.5 -46.5q0 -21 13.5 -34t35.5 -13q14 0 25 4l5 -11v-56
q-12 -2 -22 -3.5t-20 -1.5z" />
    <glyph glyph-name="F" unicode="F" horiz-adv-x="551" 
d="M80 0v700h75v-700h-75zM119 313v73h362v-73h-362zM119 627v73h392v-73h-392z" />
    <glyph glyph-name="G" unicode="G" horiz-adv-x="763" 
d="M381 -12q-96 0 -171 45.5t-117.5 127.5t-42.5 190t42 189t117 126.5t173 45.5q102 0 179 -52t112 -141l-62 -19l-11 2q-31 67 -86.5 102t-128.5 35q-75 0 -133.5 -35.5t-91.5 -100t-33 -151.5q0 -88 33 -153.5t91.5 -101.5t132.5 -36q73 0 127 33.5t83.5 87.5t29.5 115
v42l44 -35h-269v73h279l15 -14v-363h-70v170h27q-22 -59 -62.5 -100t-93.5 -61.5t-113 -20.5z" />
    <glyph glyph-name="Gbreve" unicode="&#x11e;" horiz-adv-x="763" 
d="M381 -12q-96 0 -171 45.5t-117.5 127.5t-42.5 190t42 189t117 126.5t173 45.5q102 0 179 -52t112 -141l-62 -19l-11 2q-31 67 -86.5 102t-128.5 35q-75 0 -133.5 -35.5t-91.5 -100t-33 -151.5q0 -88 33 -153.5t91.5 -101.5t132.5 -36q73 0 127 33.5t83.5 87.5t29.5 115
v42l44 -35h-269v73h279l15 -14v-363h-70v170h27q-22 -59 -62.5 -100t-93.5 -61.5t-113 -20.5zM375 769q-41 0 -74 18.5t-52 52t-19 76.5h71q1 -36 22 -60.5t52 -24.5q32 0 53 24.5t22 60.5h71q0 -43 -19 -76.5t-52 -52t-75 -18.5z" />
    <glyph glyph-name="uni0122" unicode="&#x122;" horiz-adv-x="763" 
d="M381 -12q-96 0 -171 45.5t-117.5 127.5t-42.5 190t42 189t117 126.5t173 45.5q102 0 179 -52t112 -141l-62 -19l-11 2q-31 67 -86.5 102t-128.5 35q-75 0 -133.5 -35.5t-91.5 -100t-33 -151.5q0 -88 33 -153.5t91.5 -101.5t132.5 -36q73 0 127 33.5t83.5 87.5t29.5 115
v42l44 -35h-269v73h279l15 -14v-363h-70v170h27q-22 -59 -62.5 -100t-93.5 -61.5t-113 -20.5zM343 -223v49q23 5 36 19t13 32q0 16 -4 25l31 18q3 -10 3 -20q0 -15 -8 -22t-17 -9.5t-13 -2.5q-22 0 -36.5 14.5t-14.5 35.5q0 22 14.5 37t36.5 15q28 0 43.5 -24t15.5 -54
q0 -21 -10 -45t-31.5 -43t-58.5 -25z" />
    <glyph glyph-name="Gdotaccent" unicode="&#x120;" horiz-adv-x="763" 
d="M381 -12q-96 0 -171 45.5t-117.5 127.5t-42.5 190t42 189t117 126.5t173 45.5q102 0 179 -52t112 -141l-62 -19l-11 2q-31 67 -86.5 102t-128.5 35q-75 0 -133.5 -35.5t-91.5 -100t-33 -151.5q0 -88 33 -153.5t91.5 -101.5t132.5 -36q73 0 127 33.5t83.5 87.5t29.5 115
v42l44 -35h-269v73h279l15 -14v-363h-70v170h27q-22 -59 -62.5 -100t-93.5 -61.5t-113 -20.5zM376 789q-23 0 -39 16t-16 39t16 39t39 16t39 -16t16 -39t-16 -39t-39 -16z" />
    <glyph glyph-name="H" unicode="H" horiz-adv-x="684" 
d="M529 0v700h75v-700h-75zM80 0v700h75v-700h-75zM119 323v73h455v-73h-455z" />
    <glyph glyph-name="Hbar" unicode="&#x126;" horiz-adv-x="684" 
d="M529 0v700h75v-700h-75zM80 0v700h75v-700h-75zM119 323v73h455v-73h-455zM0 504v73h684v-73h-684z" />
    <glyph glyph-name="I" unicode="I" horiz-adv-x="235" 
d="M80 0v700h75v-700h-75z" />
    <glyph glyph-name="Iacute" unicode="&#xcd;" horiz-adv-x="235" 
d="M80 0v700h75v-700h-75zM85 771l75 145h100v-8l-101 -137h-74z" />
    <glyph glyph-name="Icircumflex" unicode="&#xce;" horiz-adv-x="235" 
d="M80 0v700h75v-700h-75zM-38 771l106 145h99l106 -145h-85l-71 88l-71 -88h-84z" />
    <glyph glyph-name="Idieresis" unicode="&#xcf;" horiz-adv-x="235" 
d="M80 0v700h75v-700h-75zM215 788q-23 0 -39 16t-16 39t16 39t39 16t39 -16t16 -39t-16 -39t-39 -16zM33 788q-23 0 -39 16t-16 39t16 39t39 16t39 -16t16 -39t-16 -39t-39 -16z" />
    <glyph glyph-name="Idotaccent" unicode="&#x130;" horiz-adv-x="235" 
d="M80 0v700h75v-700h-75zM118 789q-23 0 -39 16t-16 39t16 39t39 16t39 -16t16 -39t-16 -39t-39 -16z" />
    <glyph glyph-name="Igrave" unicode="&#xcc;" horiz-adv-x="235" 
d="M80 0v700h75v-700h-75zM145 771h-74l-101 137v8h100z" />
    <glyph glyph-name="Imacron" unicode="&#x12a;" horiz-adv-x="235" 
d="M80 0v700h75v-700h-75zM-35 807v73h306v-73h-306z" />
    <glyph glyph-name="Iogonek" unicode="&#x12e;" horiz-adv-x="235" 
d="M80 0v700h75v-700h-75zM113 -205q-49 0 -78.5 27.5t-29.5 73.5q0 43 27 77.5t81 62.5l42 -36q-38 -20 -58.5 -43.5t-20.5 -46.5q0 -21 13.5 -34t35.5 -13q14 0 25 4l5 -11v-56q-12 -2 -22 -3.5t-20 -1.5z" />
    <glyph glyph-name="J" unicode="J" horiz-adv-x="518" 
d="M249 -12q-60 0 -104.5 24.5t-69.5 68t-25 100.5v48h64l11 -5v-43q0 -55 34 -87.5t90 -32.5t90 34t34 94v511h75v-509q0 -61 -24.5 -106.5t-69.5 -71t-105 -25.5z" />
    <glyph glyph-name="K" unicode="K" horiz-adv-x="603" 
d="M116 185v108l369 407h93v-8zM80 0v700h75v-700h-75zM512 0l-269 363l55 52l300 -407v-8h-86z" />
    <glyph glyph-name="uni0136" unicode="&#x136;" horiz-adv-x="603" 
d="M116 185v108l369 407h93v-8zM80 0v700h75v-700h-75zM512 0l-269 363l55 52l300 -407v-8h-86zM283 -223v49q23 5 36 19t13 32q0 16 -4 25l31 18q3 -10 3 -20q0 -15 -8 -22t-17 -9.5t-13 -2.5q-22 0 -36.5 14.5t-14.5 35.5q0 22 14.5 37t36.5 15q28 0 43.5 -24t15.5 -54
q0 -21 -10 -45t-31.5 -43t-58.5 -25z" />
    <glyph glyph-name="L" unicode="L" horiz-adv-x="531" 
d="M80 0v700h75v-700h-75zM119 0v73h392v-73h-392z" />
    <glyph glyph-name="Lacute" unicode="&#x139;" horiz-adv-x="531" 
d="M80 0v700h75v-700h-75zM119 0v73h392v-73h-392zM84 771l75 145h100v-8l-101 -137h-74z" />
    <glyph glyph-name="Lcaron" unicode="&#x13d;" horiz-adv-x="531" 
d="M80 0v700h75v-700h-75zM119 0v73h392v-73h-392zM211 536l20 184h83l-41 -184h-62z" />
    <glyph glyph-name="uni013B" unicode="&#x13b;" horiz-adv-x="531" 
d="M80 0v700h75v-700h-75zM119 0v73h392v-73h-392zM254 -223v49q23 5 36 19t13 32q0 16 -4 25l31 18q3 -10 3 -20q0 -15 -8 -22t-17 -9.5t-13 -2.5q-22 0 -36.5 14.5t-14.5 35.5q0 22 14.5 37t36.5 15q28 0 43.5 -24t15.5 -54q0 -21 -10 -45t-31.5 -43t-58.5 -25z" />
    <glyph glyph-name="Ldot" unicode="&#x13f;" horiz-adv-x="531" 
d="M80 0v700h75v-700h-75zM119 0v73h392v-73h-392zM383 321q-23 0 -39 16t-16 39t16 39t39 16t39 -16t16 -39t-16 -39t-39 -16z" />
    <glyph glyph-name="Lslash" unicode="&#x141;" horiz-adv-x="531" 
d="M80 0v700h75v-700h-75zM119 0v73h392v-73h-392zM0 242v79l332 136v-79z" />
    <glyph glyph-name="M" unicode="M" horiz-adv-x="864" 
d="M396 0l1 21l290 679h71v-21l-290 -679h-72zM80 0v700h75v-700h-75zM397 0l-291 679v21h72l290 -679v-21h-71zM709 0v700h75v-700h-75z" />
    <glyph glyph-name="N" unicode="N" horiz-adv-x="694" 
d="M539 0l-459 679v21h75l459 -679v-21h-75zM80 0v700h75v-700h-75zM539 0v700h75v-700h-75z" />
    <glyph glyph-name="Nacute" unicode="&#x143;" horiz-adv-x="694" 
d="M539 0l-459 679v21h75l459 -679v-21h-75zM80 0v700h75v-700h-75zM539 0v700h75v-700h-75zM329 771l75 145h100v-8l-101 -137h-74z" />
    <glyph glyph-name="Ncaron" unicode="&#x147;" horiz-adv-x="694" 
d="M539 0l-459 679v21h75l459 -679v-21h-75zM80 0v700h75v-700h-75zM539 0v700h75v-700h-75zM206 864h84l71 -88l71 88h85l-106 -145h-99z" />
    <glyph glyph-name="uni0145" unicode="&#x145;" horiz-adv-x="694" 
d="M539 0l-459 679v21h75l459 -679v-21h-75zM80 0v700h75v-700h-75zM539 0v700h75v-700h-75zM317 -223v49q23 5 36 19t13 32q0 16 -4 25l31 18q3 -10 3 -20q0 -15 -8 -22t-17 -9.5t-13 -2.5q-22 0 -36.5 14.5t-14.5 35.5q0 22 14.5 37t36.5 15q28 0 43.5 -24t15.5 -54
q0 -21 -10 -45t-31.5 -43t-58.5 -25z" />
    <glyph glyph-name="Ntilde" unicode="&#xd1;" horiz-adv-x="694" 
d="M539 0l-459 679v21h75l459 -679v-21h-75zM80 0v700h75v-700h-75zM539 0v700h75v-700h-75zM428 782q-21 0 -38 8t-31.5 19t-28.5 19t-29 8q-17 0 -27 -15t-10 -38h-64q0 54 26.5 88t69.5 34q21 0 38 -8t31.5 -19t28.5 -19t29 -8q17 0 27 15t10 38h64q0 -54 -26.5 -88
t-69.5 -34z" />
    <glyph glyph-name="Eng" unicode="&#x14a;" horiz-adv-x="694" 
d="M410 -200v62l5 11h21q56 0 79.5 23t23.5 80v107h75v-113q0 -78 -46 -124t-117 -46h-41zM539 0l-459 679v21h75l459 -679v-21h-75zM80 0v700h75v-700h-75zM539 0v700h75v-700h-75z" />
    <glyph glyph-name="O" unicode="O" horiz-adv-x="760" 
d="M380 -12q-95 0 -170 45.5t-117.5 127t-42.5 189.5t42.5 189.5t117.5 127t170 45.5q96 0 170.5 -45.5t117 -127t42.5 -189.5t-42.5 -189.5t-117 -127t-170.5 -45.5zM380 61q72 0 129.5 36t90.5 101t33 152q0 88 -33 153t-90.5 100.5t-129.5 35.5t-129 -35.5t-90.5 -100.5
t-33.5 -153q0 -87 33.5 -152t90.5 -101t129 -36z" />
    <glyph glyph-name="Oacute" unicode="&#xd3;" horiz-adv-x="760" 
d="M380 -12q-95 0 -170 45.5t-117.5 127t-42.5 189.5t42.5 189.5t117.5 127t170 45.5q96 0 170.5 -45.5t117 -127t42.5 -189.5t-42.5 -189.5t-117 -127t-170.5 -45.5zM380 61q72 0 129.5 36t90.5 101t33 152q0 88 -33 153t-90.5 100.5t-129.5 35.5t-129 -35.5t-90.5 -100.5
t-33.5 -153q0 -87 33.5 -152t90.5 -101t129 -36zM347 771l75 145h100v-8l-101 -137h-74z" />
    <glyph glyph-name="Ocircumflex" unicode="&#xd4;" horiz-adv-x="760" 
d="M380 -12q-95 0 -170 45.5t-117.5 127t-42.5 189.5t42.5 189.5t117.5 127t170 45.5q96 0 170.5 -45.5t117 -127t42.5 -189.5t-42.5 -189.5t-117 -127t-170.5 -45.5zM380 61q72 0 129.5 36t90.5 101t33 152q0 88 -33 153t-90.5 100.5t-129.5 35.5t-129 -35.5t-90.5 -100.5
t-33.5 -153q0 -87 33.5 -152t90.5 -101t129 -36zM224 771l106 145h99l106 -145h-85l-71 88l-71 -88h-84z" />
    <glyph glyph-name="Odieresis" unicode="&#xd6;" horiz-adv-x="760" 
d="M380 -12q-95 0 -170 45.5t-117.5 127t-42.5 189.5t42.5 189.5t117.5 127t170 45.5q96 0 170.5 -45.5t117 -127t42.5 -189.5t-42.5 -189.5t-117 -127t-170.5 -45.5zM380 61q72 0 129.5 36t90.5 101t33 152q0 88 -33 153t-90.5 100.5t-129.5 35.5t-129 -35.5t-90.5 -100.5
t-33.5 -153q0 -87 33.5 -152t90.5 -101t129 -36zM477 788q-23 0 -39 16t-16 39t16 39t39 16t39 -16t16 -39t-16 -39t-39 -16zM295 788q-23 0 -39 16t-16 39t16 39t39 16t39 -16t16 -39t-16 -39t-39 -16z" />
    <glyph glyph-name="Ograve" unicode="&#xd2;" horiz-adv-x="760" 
d="M380 -12q-95 0 -170 45.5t-117.5 127t-42.5 189.5t42.5 189.5t117.5 127t170 45.5q96 0 170.5 -45.5t117 -127t42.5 -189.5t-42.5 -189.5t-117 -127t-170.5 -45.5zM380 61q72 0 129.5 36t90.5 101t33 152q0 88 -33 153t-90.5 100.5t-129.5 35.5t-129 -35.5t-90.5 -100.5
t-33.5 -153q0 -87 33.5 -152t90.5 -101t129 -36zM407 771h-74l-101 137v8h100z" />
    <glyph glyph-name="Ohungarumlaut" unicode="&#x150;" horiz-adv-x="760" 
d="M380 -12q-95 0 -170 45.5t-117.5 127t-42.5 189.5t42.5 189.5t117.5 127t170 45.5q96 0 170.5 -45.5t117 -127t42.5 -189.5t-42.5 -189.5t-117 -127t-170.5 -45.5zM380 61q72 0 129.5 36t90.5 101t33 152q0 88 -33 153t-90.5 100.5t-129.5 35.5t-129 -35.5t-90.5 -100.5
t-33.5 -153q0 -87 33.5 -152t90.5 -101t129 -36zM406 771l60 145h100v-8l-86 -137h-74zM270 771l60 145h100v-8l-86 -137h-74z" />
    <glyph glyph-name="Omacron" unicode="&#x14c;" horiz-adv-x="760" 
d="M380 -12q-95 0 -170 45.5t-117.5 127t-42.5 189.5t42.5 189.5t117.5 127t170 45.5q96 0 170.5 -45.5t117 -127t42.5 -189.5t-42.5 -189.5t-117 -127t-170.5 -45.5zM380 61q72 0 129.5 36t90.5 101t33 152q0 88 -33 153t-90.5 100.5t-129.5 35.5t-129 -35.5t-90.5 -100.5
t-33.5 -153q0 -87 33.5 -152t90.5 -101t129 -36zM227 807v73h306v-73h-306z" />
    <glyph glyph-name="Oslash" unicode="&#xd8;" horiz-adv-x="760" 
d="M380 -12q-95 0 -170 45.5t-117.5 127t-42.5 189.5t42.5 189.5t117.5 127t170 45.5q96 0 170.5 -45.5t117 -127t42.5 -189.5t-42.5 -189.5t-117 -127t-170.5 -45.5zM380 61q72 0 129.5 36t90.5 101t33 152q0 88 -33 153t-90.5 100.5t-129.5 35.5t-129 -35.5t-90.5 -100.5
t-33.5 -153q0 -87 33.5 -152t90.5 -101t129 -36zM145 -95l-62 36l530 853l63 -36z" />
    <glyph glyph-name="Otilde" unicode="&#xd5;" horiz-adv-x="760" 
d="M380 -12q-95 0 -170 45.5t-117.5 127t-42.5 189.5t42.5 189.5t117.5 127t170 45.5q96 0 170.5 -45.5t117 -127t42.5 -189.5t-42.5 -189.5t-117 -127t-170.5 -45.5zM380 61q72 0 129.5 36t90.5 101t33 152q0 88 -33 153t-90.5 100.5t-129.5 35.5t-129 -35.5t-90.5 -100.5
t-33.5 -153q0 -87 33.5 -152t90.5 -101t129 -36zM446 782q-21 0 -38 8t-31.5 19t-28.5 19t-29 8q-17 0 -27 -15t-10 -38h-64q0 54 26.5 88t69.5 34q21 0 38 -8t31.5 -19t28.5 -19t29 -8q17 0 27 15t10 38h64q0 -54 -26.5 -88t-69.5 -34z" />
    <glyph glyph-name="OE" unicode="&#x152;" horiz-adv-x="1125" 
d="M380 -12q-95 0 -170 45.5t-117.5 127t-42.5 189.5t42.5 189.5t117.5 127t170 45.5q96 0 170.5 -45.5t117 -127t42.5 -189.5t-42.5 -189.5t-117 -127t-170.5 -45.5zM380 61q72 0 129.5 36t90.5 101t33 152q0 88 -33 153t-90.5 100.5t-129.5 35.5t-129 -35.5t-90.5 -100.5
t-33.5 -153q0 -87 33.5 -152t90.5 -101t129 -36zM634 0v700h75v-700h-75zM673 0v73h402v-73h-402zM673 318v73h382v-73h-382zM673 627v73h402v-73h-402z" />
    <glyph glyph-name="P" unicode="P" horiz-adv-x="590" 
d="M459 493q0 62 -36 97.5t-99 35.5h-201v74h201q98 0 157 -56t59 -151h-81zM80 0v700h75v-700h-75zM123 286v74h201q63 0 99 35.5t36 97.5h81q0 -94 -59 -150.5t-157 -56.5h-201z" />
    <glyph glyph-name="Thorn" unicode="&#xde;" horiz-adv-x="590" 
d="M459 350q0 62 -36 97.5t-99 35.5h-201v74h201q98 0 157 -56t59 -151h-81zM80 0v700h75v-700h-75zM123 143v74h201q63 0 99 35.5t36 97.5h81q0 -94 -59 -150.5t-157 -56.5h-201z" />
    <glyph glyph-name="Q" unicode="Q" horiz-adv-x="760" 
d="M629 0l-239 272l54 51l276 -315v-8h-91zM380 -12q-95 0 -170 45.5t-117.5 127t-42.5 189.5t42.5 189.5t117.5 127t170 45.5q96 0 170.5 -45.5t117 -127t42.5 -189.5t-42.5 -189.5t-117 -127t-170.5 -45.5zM380 61q72 0 129.5 36t90.5 101t33 152q0 88 -33 153
t-90.5 100.5t-129.5 35.5t-129 -35.5t-90.5 -100.5t-33.5 -153q0 -87 33.5 -152t90.5 -101t129 -36z" />
    <glyph glyph-name="R" unicode="R" horiz-adv-x="595" 
d="M80 0v700h75v-700h-75zM123 286v74h211q63 0 99 35.5t36 97.5h81q0 -94 -59 -150.5t-157 -56.5h-211zM469 493q0 62 -36 97.5t-99 35.5h-211v74h211q98 0 157 -56t59 -151h-81zM473 0l-173 304l68 32l187 -328v-8h-82z" />
    <glyph glyph-name="Racute" unicode="&#x154;" horiz-adv-x="595" 
d="M80 0v700h75v-700h-75zM123 286v74h211q63 0 99 35.5t36 97.5h81q0 -94 -59 -150.5t-157 -56.5h-211zM469 493q0 62 -36 97.5t-99 35.5h-211v74h211q98 0 157 -56t59 -151h-81zM473 0l-173 304l68 32l187 -328v-8h-82zM247 771l75 145h100v-8l-101 -137h-74z" />
    <glyph glyph-name="Rcaron" unicode="&#x158;" horiz-adv-x="595" 
d="M80 0v700h75v-700h-75zM123 286v74h211q63 0 99 35.5t36 97.5h81q0 -94 -59 -150.5t-157 -56.5h-211zM469 493q0 62 -36 97.5t-99 35.5h-211v74h211q98 0 157 -56t59 -151h-81zM473 0l-173 304l68 32l187 -328v-8h-82zM124 864h84l71 -88l71 88h85l-106 -145h-99z" />
    <glyph glyph-name="uni0156" unicode="&#x156;" horiz-adv-x="595" 
d="M80 0v700h75v-700h-75zM123 286v74h211q63 0 99 35.5t36 97.5h81q0 -94 -59 -150.5t-157 -56.5h-211zM469 493q0 62 -36 97.5t-99 35.5h-211v74h211q98 0 157 -56t59 -151h-81zM473 0l-173 304l68 32l187 -328v-8h-82zM272 -223v49q23 5 36 19t13 32q0 16 -4 25l31 18
q3 -10 3 -20q0 -15 -8 -22t-17 -9.5t-13 -2.5q-22 0 -36.5 14.5t-14.5 35.5q0 22 14.5 37t36.5 15q28 0 43.5 -24t15.5 -54q0 -21 -10 -45t-31.5 -43t-58.5 -25z" />
    <glyph glyph-name="S" unicode="S" horiz-adv-x="613" 
d="M317 -12q-69 0 -126 26t-95 72.5t-51 108.5l69 17l11 -2q11 -42 39 -75.5t67.5 -53.5t84.5 -20q49 0 86.5 16t59 44.5t21.5 65.5q0 50 -28 76.5t-76 39.5l-137 38q-81 23 -123 72t-42 113q0 55 28.5 96.5t79.5 65.5t117 24q65 0 117.5 -24.5t87 -68.5t45.5 -103l-70 -15
l-11 2q-13 62 -59 99t-110 37q-66 0 -105.5 -31t-39.5 -83q0 -41 28 -68t81 -42l137 -38q76 -21 118 -68.5t42 -117.5q0 -61 -30.5 -106.5t-86 -71t-129.5 -25.5z" />
    <glyph glyph-name="Sacute" unicode="&#x15a;" horiz-adv-x="613" 
d="M317 -12q-69 0 -126 26t-95 72.5t-51 108.5l69 17l11 -2q11 -42 39 -75.5t67.5 -53.5t84.5 -20q49 0 86.5 16t59 44.5t21.5 65.5q0 50 -28 76.5t-76 39.5l-137 38q-81 23 -123 72t-42 113q0 55 28.5 96.5t79.5 65.5t117 24q65 0 117.5 -24.5t87 -68.5t45.5 -103l-70 -15
l-11 2q-13 62 -59 99t-110 37q-66 0 -105.5 -31t-39.5 -83q0 -41 28 -68t81 -42l137 -38q76 -21 118 -68.5t42 -117.5q0 -61 -30.5 -106.5t-86 -71t-129.5 -25.5zM281 771l75 145h100v-8l-101 -137h-74z" />
    <glyph glyph-name="Scaron" unicode="&#x160;" horiz-adv-x="613" 
d="M317 -12q-69 0 -126 26t-95 72.5t-51 108.5l69 17l11 -2q11 -42 39 -75.5t67.5 -53.5t84.5 -20q49 0 86.5 16t59 44.5t21.5 65.5q0 50 -28 76.5t-76 39.5l-137 38q-81 23 -123 72t-42 113q0 55 28.5 96.5t79.5 65.5t117 24q65 0 117.5 -24.5t87 -68.5t45.5 -103l-70 -15
l-11 2q-13 62 -59 99t-110 37q-66 0 -105.5 -31t-39.5 -83q0 -41 28 -68t81 -42l137 -38q76 -21 118 -68.5t42 -117.5q0 -61 -30.5 -106.5t-86 -71t-129.5 -25.5zM158 864h84l71 -88l71 88h85l-106 -145h-99z" />
    <glyph glyph-name="Scedilla" unicode="&#x15e;" horiz-adv-x="613" 
d="M317 -12q-69 0 -126 26t-95 72.5t-51 108.5l69 17l11 -2q11 -42 39 -75.5t67.5 -53.5t84.5 -20q49 0 86.5 16t59 44.5t21.5 65.5q0 50 -28 76.5t-76 39.5l-137 38q-81 23 -123 72t-42 113q0 55 28.5 96.5t79.5 65.5t117 24q65 0 117.5 -24.5t87 -68.5t45.5 -103l-70 -15
l-11 2q-13 62 -59 99t-110 37q-66 0 -105.5 -31t-39.5 -83q0 -41 28 -68t81 -42l137 -38q76 -21 118 -68.5t42 -117.5q0 -61 -30.5 -106.5t-86 -71t-129.5 -25.5zM309 -205q-12 0 -26 3.5t-30 13.5l16 48l9 2q8 -4 15.5 -6t12.5 -2q16 0 25.5 8.5t9.5 20.5q0 14 -9.5 22.5
t-24.5 8.5t-25 -8l-28 40l46 67h71l-65 -87l-7 38q5 1 10 1.5t10 0.5q35 0 59 -24t24 -59q0 -38 -27.5 -63t-65.5 -25z" />
    <glyph glyph-name="uni0218" unicode="&#x218;" horiz-adv-x="613" 
d="M317 -12q-69 0 -126 26t-95 72.5t-51 108.5l69 17l11 -2q11 -42 39 -75.5t67.5 -53.5t84.5 -20q49 0 86.5 16t59 44.5t21.5 65.5q0 50 -28 76.5t-76 39.5l-137 38q-81 23 -123 72t-42 113q0 55 28.5 96.5t79.5 65.5t117 24q65 0 117.5 -24.5t87 -68.5t45.5 -103l-70 -15
l-11 2q-13 62 -59 99t-110 37q-66 0 -105.5 -31t-39.5 -83q0 -41 28 -68t81 -42l137 -38q76 -21 118 -68.5t42 -117.5q0 -61 -30.5 -106.5t-86 -71t-129.5 -25.5zM283 -223v49q23 5 36 19t13 32q0 16 -4 25l31 18q3 -10 3 -20q0 -15 -8 -22t-17 -9.5t-13 -2.5
q-22 0 -36.5 14.5t-14.5 35.5q0 22 14.5 37t36.5 15q28 0 43.5 -24t15.5 -54q0 -21 -10 -45t-31.5 -43t-58.5 -25z" />
    <glyph glyph-name="uni1E9E" unicode="&#x1e9e;" horiz-adv-x="680" 
d="M429 -12q-60 0 -110 28t-80 78.5t-30 118.5l65 15l11 -2q0 -52 19 -89t51 -56.5t71 -19.5q35 0 65 17.5t48 50t18 77.5q0 71 -45.5 108.5t-112.5 37.5h-103v65l230 248l35 -38h-322q-38 0 -63.5 -25.5t-25.5 -63.5v-538h-75v539q0 46 21 82.5t57.5 57.5t82.5 21h353v-69
l-230 -246l-21 36h58q79 0 132 -29t80 -79t27 -114q0 -62 -27 -109.5t-73.5 -74.5t-105.5 -27z" />
    <glyph glyph-name="T" unicode="T" horiz-adv-x="564" 
d="M245 0v700h75v-700h-75zM25 627v73h514v-73h-514z" />
    <glyph glyph-name="Tcaron" unicode="&#x164;" horiz-adv-x="564" 
d="M245 0v700h75v-700h-75zM25 627v73h514v-73h-514zM126 864h84l71 -88l71 88h85l-106 -145h-99z" />
    <glyph glyph-name="uni021A" unicode="&#x21a;" horiz-adv-x="564" 
d="M245 0v700h75v-700h-75zM25 627v73h514v-73h-514zM237 -223v49q23 5 36 19t13 32q0 16 -4 25l31 18q3 -10 3 -20q0 -15 -8 -22t-17 -9.5t-13 -2.5q-22 0 -36.5 14.5t-14.5 35.5q0 22 14.5 37t36.5 15q28 0 43.5 -24t15.5 -54q0 -21 -10 -45t-31.5 -43t-58.5 -25z" />
    <glyph glyph-name="U" unicode="U" horiz-adv-x="648" 
d="M324 -12q-79 0 -136 32t-87.5 92.5t-30.5 145.5v442h75v-444q0 -94 46 -144.5t133 -50.5t133 50.5t46 144.5v444h75v-442q0 -85 -30.5 -145.5t-87.5 -92.5t-136 -32z" />
    <glyph glyph-name="Uacute" unicode="&#xda;" horiz-adv-x="648" 
d="M324 -12q-79 0 -136 32t-87.5 92.5t-30.5 145.5v442h75v-444q0 -94 46 -144.5t133 -50.5t133 50.5t46 144.5v444h75v-442q0 -85 -30.5 -145.5t-87.5 -92.5t-136 -32zM291 771l75 145h100v-8l-101 -137h-74z" />
    <glyph glyph-name="Ubreve" unicode="&#x16c;" horiz-adv-x="648" 
d="M324 -12q-79 0 -136 32t-87.5 92.5t-30.5 145.5v442h75v-444q0 -94 46 -144.5t133 -50.5t133 50.5t46 144.5v444h75v-442q0 -85 -30.5 -145.5t-87.5 -92.5t-136 -32zM323 769q-41 0 -74 18.5t-52 52t-19 76.5h71q1 -36 22 -60.5t52 -24.5q32 0 53 24.5t22 60.5h71
q0 -43 -19 -76.5t-52 -52t-75 -18.5z" />
    <glyph glyph-name="Ucircumflex" unicode="&#xdb;" horiz-adv-x="648" 
d="M324 -12q-79 0 -136 32t-87.5 92.5t-30.5 145.5v442h75v-444q0 -94 46 -144.5t133 -50.5t133 50.5t46 144.5v444h75v-442q0 -85 -30.5 -145.5t-87.5 -92.5t-136 -32zM168 771l106 145h99l106 -145h-85l-71 88l-71 -88h-84z" />
    <glyph glyph-name="Udieresis" unicode="&#xdc;" horiz-adv-x="648" 
d="M324 -12q-79 0 -136 32t-87.5 92.5t-30.5 145.5v442h75v-444q0 -94 46 -144.5t133 -50.5t133 50.5t46 144.5v444h75v-442q0 -85 -30.5 -145.5t-87.5 -92.5t-136 -32zM421 788q-23 0 -39 16t-16 39t16 39t39 16t39 -16t16 -39t-16 -39t-39 -16zM239 788q-23 0 -39 16
t-16 39t16 39t39 16t39 -16t16 -39t-16 -39t-39 -16z" />
    <glyph glyph-name="Ugrave" unicode="&#xd9;" horiz-adv-x="648" 
d="M324 -12q-79 0 -136 32t-87.5 92.5t-30.5 145.5v442h75v-444q0 -94 46 -144.5t133 -50.5t133 50.5t46 144.5v444h75v-442q0 -85 -30.5 -145.5t-87.5 -92.5t-136 -32zM351 771h-74l-101 137v8h100z" />
    <glyph glyph-name="Uhungarumlaut" unicode="&#x170;" horiz-adv-x="648" 
d="M324 -12q-79 0 -136 32t-87.5 92.5t-30.5 145.5v442h75v-444q0 -94 46 -144.5t133 -50.5t133 50.5t46 144.5v444h75v-442q0 -85 -30.5 -145.5t-87.5 -92.5t-136 -32zM350 771l60 145h100v-8l-86 -137h-74zM214 771l60 145h100v-8l-86 -137h-74z" />
    <glyph glyph-name="Umacron" unicode="&#x16a;" horiz-adv-x="648" 
d="M324 -12q-79 0 -136 32t-87.5 92.5t-30.5 145.5v442h75v-444q0 -94 46 -144.5t133 -50.5t133 50.5t46 144.5v444h75v-442q0 -85 -30.5 -145.5t-87.5 -92.5t-136 -32zM171 807v73h306v-73h-306z" />
    <glyph glyph-name="Uogonek" unicode="&#x172;" horiz-adv-x="648" 
d="M324 -12q-79 0 -136 32t-87.5 92.5t-30.5 145.5v442h75v-444q0 -94 46 -144.5t133 -50.5t133 50.5t46 144.5v444h75v-442q0 -85 -30.5 -145.5t-87.5 -92.5t-136 -32zM370 -205q-49 0 -78.5 27.5t-29.5 73.5q0 43 27 77.5t81 62.5l42 -36q-38 -20 -58.5 -43.5t-20.5 -46.5
q0 -21 13.5 -34t35.5 -13q14 0 25 4l5 -11v-56q-12 -2 -22 -3.5t-20 -1.5z" />
    <glyph glyph-name="Uring" unicode="&#x16e;" horiz-adv-x="648" 
d="M324 -12q-79 0 -136 32t-87.5 92.5t-30.5 145.5v442h75v-444q0 -94 46 -144.5t133 -50.5t133 50.5t46 144.5v444h75v-442q0 -85 -30.5 -145.5t-87.5 -92.5t-136 -32zM324 688q-33 0 -60 15t-42.5 41.5t-15.5 58.5q0 33 15.5 59t42.5 41t60 15q34 0 60.5 -15t42 -41
t15.5 -59q0 -32 -15.5 -58.5t-42 -41.5t-60.5 -15zM324 747q24 0 40 16.5t16 39.5t-16 39.5t-40 16.5t-40 -16.5t-16 -39.5t16 -39.5t40 -16.5z" />
    <glyph glyph-name="V" unicode="V" horiz-adv-x="667" 
d="M296 0l7 21l258 679h81v-8l-271 -692h-75zM296 0l-271 692v8h81l258 -679l7 -21h-75z" />
    <glyph glyph-name="W" unicode="W" horiz-adv-x="975" 
d="M673 0l-224 700h77l209 -679l9 -21h-71zM673 0l4 21l189 679h79v-8l-201 -692h-71zM231 0l-201 692v8h79l189 -679l4 -21h-71zM231 0l9 21l209 679h77l-224 -700h-71z" />
    <glyph glyph-name="Wacute" unicode="&#x1e82;" horiz-adv-x="975" 
d="M673 0l-224 700h77l209 -679l9 -21h-71zM673 0l4 21l189 679h79v-8l-201 -692h-71zM231 0l-201 692v8h79l189 -679l4 -21h-71zM231 0l9 21l209 679h77l-224 -700h-71zM435 771l75 145h100v-8l-101 -137h-74z" />
    <glyph glyph-name="Wcircumflex" unicode="&#x174;" horiz-adv-x="975" 
d="M673 0l-224 700h77l209 -679l9 -21h-71zM673 0l4 21l189 679h79v-8l-201 -692h-71zM231 0l-201 692v8h79l189 -679l4 -21h-71zM231 0l9 21l209 679h77l-224 -700h-71zM332 771l106 145h99l106 -145h-85l-71 88l-71 -88h-84z" />
    <glyph glyph-name="Wdieresis" unicode="&#x1e84;" horiz-adv-x="975" 
d="M673 0l-224 700h77l209 -679l9 -21h-71zM673 0l4 21l189 679h79v-8l-201 -692h-71zM231 0l-201 692v8h79l189 -679l4 -21h-71zM231 0l9 21l209 679h77l-224 -700h-71zM585 788q-23 0 -39 16t-16 39t16 39t39 16t39 -16t16 -39t-16 -39t-39 -16zM403 788q-23 0 -39 16
t-16 39t16 39t39 16t39 -16t16 -39t-16 -39t-39 -16z" />
    <glyph glyph-name="Wgrave" unicode="&#x1e80;" horiz-adv-x="975" 
d="M673 0l-224 700h77l209 -679l9 -21h-71zM673 0l4 21l189 679h79v-8l-201 -692h-71zM231 0l-201 692v8h79l189 -679l4 -21h-71zM231 0l9 21l209 679h77l-224 -700h-71zM505 771h-74l-101 137v8h100z" />
    <glyph glyph-name="X" unicode="X" horiz-adv-x="545" 
d="M449 0l-429 692v8h86l429 -692v-8h-86zM10 0v8l231 374l41 -73l-188 -309h-84zM294 311l-41 73l189 316h83v-8z" />
    <glyph glyph-name="Y" unicode="Y" horiz-adv-x="553" 
d="M239 0v273l-229 419v8h84l204 -387h-40l203 387h82v-8l-229 -419v-273h-75z" />
    <glyph glyph-name="Yacute" unicode="&#xdd;" horiz-adv-x="553" 
d="M239 0v273l-229 419v8h84l204 -387h-40l203 387h82v-8l-229 -419v-273h-75zM250 771l75 145h100v-8l-101 -137h-74z" />
    <glyph glyph-name="Ycircumflex" unicode="&#x176;" horiz-adv-x="553" 
d="M239 0v273l-229 419v8h84l204 -387h-40l203 387h82v-8l-229 -419v-273h-75zM121 771l106 145h99l106 -145h-85l-71 88l-71 -88h-84z" />
    <glyph glyph-name="Ydieresis" unicode="&#x178;" horiz-adv-x="553" 
d="M239 0v273l-229 419v8h84l204 -387h-40l203 387h82v-8l-229 -419v-273h-75zM374 788q-23 0 -39 16t-16 39t16 39t39 16t39 -16t16 -39t-16 -39t-39 -16zM192 788q-23 0 -39 16t-16 39t16 39t39 16t39 -16t16 -39t-16 -39t-39 -16z" />
    <glyph glyph-name="Ygrave" unicode="&#x1ef2;" horiz-adv-x="553" 
d="M239 0v273l-229 419v8h84l204 -387h-40l203 387h82v-8l-229 -419v-273h-75zM318 771h-74l-101 137v8h100z" />
    <glyph glyph-name="Z" unicode="Z" horiz-adv-x="562" 
d="M35 0v70l421 595l13 -38h-429v73h482v-70l-421 -595l-14 38h440v-73h-492z" />
    <glyph glyph-name="Zacute" unicode="&#x179;" horiz-adv-x="562" 
d="M35 0v70l421 595l13 -38h-429v73h482v-70l-421 -595l-14 38h440v-73h-492zM248 771l75 145h100v-8l-101 -137h-74z" />
    <glyph glyph-name="Zcaron" unicode="&#x17d;" horiz-adv-x="562" 
d="M35 0v70l421 595l13 -38h-429v73h482v-70l-421 -595l-14 38h440v-73h-492zM125 864h84l71 -88l71 88h85l-106 -145h-99z" />
    <glyph glyph-name="Zdotaccent" unicode="&#x17b;" horiz-adv-x="562" 
d="M35 0v70l421 595l13 -38h-429v73h482v-70l-421 -595l-14 38h440v-73h-492zM281 789q-23 0 -39 16t-16 39t16 39t39 16t39 -16t16 -39t-16 -39t-39 -16z" />
    <glyph glyph-name="a" unicode="a" horiz-adv-x="542" 
d="M228 -12q-51 0 -91.5 20t-63.5 55t-23 81q0 65 46.5 105.5t128.5 46.5l192 14v-70l-175 -13q-58 -4 -86.5 -25t-28.5 -58q0 -36 29.5 -59.5t76.5 -23.5t85.5 21.5t61 58t22.5 81.5v81q0 60 -36.5 98.5t-98.5 38.5q-47 0 -81 -22.5t-48 -65.5h-11l-66 24q24 67 78 102
t129 35q101 0 155 -60.5t54 -171.5v-281h-73v145l26 -19q-12 -40 -42 -71.5t-71 -49t-89 -17.5z" />
    <glyph glyph-name="aacute" unicode="&#xe1;" horiz-adv-x="542" 
d="M228 -12q-51 0 -91.5 20t-63.5 55t-23 81q0 65 46.5 105.5t128.5 46.5l192 14v-70l-175 -13q-58 -4 -86.5 -25t-28.5 -58q0 -36 29.5 -59.5t76.5 -23.5t85.5 21.5t61 58t22.5 81.5v81q0 60 -36.5 98.5t-98.5 38.5q-47 0 -81 -22.5t-48 -65.5h-11l-66 24q24 67 78 102
t129 35q101 0 155 -60.5t54 -171.5v-281h-73v145l26 -19q-12 -40 -42 -71.5t-71 -49t-89 -17.5zM220 581l75 145h100v-8l-101 -137h-74z" />
    <glyph glyph-name="abreve" unicode="&#x103;" horiz-adv-x="542" 
d="M228 -12q-51 0 -91.5 20t-63.5 55t-23 81q0 65 46.5 105.5t128.5 46.5l192 14v-70l-175 -13q-58 -4 -86.5 -25t-28.5 -58q0 -36 29.5 -59.5t76.5 -23.5t85.5 21.5t61 58t22.5 81.5v81q0 60 -36.5 98.5t-98.5 38.5q-47 0 -81 -22.5t-48 -65.5h-11l-66 24q24 67 78 102
t129 35q101 0 155 -60.5t54 -171.5v-281h-73v145l26 -19q-12 -40 -42 -71.5t-71 -49t-89 -17.5zM277 579q-41 0 -74 18.5t-52 52t-19 76.5h71q1 -36 22 -60.5t52 -24.5q32 0 53 24.5t22 60.5h71q0 -43 -19 -76.5t-52 -52t-75 -18.5z" />
    <glyph glyph-name="acircumflex" unicode="&#xe2;" horiz-adv-x="542" 
d="M228 -12q-51 0 -91.5 20t-63.5 55t-23 81q0 65 46.5 105.5t128.5 46.5l192 14v-70l-175 -13q-58 -4 -86.5 -25t-28.5 -58q0 -36 29.5 -59.5t76.5 -23.5t85.5 21.5t61 58t22.5 81.5v81q0 60 -36.5 98.5t-98.5 38.5q-47 0 -81 -22.5t-48 -65.5h-11l-66 24q24 67 78 102
t129 35q101 0 155 -60.5t54 -171.5v-281h-73v145l26 -19q-12 -40 -42 -71.5t-71 -49t-89 -17.5zM122 581l106 145h99l106 -145h-85l-71 88l-71 -88h-84z" />
    <glyph glyph-name="adieresis" unicode="&#xe4;" horiz-adv-x="542" 
d="M228 -12q-51 0 -91.5 20t-63.5 55t-23 81q0 65 46.5 105.5t128.5 46.5l192 14v-70l-175 -13q-58 -4 -86.5 -25t-28.5 -58q0 -36 29.5 -59.5t76.5 -23.5t85.5 21.5t61 58t22.5 81.5v81q0 60 -36.5 98.5t-98.5 38.5q-47 0 -81 -22.5t-48 -65.5h-11l-66 24q24 67 78 102
t129 35q101 0 155 -60.5t54 -171.5v-281h-73v145l26 -19q-12 -40 -42 -71.5t-71 -49t-89 -17.5zM369 598q-23 0 -39 16t-16 39t16 39t39 16t39 -16t16 -39t-16 -39t-39 -16zM187 598q-23 0 -39 16t-16 39t16 39t39 16t39 -16t16 -39t-16 -39t-39 -16z" />
    <glyph glyph-name="agrave" unicode="&#xe0;" horiz-adv-x="542" 
d="M228 -12q-51 0 -91.5 20t-63.5 55t-23 81q0 65 46.5 105.5t128.5 46.5l192 14v-70l-175 -13q-58 -4 -86.5 -25t-28.5 -58q0 -36 29.5 -59.5t76.5 -23.5t85.5 21.5t61 58t22.5 81.5v81q0 60 -36.5 98.5t-98.5 38.5q-47 0 -81 -22.5t-48 -65.5h-11l-66 24q24 67 78 102
t129 35q101 0 155 -60.5t54 -171.5v-281h-73v145l26 -19q-12 -40 -42 -71.5t-71 -49t-89 -17.5zM328 581h-74l-101 137v8h100z" />
    <glyph glyph-name="amacron" unicode="&#x101;" horiz-adv-x="542" 
d="M228 -12q-51 0 -91.5 20t-63.5 55t-23 81q0 65 46.5 105.5t128.5 46.5l192 14v-70l-175 -13q-58 -4 -86.5 -25t-28.5 -58q0 -36 29.5 -59.5t76.5 -23.5t85.5 21.5t61 58t22.5 81.5v81q0 60 -36.5 98.5t-98.5 38.5q-47 0 -81 -22.5t-48 -65.5h-11l-66 24q24 67 78 102
t129 35q101 0 155 -60.5t54 -171.5v-281h-73v145l26 -19q-12 -40 -42 -71.5t-71 -49t-89 -17.5zM125 617v73h306v-73h-306z" />
    <glyph glyph-name="aogonek" unicode="&#x105;" horiz-adv-x="542" 
d="M228 -12q-51 0 -91.5 20t-63.5 55t-23 81q0 65 46.5 105.5t128.5 46.5l192 14v-70l-175 -13q-58 -4 -86.5 -25t-28.5 -58q0 -36 29.5 -59.5t76.5 -23.5t85.5 21.5t61 58t22.5 81.5v81q0 60 -36.5 98.5t-98.5 38.5q-47 0 -81 -22.5t-48 -65.5h-11l-66 24q24 67 78 102
t129 35q101 0 155 -60.5t54 -171.5v-281h-73v145l26 -19q-12 -40 -42 -71.5t-71 -49t-89 -17.5zM435 -205q-49 0 -78.5 27.5t-29.5 73.5q0 43 27 77.5t81 62.5l42 -36q-38 -20 -58.5 -43.5t-20.5 -46.5q0 -21 13.5 -34t35.5 -13q14 0 25 4l5 -11v-56q-12 -2 -22 -3.5
t-20 -1.5z" />
    <glyph glyph-name="aring" unicode="&#xe5;" horiz-adv-x="542" 
d="M228 -12q-51 0 -91.5 20t-63.5 55t-23 81q0 65 46.5 105.5t128.5 46.5l192 14v-70l-175 -13q-58 -4 -86.5 -25t-28.5 -58q0 -36 29.5 -59.5t76.5 -23.5t85.5 21.5t61 58t22.5 81.5v81q0 60 -36.5 98.5t-98.5 38.5q-47 0 -81 -22.5t-48 -65.5h-11l-66 24q24 67 78 102
t129 35q101 0 155 -60.5t54 -171.5v-281h-73v145l26 -19q-12 -40 -42 -71.5t-71 -49t-89 -17.5zM278 543q-33 0 -60 15t-42.5 41.5t-15.5 58.5q0 33 15.5 59t42.5 41t60 15q34 0 60.5 -15t42 -41t15.5 -59q0 -32 -15.5 -58.5t-42 -41.5t-60.5 -15zM278 602q24 0 40 16.5
t16 39.5t-16 39.5t-40 16.5t-40 -16.5t-16 -39.5t16 -39.5t40 -16.5z" />
    <glyph glyph-name="atilde" unicode="&#xe3;" horiz-adv-x="542" 
d="M228 -12q-51 0 -91.5 20t-63.5 55t-23 81q0 65 46.5 105.5t128.5 46.5l192 14v-70l-175 -13q-58 -4 -86.5 -25t-28.5 -58q0 -36 29.5 -59.5t76.5 -23.5t85.5 21.5t61 58t22.5 81.5v81q0 60 -36.5 98.5t-98.5 38.5q-47 0 -81 -22.5t-48 -65.5h-11l-66 24q24 67 78 102
t129 35q101 0 155 -60.5t54 -171.5v-281h-73v145l26 -19q-12 -40 -42 -71.5t-71 -49t-89 -17.5zM344 592q-21 0 -38 8t-31.5 19t-28.5 19t-29 8q-17 0 -27 -15t-10 -38h-64q0 54 26.5 88t69.5 34q21 0 38 -8t31.5 -19t28.5 -19t29 -8q17 0 27 15t10 38h64q0 -54 -26.5 -88
t-69.5 -34z" />
    <glyph glyph-name="ae" unicode="&#xe6;" horiz-adv-x="920" 
d="M647 -12q-71 0 -126 33t-86 92t-31 137t30.5 137t85 92t125.5 33q70 0 122.5 -32.5t82.5 -92t30 -139.5v-9l-15 -14h-417v73h388l-33 -14q-4 50 -26 84.5t-56 52.5t-76 18q-46 0 -84 -22.5t-60 -63.5t-22 -95v-13q0 -54 21.5 -95.5t59.5 -65t87 -23.5t84 23t55 63h11
l63 -28q-28 -60 -83.5 -95.5t-129.5 -35.5zM228 -12q-51 0 -91.5 20t-63.5 55t-23 81t22.5 80.5t63 54t93.5 19.5h219v-73h-206q-60 0 -87.5 -21.5t-27.5 -59.5q0 -36 29.5 -59.5t76.5 -23.5t86 21.5t62 58t23 81.5v81q0 60 -37 98.5t-100 38.5q-47 0 -81 -22.5t-48 -65.5
h-11l-66 24q24 67 78 102t129 35q103 0 157 -60.5t54 -171.5v-155h-73l40 14q-15 -45 -47 -79.5t-76 -53.5t-95 -19z" />
    <glyph glyph-name="b" unicode="b" horiz-adv-x="601" 
d="M325 -12q-51 0 -94 20.5t-74 57.5t-46 86v196q15 50 46 86.5t74 57t94 20.5q67 0 120 -34t84.5 -93t31.5 -135t-31.5 -135t-84.5 -93t-120 -34zM75 0v720l72 9l3 -8v-408l-14 -63l12 -63v-187h-73zM322 61q48 0 85 24t58 66.5t21 98.5t-21 98.5t-58 66.5t-85 24
q-49 0 -88 -24t-61.5 -66.5t-22.5 -98.5t22.5 -98.5t61.5 -66.5t88 -24z" />
    <glyph glyph-name="c" unicode="c" horiz-adv-x="555" 
d="M289 -12q-73 0 -129.5 33t-88 92t-31.5 137t31.5 137t88 92t129.5 33q56 0 101 -20.5t77.5 -58t48.5 -89.5l-67 -19h-11q-18 53 -57 83.5t-92 30.5t-92 -24t-60.5 -66.5t-21.5 -98.5q0 -55 21.5 -98t60.5 -67t92 -24q37 0 66.5 13.5t51.5 39t35 61.5h11l67 -19
q-18 -53 -51.5 -91t-78.5 -57.5t-101 -19.5z" />
    <glyph glyph-name="cacute" unicode="&#x107;" horiz-adv-x="555" 
d="M289 -12q-73 0 -129.5 33t-88 92t-31.5 137t31.5 137t88 92t129.5 33q56 0 101 -20.5t77.5 -58t48.5 -89.5l-67 -19h-11q-18 53 -57 83.5t-92 30.5t-92 -24t-60.5 -66.5t-21.5 -98.5q0 -55 21.5 -98t60.5 -67t92 -24q37 0 66.5 13.5t51.5 39t35 61.5h11l67 -19
q-18 -53 -51.5 -91t-78.5 -57.5t-101 -19.5zM231 581l75 145h100v-8l-101 -137h-74z" />
    <glyph glyph-name="ccaron" unicode="&#x10d;" horiz-adv-x="555" 
d="M289 -12q-73 0 -129.5 33t-88 92t-31.5 137t31.5 137t88 92t129.5 33q56 0 101 -20.5t77.5 -58t48.5 -89.5l-67 -19h-11q-18 53 -57 83.5t-92 30.5t-92 -24t-60.5 -66.5t-21.5 -98.5q0 -55 21.5 -98t60.5 -67t92 -24q37 0 66.5 13.5t51.5 39t35 61.5h11l67 -19
q-18 -53 -51.5 -91t-78.5 -57.5t-101 -19.5zM133 726h84l71 -88l71 88h85l-106 -145h-99z" />
    <glyph glyph-name="ccedilla" unicode="&#xe7;" horiz-adv-x="555" 
d="M289 -12q-73 0 -129.5 33t-88 92t-31.5 137t31.5 137t88 92t129.5 33q56 0 101 -20.5t77.5 -58t48.5 -89.5l-67 -19h-11q-18 53 -57 83.5t-92 30.5t-92 -24t-60.5 -66.5t-21.5 -98.5q0 -55 21.5 -98t60.5 -67t92 -24q37 0 66.5 13.5t51.5 39t35 61.5h11l67 -19
q-18 -53 -51.5 -91t-78.5 -57.5t-101 -19.5zM277 -205q-12 0 -26 3.5t-30 13.5l16 48l9 2q8 -4 15.5 -6t12.5 -2q16 0 25.5 8.5t9.5 20.5q0 14 -9.5 22.5t-24.5 8.5t-25 -8l-28 40l46 67h71l-65 -87l-7 38q5 1 10 1.5t10 0.5q35 0 59 -24t24 -59q0 -38 -27.5 -63t-65.5 -25z
" />
    <glyph glyph-name="cdotaccent" unicode="&#x10b;" horiz-adv-x="555" 
d="M289 -12q-73 0 -129.5 33t-88 92t-31.5 137t31.5 137t88 92t129.5 33q56 0 101 -20.5t77.5 -58t48.5 -89.5l-67 -19h-11q-18 53 -57 83.5t-92 30.5t-92 -24t-60.5 -66.5t-21.5 -98.5q0 -55 21.5 -98t60.5 -67t92 -24q37 0 66.5 13.5t51.5 39t35 61.5h11l67 -19
q-18 -53 -51.5 -91t-78.5 -57.5t-101 -19.5zM289 598q-23 0 -39 16t-16 39t16 39t39 16t39 -16t16 -39t-16 -39t-39 -16z" />
    <glyph glyph-name="d" unicode="d" horiz-adv-x="601" 
d="M276 -12q-66 0 -119.5 34t-85 93t-31.5 135t31.5 135t85 93t119.5 34q51 0 94 -20.5t74 -57t46 -86.5v-196q-15 -49 -46 -86t-74 -57.5t-94 -20.5zM279 61q50 0 88.5 24t61 66.5t22.5 98.5t-22.5 98.5t-61 66.5t-88.5 24q-47 0 -84.5 -24t-58.5 -66.5t-21 -98.5t21 -98.5
t58.5 -66.5t84.5 -24zM453 0v187l12 63l-14 63v407l72 9l3 -8v-721h-73z" />
    <glyph glyph-name="dcaron" unicode="&#x10f;" horiz-adv-x="601" 
d="M276 -12q-66 0 -119.5 34t-85 93t-31.5 135t31.5 135t85 93t119.5 34q51 0 94 -20.5t74 -57t46 -86.5v-196q-15 -49 -46 -86t-74 -57.5t-94 -20.5zM279 61q50 0 88.5 24t61 66.5t22.5 98.5t-22.5 98.5t-61 66.5t-88.5 24q-47 0 -84.5 -24t-58.5 -66.5t-21 -98.5t21 -98.5
t58.5 -66.5t84.5 -24zM453 0v187l12 63l-14 63v407l72 9l3 -8v-721h-73zM568 536l20 184h83l-41 -184h-62z" />
    <glyph glyph-name="dcroat" unicode="&#x111;" horiz-adv-x="601" 
d="M276 -12q-66 0 -119.5 34t-85 93t-31.5 135t31.5 135t85 93t119.5 34q51 0 94 -20.5t74 -57t46 -86.5v-196q-15 -49 -46 -86t-74 -57.5t-94 -20.5zM279 61q50 0 88.5 24t61 66.5t22.5 98.5t-22.5 98.5t-61 66.5t-88.5 24q-47 0 -84.5 -24t-58.5 -66.5t-21 -98.5t21 -98.5
t58.5 -66.5t84.5 -24zM453 0v187l12 63l-14 63v407l72 9l3 -8v-721h-73zM305 568v73h296v-73h-296z" />
    <glyph glyph-name="eth" unicode="&#xf0;" horiz-adv-x="577" 
d="M283 -12q-71 0 -126 31.5t-86 87.5t-31 130q0 69 31 124t84 87.5t118 32.5q29 0 56 -7t52.5 -19.5t47 -30t38.5 -39.5l-19 -29q-11 48 -38.5 93.5t-69 85t-95.5 71t-117 53.5l29 66q90 -33 160 -79.5t117.5 -104t72.5 -124.5t25 -142q0 -88 -33 -152.5t-89.5 -99.5
t-126.5 -35zM283 61q49 0 86.5 21.5t59.5 61.5t22 93q0 49 -23 87.5t-62.5 61t-89.5 22.5q-46 0 -82.5 -22.5t-57.5 -61t-21 -87.5q0 -53 22 -93t60 -61.5t86 -21.5zM157 503l-29 66l305 137l29 -66z" />
    <glyph glyph-name="e" unicode="e" horiz-adv-x="556" 
d="M283 -12q-71 0 -126 33t-86 92t-31 137t30.5 137t85 92t125.5 33q70 0 122.5 -33.5t82.5 -94t30 -140.5v-9l-15 -14h-417v73h388l-33 -14q-4 50 -26 85.5t-56 54.5t-76 19q-46 0 -84 -22.5t-60 -63.5t-22 -95v-13q0 -54 21.5 -95.5t59.5 -65t87 -23.5t84 23t55 63h11
l63 -28q-28 -60 -83.5 -95.5t-129.5 -35.5z" />
    <glyph glyph-name="eacute" unicode="&#xe9;" horiz-adv-x="556" 
d="M283 -12q-71 0 -126 33t-86 92t-31 137t30.5 137t85 92t125.5 33q70 0 122.5 -33.5t82.5 -94t30 -140.5v-9l-15 -14h-417v73h388l-33 -14q-4 50 -26 85.5t-56 54.5t-76 19q-46 0 -84 -22.5t-60 -63.5t-22 -95v-13q0 -54 21.5 -95.5t59.5 -65t87 -23.5t84 23t55 63h11
l63 -28q-28 -60 -83.5 -95.5t-129.5 -35.5zM223 581l75 145h100v-8l-101 -137h-74z" />
    <glyph glyph-name="ecaron" unicode="&#x11b;" horiz-adv-x="556" 
d="M283 -12q-71 0 -126 33t-86 92t-31 137t30.5 137t85 92t125.5 33q70 0 122.5 -33.5t82.5 -94t30 -140.5v-9l-15 -14h-417v73h388l-33 -14q-4 50 -26 85.5t-56 54.5t-76 19q-46 0 -84 -22.5t-60 -63.5t-22 -95v-13q0 -54 21.5 -95.5t59.5 -65t87 -23.5t84 23t55 63h11
l63 -28q-28 -60 -83.5 -95.5t-129.5 -35.5zM125 726h84l71 -88l71 88h85l-106 -145h-99z" />
    <glyph glyph-name="ecircumflex" unicode="&#xea;" horiz-adv-x="556" 
d="M283 -12q-71 0 -126 33t-86 92t-31 137t30.5 137t85 92t125.5 33q70 0 122.5 -33.5t82.5 -94t30 -140.5v-9l-15 -14h-417v73h388l-33 -14q-4 50 -26 85.5t-56 54.5t-76 19q-46 0 -84 -22.5t-60 -63.5t-22 -95v-13q0 -54 21.5 -95.5t59.5 -65t87 -23.5t84 23t55 63h11
l63 -28q-28 -60 -83.5 -95.5t-129.5 -35.5zM125 581l106 145h99l106 -145h-85l-71 88l-71 -88h-84z" />
    <glyph glyph-name="edieresis" unicode="&#xeb;" horiz-adv-x="556" 
d="M283 -12q-71 0 -126 33t-86 92t-31 137t30.5 137t85 92t125.5 33q70 0 122.5 -33.5t82.5 -94t30 -140.5v-9l-15 -14h-417v73h388l-33 -14q-4 50 -26 85.5t-56 54.5t-76 19q-46 0 -84 -22.5t-60 -63.5t-22 -95v-13q0 -54 21.5 -95.5t59.5 -65t87 -23.5t84 23t55 63h11
l63 -28q-28 -60 -83.5 -95.5t-129.5 -35.5zM372 598q-23 0 -39 16t-16 39t16 39t39 16t39 -16t16 -39t-16 -39t-39 -16zM190 598q-23 0 -39 16t-16 39t16 39t39 16t39 -16t16 -39t-16 -39t-39 -16z" />
    <glyph glyph-name="edotaccent" unicode="&#x117;" horiz-adv-x="556" 
d="M283 -12q-71 0 -126 33t-86 92t-31 137t30.5 137t85 92t125.5 33q70 0 122.5 -33.5t82.5 -94t30 -140.5v-9l-15 -14h-417v73h388l-33 -14q-4 50 -26 85.5t-56 54.5t-76 19q-46 0 -84 -22.5t-60 -63.5t-22 -95v-13q0 -54 21.5 -95.5t59.5 -65t87 -23.5t84 23t55 63h11
l63 -28q-28 -60 -83.5 -95.5t-129.5 -35.5zM281 598q-23 0 -39 16t-16 39t16 39t39 16t39 -16t16 -39t-16 -39t-39 -16z" />
    <glyph glyph-name="egrave" unicode="&#xe8;" horiz-adv-x="556" 
d="M283 -12q-71 0 -126 33t-86 92t-31 137t30.5 137t85 92t125.5 33q70 0 122.5 -33.5t82.5 -94t30 -140.5v-9l-15 -14h-417v73h388l-33 -14q-4 50 -26 85.5t-56 54.5t-76 19q-46 0 -84 -22.5t-60 -63.5t-22 -95v-13q0 -54 21.5 -95.5t59.5 -65t87 -23.5t84 23t55 63h11
l63 -28q-28 -60 -83.5 -95.5t-129.5 -35.5zM331 581h-74l-101 137v8h100z" />
    <glyph glyph-name="emacron" unicode="&#x113;" horiz-adv-x="556" 
d="M283 -12q-71 0 -126 33t-86 92t-31 137t30.5 137t85 92t125.5 33q70 0 122.5 -33.5t82.5 -94t30 -140.5v-9l-15 -14h-417v73h388l-33 -14q-4 50 -26 85.5t-56 54.5t-76 19q-46 0 -84 -22.5t-60 -63.5t-22 -95v-13q0 -54 21.5 -95.5t59.5 -65t87 -23.5t84 23t55 63h11
l63 -28q-28 -60 -83.5 -95.5t-129.5 -35.5zM128 617v73h306v-73h-306z" />
    <glyph glyph-name="eogonek" unicode="&#x119;" horiz-adv-x="556" 
d="M283 -12q-71 0 -126 33t-86 92t-31 137t30.5 137t85 92t125.5 33q70 0 122.5 -33.5t82.5 -94t30 -140.5v-9l-15 -14h-417v73h388l-33 -14q-4 50 -26 85.5t-56 54.5t-76 19q-46 0 -84 -22.5t-60 -63.5t-22 -95v-13q0 -54 21.5 -95.5t59.5 -65t87 -23.5t84 23t55 63h11
l63 -28q-28 -60 -83.5 -95.5t-129.5 -35.5zM319 -205q-49 0 -78.5 27.5t-29.5 73.5q0 43 27 77.5t81 62.5l42 -36q-38 -20 -58.5 -43.5t-20.5 -46.5q0 -21 13.5 -34t35.5 -13q14 0 25 4l5 -11v-56q-12 -2 -22 -3.5t-20 -1.5z" />
    <glyph glyph-name="f" unicode="f" horiz-adv-x="328" 
d="M111 0v572q0 68 40 108t102 40h55v-62l-5 -11h-37q-43 0 -61.5 -18t-18.5 -62v-567h-75zM25 427v73h283v-73h-283z" />
    <glyph glyph-name="g" unicode="g" horiz-adv-x="520" 
d="M234 -200q-97 0 -150.5 40t-53.5 108q0 42 20.5 75t60.5 51l39 -41q-22 -10 -34.5 -29.5t-12.5 -42.5q0 -40 33.5 -65.5t91.5 -25.5h69q60 0 95 21t35 61q0 29 -22.5 46t-66.5 17h-139q-39 0 -70.5 14t-50 39t-18.5 59q0 32 18.5 59.5t60.5 42.5l41 -39q-27 -6 -38 -21
t-11 -34q0 -25 19.5 -38.5t52.5 -13.5h135q74 0 117.5 -36.5t43.5 -95.5q0 -70 -55 -110.5t-147 -40.5h-63zM268 156q-58 0 -102.5 22.5t-69.5 63t-25 92.5q0 53 25 93t69.5 62.5t102.5 22.5q59 0 103 -22.5t69 -62.5t25 -93q0 -52 -25 -92.5t-69 -63t-103 -22.5zM268 224
q56 0 90.5 30.5t34.5 79.5t-34.5 79.5t-90.5 30.5t-90.5 -30.5t-34.5 -79.5t34.5 -79.5t90.5 -30.5zM402 440l-50 35q0 38 16 67.5t42.5 46.5t59.5 17q7 0 16 -0.5t14 -2.5v-70l-5 -11q-10 3 -23 3q-35 0 -52.5 -23.5t-17.5 -61.5z" />
    <glyph glyph-name="gbreve" unicode="&#x11f;" horiz-adv-x="520" 
d="M234 -200q-97 0 -150.5 40t-53.5 108q0 42 20.5 75t60.5 51l39 -41q-22 -10 -34.5 -29.5t-12.5 -42.5q0 -40 33.5 -65.5t91.5 -25.5h69q60 0 95 21t35 61q0 29 -22.5 46t-66.5 17h-139q-39 0 -70.5 14t-50 39t-18.5 59q0 32 18.5 59.5t60.5 42.5l41 -39q-27 -6 -38 -21
t-11 -34q0 -25 19.5 -38.5t52.5 -13.5h135q74 0 117.5 -36.5t43.5 -95.5q0 -70 -55 -110.5t-147 -40.5h-63zM268 156q-58 0 -102.5 22.5t-69.5 63t-25 92.5q0 53 25 93t69.5 62.5t102.5 22.5q59 0 103 -22.5t69 -62.5t25 -93q0 -52 -25 -92.5t-69 -63t-103 -22.5zM268 224
q56 0 90.5 30.5t34.5 79.5t-34.5 79.5t-90.5 30.5t-90.5 -30.5t-34.5 -79.5t34.5 -79.5t90.5 -30.5zM402 440l-50 35q0 38 16 67.5t42.5 46.5t59.5 17q7 0 16 -0.5t14 -2.5v-70l-5 -11q-10 3 -23 3q-35 0 -52.5 -23.5t-17.5 -61.5zM262 579q-41 0 -74 18.5t-52 52t-19 76.5
h71q1 -36 22 -60.5t52 -24.5q32 0 53 24.5t22 60.5h71q0 -43 -19 -76.5t-52 -52t-75 -18.5z" />
    <glyph glyph-name="uni0123" unicode="&#x123;" horiz-adv-x="520" 
d="M234 -200q-97 0 -150.5 40t-53.5 108q0 42 20.5 75t60.5 51l39 -41q-22 -10 -34.5 -29.5t-12.5 -42.5q0 -40 33.5 -65.5t91.5 -25.5h69q60 0 95 21t35 61q0 29 -22.5 46t-66.5 17h-139q-39 0 -70.5 14t-50 39t-18.5 59q0 32 18.5 59.5t60.5 42.5l41 -39q-27 -6 -38 -21
t-11 -34q0 -25 19.5 -38.5t52.5 -13.5h135q74 0 117.5 -36.5t43.5 -95.5q0 -70 -55 -110.5t-147 -40.5h-63zM268 156q-58 0 -102.5 22.5t-69.5 63t-25 92.5q0 53 25 93t69.5 62.5t102.5 22.5q59 0 103 -22.5t69 -62.5t25 -93q0 -52 -25 -92.5t-69 -63t-103 -22.5zM268 224
q56 0 90.5 30.5t34.5 79.5t-34.5 79.5t-90.5 30.5t-90.5 -30.5t-34.5 -79.5t34.5 -79.5t90.5 -30.5zM402 440l-50 35q0 38 16 67.5t42.5 46.5t59.5 17q7 0 16 -0.5t14 -2.5v-70l-5 -11q-10 3 -23 3q-35 0 -52.5 -23.5t-17.5 -61.5zM308 762v-49q-23 -5 -36 -19t-13 -32
q0 -16 4 -25l-31 -18q-3 11 -3 20q0 15 8 22.5t17 9.5t13 2q22 0 36.5 -14.5t14.5 -35.5q0 -22 -14.5 -37t-36.5 -15q-28 0 -43.5 24t-15.5 54q0 21 10 45t32 43.5t58 24.5z" />
    <glyph glyph-name="gdotaccent" unicode="&#x121;" horiz-adv-x="520" 
d="M234 -200q-97 0 -150.5 40t-53.5 108q0 42 20.5 75t60.5 51l39 -41q-22 -10 -34.5 -29.5t-12.5 -42.5q0 -40 33.5 -65.5t91.5 -25.5h69q60 0 95 21t35 61q0 29 -22.5 46t-66.5 17h-139q-39 0 -70.5 14t-50 39t-18.5 59q0 32 18.5 59.5t60.5 42.5l41 -39q-27 -6 -38 -21
t-11 -34q0 -25 19.5 -38.5t52.5 -13.5h135q74 0 117.5 -36.5t43.5 -95.5q0 -70 -55 -110.5t-147 -40.5h-63zM268 156q-58 0 -102.5 22.5t-69.5 63t-25 92.5q0 53 25 93t69.5 62.5t102.5 22.5q59 0 103 -22.5t69 -62.5t25 -93q0 -52 -25 -92.5t-69 -63t-103 -22.5zM268 224
q56 0 90.5 30.5t34.5 79.5t-34.5 79.5t-90.5 30.5t-90.5 -30.5t-34.5 -79.5t34.5 -79.5t90.5 -30.5zM402 440l-50 35q0 38 16 67.5t42.5 46.5t59.5 17q7 0 16 -0.5t14 -2.5v-70l-5 -11q-10 3 -23 3q-35 0 -52.5 -23.5t-17.5 -61.5zM263 598q-23 0 -39 16t-16 39t16 39t39 16
t39 -16t16 -39t-16 -39t-39 -16z" />
    <glyph glyph-name="h" unicode="h" horiz-adv-x="576" 
d="M75 0v720l72 9l3 -8v-366l-24 19q13 42 43 73t70.5 48t86.5 17q54 0 96 -23t65.5 -68t23.5 -112v-309h-75v292q0 57 -17 88.5t-45.5 44.5t-64.5 13q-41 0 -77.5 -20t-59 -57.5t-22.5 -90.5v-270h-75z" />
    <glyph glyph-name="hbar" unicode="&#x127;" horiz-adv-x="576" 
d="M75 0v720l72 9l3 -8v-366l-24 19q13 42 43 73t70.5 48t86.5 17q54 0 96 -23t65.5 -68t23.5 -112v-309h-75v292q0 57 -17 88.5t-45.5 44.5t-64.5 13q-41 0 -77.5 -20t-59 -57.5t-22.5 -90.5v-270h-75zM3 568v73h296v-73h-296z" />
    <glyph glyph-name="i" unicode="i" horiz-adv-x="215" 
d="M70 0v500h75v-500h-75zM108 598q-23 0 -39 16t-16 39t16 39t39 16t39 -16t16 -39t-16 -39t-39 -16z" />
    <glyph glyph-name="dotlessi" unicode="&#x131;" horiz-adv-x="215" 
d="M70 0v500h75v-500h-75z" />
    <glyph glyph-name="iacute" unicode="&#xed;" horiz-adv-x="215" 
d="M70 0v500h75v-500h-75zM66 581l75 145h100v-8l-101 -137h-74z" />
    <glyph glyph-name="icircumflex" unicode="&#xee;" horiz-adv-x="215" 
d="M70 0v500h75v-500h-75zM-48 581l106 145h99l106 -145h-85l-71 88l-71 -88h-84z" />
    <glyph glyph-name="idieresis" unicode="&#xef;" horiz-adv-x="215" 
d="M70 0v500h75v-500h-75zM181 598q-23 0 -39 16t-16 39t16 39t39 16t39 -16t16 -39t-16 -39t-39 -16zM35 598q-23 0 -39 16t-16 39t16 39t39 16t39 -16t16 -39t-16 -39t-39 -16z" />
    <glyph glyph-name="igrave" unicode="&#xec;" horiz-adv-x="215" 
d="M70 0v500h75v-500h-75zM135 581h-74l-101 137v8h100z" />
    <glyph glyph-name="imacron" unicode="&#x12b;" horiz-adv-x="215" 
d="M70 0v500h75v-500h-75zM-45 617v73h306v-73h-306z" />
    <glyph glyph-name="iogonek" unicode="&#x12f;" horiz-adv-x="215" 
d="M70 0v500h75v-500h-75zM108 598q-23 0 -39 16t-16 39t16 39t39 16t39 -16t16 -39t-16 -39t-39 -16zM103 -205q-49 0 -78.5 27.5t-29.5 73.5q0 43 27 77.5t81 62.5l42 -36q-38 -20 -58.5 -43.5t-20.5 -46.5q0 -21 13.5 -34t35.5 -13q14 0 25 4l5 -11v-56q-12 -2 -22 -3.5
t-20 -1.5z" />
    <glyph glyph-name="j" unicode="j" horiz-adv-x="215" 
d="M-59 -200v62l5 11h21q56 0 79.5 23t23.5 80v524h75v-530q0 -78 -46 -124t-117 -46h-41zM108 598q-23 0 -39 16t-16 39t16 39t39 16t39 -16t16 -39t-16 -39t-39 -16z" />
    <glyph glyph-name="uni0237" unicode="&#x237;" horiz-adv-x="215" 
d="M-59 -200v62l5 11h21q56 0 79.5 23t23.5 80v524h75v-530q0 -78 -46 -124t-117 -46h-41z" />
    <glyph glyph-name="k" unicode="k" horiz-adv-x="502" 
d="M105 103v99l308 298h89v-8zM75 0v720l72 9l3 -8v-721h-75zM419 0l-185 261l49 50l219 -303v-8h-83z" />
    <glyph glyph-name="uni0137" unicode="&#x137;" horiz-adv-x="502" 
d="M105 103v99l308 298h89v-8zM75 0v720l72 9l3 -8v-721h-75zM419 0l-185 261l49 50l219 -303v-8h-83zM238 -223v49q23 5 36 19t13 32q0 16 -4 25l31 18q3 -10 3 -20q0 -15 -8 -22t-17 -9.5t-13 -2.5q-22 0 -36.5 14.5t-14.5 35.5q0 22 14.5 37t36.5 15q28 0 43.5 -24
t15.5 -54q0 -21 -10 -45t-31.5 -43t-58.5 -25z" />
    <glyph glyph-name="l" unicode="l" horiz-adv-x="225" 
d="M75 0v720l72 9l3 -8v-721h-75z" />
    <glyph glyph-name="lacute" unicode="&#x13a;" horiz-adv-x="225" 
d="M75 0v720l72 9l3 -8v-721h-75zM76 771l75 145h100v-8l-101 -137h-74z" />
    <glyph glyph-name="lcaron" unicode="&#x13e;" horiz-adv-x="225" 
d="M75 0v720l72 9l3 -8v-721h-75zM192 536l20 184h83l-41 -184h-62z" />
    <glyph glyph-name="uni013C" unicode="&#x13c;" horiz-adv-x="225" 
d="M75 0v720l72 9l3 -8v-721h-75zM68 -223v49q23 5 36 19t13 32q0 16 -4 25l31 18q3 -10 3 -20q0 -15 -8 -22t-17 -9.5t-13 -2.5q-22 0 -36.5 14.5t-14.5 35.5q0 22 14.5 37t36.5 15q28 0 43.5 -24t15.5 -54q0 -21 -10 -45t-31.5 -43t-58.5 -25z" />
    <glyph glyph-name="ldot" unicode="&#x140;" horiz-adv-x="275" 
d="M75 0v720l72 9l3 -8v-721h-75zM250 321q-23 0 -39 16t-16 39t16 39t39 16t39 -16t16 -39t-16 -39t-39 -16z" />
    <glyph glyph-name="lslash" unicode="&#x142;" horiz-adv-x="255" 
d="M17 238v86l221 138v-86zM90 0v720l72 9l3 -8v-721h-75z" />
    <glyph glyph-name="m" unicode="m" horiz-adv-x="912" 
d="M70 0v500h73v-145l-22 19q13 42 43 73t70 48t82 17q66 0 113.5 -37.5t61.5 -108.5h-34q12 44 42 76.5t73.5 51t94.5 18.5q52 0 92.5 -23t64 -68t23.5 -112v-309h-75v292q0 57 -17 88.5t-44.5 44.5t-60.5 13q-36 0 -71.5 -19t-59 -56.5t-23.5 -92.5v-270h-75v292
q0 57 -17 88.5t-44.5 44.5t-60.5 13q-36 0 -71.5 -19.5t-59 -57t-23.5 -91.5v-270h-75z" />
    <glyph glyph-name="n" unicode="n" horiz-adv-x="571" 
d="M70 0v500h73v-145l-22 19q13 42 43 73t70.5 48t86.5 17q54 0 96 -23t65.5 -68t23.5 -112v-309h-75v292q0 57 -17 88.5t-45.5 44.5t-64.5 13q-41 0 -77.5 -20t-59 -57.5t-22.5 -90.5v-270h-75z" />
    <glyph glyph-name="nacute" unicode="&#x144;" horiz-adv-x="571" 
d="M70 0v500h73v-145l-22 19q13 42 43 73t70.5 48t86.5 17q54 0 96 -23t65.5 -68t23.5 -112v-309h-75v292q0 57 -17 88.5t-45.5 44.5t-64.5 13q-41 0 -77.5 -20t-59 -57.5t-22.5 -90.5v-270h-75zM225 581l75 145h100v-8l-101 -137h-74z" />
    <glyph glyph-name="ncaron" unicode="&#x148;" horiz-adv-x="571" 
d="M70 0v500h73v-145l-22 19q13 42 43 73t70.5 48t86.5 17q54 0 96 -23t65.5 -68t23.5 -112v-309h-75v292q0 57 -17 88.5t-45.5 44.5t-64.5 13q-41 0 -77.5 -20t-59 -57.5t-22.5 -90.5v-270h-75zM127 726h84l71 -88l71 88h85l-106 -145h-99z" />
    <glyph glyph-name="uni0146" unicode="&#x146;" horiz-adv-x="571" 
d="M70 0v500h73v-145l-22 19q13 42 43 73t70.5 48t86.5 17q54 0 96 -23t65.5 -68t23.5 -112v-309h-75v292q0 57 -17 88.5t-45.5 44.5t-64.5 13q-41 0 -77.5 -20t-59 -57.5t-22.5 -90.5v-270h-75zM238 -223v49q23 5 36 19t13 32q0 16 -4 25l31 18q3 -10 3 -20q0 -15 -8 -22
t-17 -9.5t-13 -2.5q-22 0 -36.5 14.5t-14.5 35.5q0 22 14.5 37t36.5 15q28 0 43.5 -24t15.5 -54q0 -21 -10 -45t-31.5 -43t-58.5 -25z" />
    <glyph glyph-name="ntilde" unicode="&#xf1;" horiz-adv-x="571" 
d="M70 0v500h73v-145l-22 19q13 42 43 73t70.5 48t86.5 17q54 0 96 -23t65.5 -68t23.5 -112v-309h-75v292q0 57 -17 88.5t-45.5 44.5t-64.5 13q-41 0 -77.5 -20t-59 -57.5t-22.5 -90.5v-270h-75zM349 592q-21 0 -38 8t-31.5 19t-28.5 19t-29 8q-17 0 -27 -15t-10 -38h-64
q0 54 26.5 88t69.5 34q21 0 38 -8t31.5 -19t28.5 -19t29 -8q17 0 27 15t10 38h64q0 -54 -26.5 -88t-69.5 -34z" />
    <glyph glyph-name="eng" unicode="&#x14b;" horiz-adv-x="571" 
d="M302 -200v62l5 11h21q56 0 79.5 23t23.5 80v316q0 57 -17 88.5t-45.5 44.5t-64.5 13q-41 0 -77.5 -20t-59 -57.5t-22.5 -90.5v-270h-75v500h73v-145l-22 19q13 42 43 73t70.5 48t86.5 17q54 0 96 -23t65.5 -68t23.5 -112v-339q0 -78 -46 -124t-117 -46h-41z" />
    <glyph glyph-name="o" unicode="o" horiz-adv-x="572" 
d="M286 -12q-72 0 -127.5 33t-87 92t-31.5 137t31.5 137t87 92t127.5 33q73 0 128 -33t86.5 -92t31.5 -137t-31.5 -137t-86.5 -92t-128 -33zM286 61q50 0 88.5 23.5t60.5 66t22 99.5q0 58 -22 100t-60.5 65.5t-88.5 23.5t-88.5 -23.5t-60.5 -65.5t-22 -100q0 -57 22 -99.5
t60.5 -66t88.5 -23.5z" />
    <glyph glyph-name="oacute" unicode="&#xf3;" horiz-adv-x="572" 
d="M286 -12q-72 0 -127.5 33t-87 92t-31.5 137t31.5 137t87 92t127.5 33q73 0 128 -33t86.5 -92t31.5 -137t-31.5 -137t-86.5 -92t-128 -33zM286 61q50 0 88.5 23.5t60.5 66t22 99.5q0 58 -22 100t-60.5 65.5t-88.5 23.5t-88.5 -23.5t-60.5 -65.5t-22 -100q0 -57 22 -99.5
t60.5 -66t88.5 -23.5zM228 581l75 145h100v-8l-101 -137h-74z" />
    <glyph glyph-name="ocircumflex" unicode="&#xf4;" horiz-adv-x="572" 
d="M286 -12q-72 0 -127.5 33t-87 92t-31.5 137t31.5 137t87 92t127.5 33q73 0 128 -33t86.5 -92t31.5 -137t-31.5 -137t-86.5 -92t-128 -33zM286 61q50 0 88.5 23.5t60.5 66t22 99.5q0 58 -22 100t-60.5 65.5t-88.5 23.5t-88.5 -23.5t-60.5 -65.5t-22 -100q0 -57 22 -99.5
t60.5 -66t88.5 -23.5zM130 581l106 145h99l106 -145h-85l-71 88l-71 -88h-84z" />
    <glyph glyph-name="odieresis" unicode="&#xf6;" horiz-adv-x="572" 
d="M286 -12q-72 0 -127.5 33t-87 92t-31.5 137t31.5 137t87 92t127.5 33q73 0 128 -33t86.5 -92t31.5 -137t-31.5 -137t-86.5 -92t-128 -33zM286 61q50 0 88.5 23.5t60.5 66t22 99.5q0 58 -22 100t-60.5 65.5t-88.5 23.5t-88.5 -23.5t-60.5 -65.5t-22 -100q0 -57 22 -99.5
t60.5 -66t88.5 -23.5zM377 598q-23 0 -39 16t-16 39t16 39t39 16t39 -16t16 -39t-16 -39t-39 -16zM195 598q-23 0 -39 16t-16 39t16 39t39 16t39 -16t16 -39t-16 -39t-39 -16z" />
    <glyph glyph-name="ograve" unicode="&#xf2;" horiz-adv-x="572" 
d="M286 -12q-72 0 -127.5 33t-87 92t-31.5 137t31.5 137t87 92t127.5 33q73 0 128 -33t86.5 -92t31.5 -137t-31.5 -137t-86.5 -92t-128 -33zM286 61q50 0 88.5 23.5t60.5 66t22 99.5q0 58 -22 100t-60.5 65.5t-88.5 23.5t-88.5 -23.5t-60.5 -65.5t-22 -100q0 -57 22 -99.5
t60.5 -66t88.5 -23.5zM336 581h-74l-101 137v8h100z" />
    <glyph glyph-name="ohungarumlaut" unicode="&#x151;" horiz-adv-x="572" 
d="M286 -12q-72 0 -127.5 33t-87 92t-31.5 137t31.5 137t87 92t127.5 33q73 0 128 -33t86.5 -92t31.5 -137t-31.5 -137t-86.5 -92t-128 -33zM286 61q50 0 88.5 23.5t60.5 66t22 99.5q0 58 -22 100t-60.5 65.5t-88.5 23.5t-88.5 -23.5t-60.5 -65.5t-22 -100q0 -57 22 -99.5
t60.5 -66t88.5 -23.5zM298 581l60 145h100v-8l-86 -137h-74zM162 581l60 145h100v-8l-86 -137h-74z" />
    <glyph glyph-name="omacron" unicode="&#x14d;" horiz-adv-x="572" 
d="M286 -12q-72 0 -127.5 33t-87 92t-31.5 137t31.5 137t87 92t127.5 33q73 0 128 -33t86.5 -92t31.5 -137t-31.5 -137t-86.5 -92t-128 -33zM286 61q50 0 88.5 23.5t60.5 66t22 99.5q0 58 -22 100t-60.5 65.5t-88.5 23.5t-88.5 -23.5t-60.5 -65.5t-22 -100q0 -57 22 -99.5
t60.5 -66t88.5 -23.5zM133 617v73h306v-73h-306z" />
    <glyph glyph-name="oslash" unicode="&#xf8;" horiz-adv-x="572" 
d="M139 -78l-62 36l357 619l62 -36zM286 -12q-72 0 -127.5 33t-87 92t-31.5 137t31.5 137t87 92t127.5 33q73 0 128 -33t86.5 -92t31.5 -137t-31.5 -137t-86.5 -92t-128 -33zM286 61q50 0 88.5 23.5t60.5 66t22 99.5q0 58 -22 100t-60.5 65.5t-88.5 23.5t-88.5 -23.5
t-60.5 -65.5t-22 -100q0 -57 22 -99.5t60.5 -66t88.5 -23.5z" />
    <glyph glyph-name="otilde" unicode="&#xf5;" horiz-adv-x="572" 
d="M286 -12q-72 0 -127.5 33t-87 92t-31.5 137t31.5 137t87 92t127.5 33q73 0 128 -33t86.5 -92t31.5 -137t-31.5 -137t-86.5 -92t-128 -33zM286 61q50 0 88.5 23.5t60.5 66t22 99.5q0 58 -22 100t-60.5 65.5t-88.5 23.5t-88.5 -23.5t-60.5 -65.5t-22 -100q0 -57 22 -99.5
t60.5 -66t88.5 -23.5zM352 592q-21 0 -38 8t-31.5 19t-28.5 19t-29 8q-17 0 -27 -15t-10 -38h-64q0 54 26.5 88t69.5 34q21 0 38 -8t31.5 -19t28.5 -19t29 -8q17 0 27 15t10 38h64q0 -54 -26.5 -88t-69.5 -34z" />
    <glyph glyph-name="oe" unicode="&#x153;" horiz-adv-x="973" 
d="M286 -12q-72 0 -127.5 33t-87 92t-31.5 137t31.5 137t87 92t127.5 33q73 0 128 -33t86.5 -92t31.5 -137t-31.5 -137t-86.5 -92t-128 -33zM286 61q50 0 88.5 23.5t60.5 66t22 99.5q0 58 -22 100t-60.5 65.5t-88.5 23.5t-88.5 -23.5t-60.5 -65.5t-22 -100q0 -57 22 -99.5
t60.5 -66t88.5 -23.5zM700 -12q-71 0 -126 33t-86 92t-31 137t30.5 137t85 92t125.5 33q70 0 122.5 -33.5t82.5 -94t30 -140.5v-9l-15 -14h-417v73h388l-33 -14q-4 50 -26 85.5t-56 54.5t-76 19q-46 0 -84 -22.5t-60 -63.5t-22 -95v-13q0 -54 21.5 -95.5t59.5 -65t87 -23.5
t84 23t55 63h11l63 -28q-28 -60 -83.5 -95.5t-129.5 -35.5z" />
    <glyph glyph-name="p" unicode="p" horiz-adv-x="596" 
d="M320 -12q-51 0 -94 20.5t-74 57.5t-46 86v196q15 50 46 86.5t74 57t94 20.5q67 0 120 -34t84.5 -93t31.5 -135t-31.5 -135t-84.5 -93t-120 -34zM70 -200v700h73v-187l-12 -63l14 -63v-387h-75zM317 61q48 0 85 24t58 66.5t21 98.5t-21 98.5t-58 66.5t-85 24
q-49 0 -88 -24t-61.5 -66.5t-22.5 -98.5t22.5 -98.5t61.5 -66.5t88 -24z" />
    <glyph glyph-name="thorn" unicode="&#xfe;" horiz-adv-x="596" 
d="M320 -12q-51 0 -94 20.5t-74 57.5t-46 86v196q15 50 46 86.5t74 57t94 20.5q67 0 120 -34t84.5 -93t31.5 -135t-31.5 -135t-84.5 -93t-120 -34zM70 -200v920l72 9l3 -8v-408l-14 -63l14 -63v-387h-75zM317 61q48 0 85 24t58 66.5t21 98.5t-21 98.5t-58 66.5t-85 24
q-49 0 -88 -24t-61.5 -66.5t-22.5 -98.5t22.5 -98.5t61.5 -66.5t88 -24z" />
    <glyph glyph-name="q" unicode="q" horiz-adv-x="596" 
d="M276 -12q-66 0 -119.5 34t-85 93t-31.5 135t31.5 135t85 93t119.5 34q51 0 94 -20.5t74 -57t46 -86.5v-196q-15 -49 -46 -86t-74 -57.5t-94 -20.5zM526 -200h-75v387l14 63l-12 63v187h73v-700zM279 61q50 0 88.5 24t61 66.5t22.5 98.5t-22.5 98.5t-61 66.5t-88.5 24
q-47 0 -84.5 -24t-58.5 -66.5t-21 -98.5t21 -98.5t58.5 -66.5t84.5 -24z" />
    <glyph glyph-name="r" unicode="r" horiz-adv-x="358" 
d="M70 0v500h73v-145l-22 19q17 58 65.5 92t109.5 34h52v-73h-64q-41 0 -72.5 -20t-49 -55t-17.5 -82v-270h-75z" />
    <glyph glyph-name="racute" unicode="&#x155;" horiz-adv-x="358" 
d="M70 0v500h73v-145l-22 19q17 58 65.5 92t109.5 34h52v-73h-64q-41 0 -72.5 -20t-49 -55t-17.5 -82v-270h-75zM126 581l75 145h100v-8l-101 -137h-74z" />
    <glyph glyph-name="rcaron" unicode="&#x159;" horiz-adv-x="358" 
d="M70 0v500h73v-145l-22 19q17 58 65.5 92t109.5 34h52v-73h-64q-41 0 -72.5 -20t-49 -55t-17.5 -82v-270h-75zM28 726h84l71 -88l71 88h85l-106 -145h-99z" />
    <glyph glyph-name="uni0157" unicode="&#x157;" horiz-adv-x="358" 
d="M70 0v500h73v-145l-22 19q17 58 65.5 92t109.5 34h52v-73h-64q-41 0 -72.5 -20t-49 -55t-17.5 -82v-270h-75zM62 -223v49q23 5 36 19t13 32q0 16 -4 25l31 18q3 -10 3 -20q0 -15 -8 -22t-17 -9.5t-13 -2.5q-22 0 -36.5 14.5t-14.5 35.5q0 22 14.5 37t36.5 15
q28 0 43.5 -24t15.5 -54q0 -21 -10 -45t-31.5 -43t-58.5 -25z" />
    <glyph glyph-name="s" unicode="s" horiz-adv-x="463" 
d="M230 -12q-77 0 -130 37.5t-70 105.5l69 17l11 -2q11 -40 46 -62.5t82 -22.5t80.5 21.5t33.5 56.5q0 29 -19.5 46.5t-58.5 26.5l-92 21q-70 16 -102.5 51.5t-32.5 84.5q0 42 23 74t63.5 50.5t92.5 18.5q76 0 128 -38t69 -107l-70 -15l-11 2q-10 41 -43.5 63t-74.5 22
q-43 0 -71.5 -19t-28.5 -48q0 -25 18.5 -41.5t59.5 -25.5l93 -21q69 -16 101.5 -51t32.5 -89q0 -48 -26 -83t-70.5 -54t-102.5 -19z" />
    <glyph glyph-name="sacute" unicode="&#x15b;" horiz-adv-x="463" 
d="M230 -12q-77 0 -130 37.5t-70 105.5l69 17l11 -2q11 -40 46 -62.5t82 -22.5t80.5 21.5t33.5 56.5q0 29 -19.5 46.5t-58.5 26.5l-92 21q-70 16 -102.5 51.5t-32.5 84.5q0 42 23 74t63.5 50.5t92.5 18.5q76 0 128 -38t69 -107l-70 -15l-11 2q-10 41 -43.5 63t-74.5 22
q-43 0 -71.5 -19t-28.5 -48q0 -25 18.5 -41.5t59.5 -25.5l93 -21q69 -16 101.5 -51t32.5 -89q0 -48 -26 -83t-70.5 -54t-102.5 -19zM176 581l75 145h100v-8l-101 -137h-74z" />
    <glyph glyph-name="scaron" unicode="&#x161;" horiz-adv-x="463" 
d="M230 -12q-77 0 -130 37.5t-70 105.5l69 17l11 -2q11 -40 46 -62.5t82 -22.5t80.5 21.5t33.5 56.5q0 29 -19.5 46.5t-58.5 26.5l-92 21q-70 16 -102.5 51.5t-32.5 84.5q0 42 23 74t63.5 50.5t92.5 18.5q76 0 128 -38t69 -107l-70 -15l-11 2q-10 41 -43.5 63t-74.5 22
q-43 0 -71.5 -19t-28.5 -48q0 -25 18.5 -41.5t59.5 -25.5l93 -21q69 -16 101.5 -51t32.5 -89q0 -48 -26 -83t-70.5 -54t-102.5 -19zM78 726h84l71 -88l71 88h85l-106 -145h-99z" />
    <glyph glyph-name="scedilla" unicode="&#x15f;" horiz-adv-x="463" 
d="M230 -12q-77 0 -130 37.5t-70 105.5l69 17l11 -2q11 -40 46 -62.5t82 -22.5t80.5 21.5t33.5 56.5q0 29 -19.5 46.5t-58.5 26.5l-92 21q-70 16 -102.5 51.5t-32.5 84.5q0 42 23 74t63.5 50.5t92.5 18.5q76 0 128 -38t69 -107l-70 -15l-11 2q-10 41 -43.5 63t-74.5 22
q-43 0 -71.5 -19t-28.5 -48q0 -25 18.5 -41.5t59.5 -25.5l93 -21q69 -16 101.5 -51t32.5 -89q0 -48 -26 -83t-70.5 -54t-102.5 -19zM232 -205q-12 0 -26 3.5t-30 13.5l16 48l9 2q8 -4 15.5 -6t12.5 -2q16 0 25.5 8.5t9.5 20.5q0 14 -9.5 22.5t-24.5 8.5t-25 -8l-28 40l46 67
h71l-65 -87l-7 38q5 1 10 1.5t10 0.5q35 0 59 -24t24 -59q0 -38 -27.5 -63t-65.5 -25z" />
    <glyph glyph-name="uni0219" unicode="&#x219;" horiz-adv-x="463" 
d="M230 -12q-77 0 -130 37.5t-70 105.5l69 17l11 -2q11 -40 46 -62.5t82 -22.5t80.5 21.5t33.5 56.5q0 29 -19.5 46.5t-58.5 26.5l-92 21q-70 16 -102.5 51.5t-32.5 84.5q0 42 23 74t63.5 50.5t92.5 18.5q76 0 128 -38t69 -107l-70 -15l-11 2q-10 41 -43.5 63t-74.5 22
q-43 0 -71.5 -19t-28.5 -48q0 -25 18.5 -41.5t59.5 -25.5l93 -21q69 -16 101.5 -51t32.5 -89q0 -48 -26 -83t-70.5 -54t-102.5 -19zM185 -223v49q23 5 36 19t13 32q0 16 -4 25l31 18q3 -10 3 -20q0 -15 -8 -22t-17 -9.5t-13 -2.5q-22 0 -36.5 14.5t-14.5 35.5q0 22 14.5 37
t36.5 15q28 0 43.5 -24t15.5 -54q0 -21 -10 -45t-31.5 -43t-58.5 -25z" />
    <glyph glyph-name="germandbls" unicode="&#xdf;" horiz-adv-x="539" 
d="M65 0v461q0 93 31 148t80.5 79.5t102.5 24.5q51 0 96 -22t72.5 -62.5t27.5 -96.5q0 -79 -46.5 -121t-120.5 -49v21q60 0 104 -22.5t68 -63t24 -96.5q0 -59 -27 -104.5t-78 -71t-124 -25.5h-61v73h61q48 0 82 16.5t51.5 46.5t17.5 72q0 62 -40.5 95t-110.5 33h-61v73h50
q37 0 67 14t48 40.5t18 63.5q0 35 -17 60t-44.5 39t-60.5 14q-34 0 -65 -15.5t-50.5 -52.5t-19.5 -101v-471h-75z" />
    <glyph glyph-name="t" unicode="t" horiz-adv-x="378" 
d="M253 0q-62 0 -102 40t-40 108v488h75v-483q0 -44 18.5 -62t61.5 -18h62l5 -11v-62h-80zM25 427v73h308v-73h-308z" />
    <glyph glyph-name="tcaron" unicode="&#x165;" horiz-adv-x="378" 
d="M253 0q-62 0 -102 40t-40 108v488h75v-483q0 -44 18.5 -62t61.5 -18h62l5 -11v-62h-80zM25 427v73h308v-73h-308zM227 536l20 184h83l-41 -184h-62z" />
    <glyph glyph-name="uni021B" unicode="&#x21b;" horiz-adv-x="378" 
d="M253 0q-62 0 -102 40t-40 108v488h75v-483q0 -44 18.5 -62t61.5 -18h62l5 -11v-62h-80zM25 427v73h308v-73h-308zM179 -223v49q23 5 36 19t13 32q0 16 -4 25l31 18q3 -10 3 -20q0 -15 -8 -22t-17 -9.5t-13 -2.5q-22 0 -36.5 14.5t-14.5 35.5q0 22 14.5 37t36.5 15
q28 0 43.5 -24t15.5 -54q0 -21 -10 -45t-31.5 -43t-58.5 -25z" />
    <glyph glyph-name="u" unicode="u" horiz-adv-x="571" 
d="M501 500v-500h-73v145l22 -19q-13 -42 -42.5 -73t-70.5 -48t-87 -17q-54 0 -95.5 23t-65.5 68t-24 112v309h75v-292q0 -56 17 -88t46 -45t64 -13q42 0 78 20t58.5 58t22.5 90v270h75z" />
    <glyph glyph-name="uacute" unicode="&#xfa;" horiz-adv-x="571" 
d="M501 500v-500h-73v145l22 -19q-13 -42 -42.5 -73t-70.5 -48t-87 -17q-54 0 -95.5 23t-65.5 68t-24 112v309h75v-292q0 -56 17 -88t46 -45t64 -13q42 0 78 20t58.5 58t22.5 90v270h75zM225 581l75 145h100v-8l-101 -137h-74z" />
    <glyph glyph-name="ubreve" unicode="&#x16d;" horiz-adv-x="571" 
d="M501 500v-500h-73v145l22 -19q-13 -42 -42.5 -73t-70.5 -48t-87 -17q-54 0 -95.5 23t-65.5 68t-24 112v309h75v-292q0 -56 17 -88t46 -45t64 -13q42 0 78 20t58.5 58t22.5 90v270h75zM282 579q-41 0 -74 18.5t-52 52t-19 76.5h71q1 -36 22 -60.5t52 -24.5q32 0 53 24.5
t22 60.5h71q0 -43 -19 -76.5t-52 -52t-75 -18.5z" />
    <glyph glyph-name="ucircumflex" unicode="&#xfb;" horiz-adv-x="571" 
d="M501 500v-500h-73v145l22 -19q-13 -42 -42.5 -73t-70.5 -48t-87 -17q-54 0 -95.5 23t-65.5 68t-24 112v309h75v-292q0 -56 17 -88t46 -45t64 -13q42 0 78 20t58.5 58t22.5 90v270h75zM127 581l106 145h99l106 -145h-85l-71 88l-71 -88h-84z" />
    <glyph glyph-name="udieresis" unicode="&#xfc;" horiz-adv-x="571" 
d="M501 500v-500h-73v145l22 -19q-13 -42 -42.5 -73t-70.5 -48t-87 -17q-54 0 -95.5 23t-65.5 68t-24 112v309h75v-292q0 -56 17 -88t46 -45t64 -13q42 0 78 20t58.5 58t22.5 90v270h75zM374 598q-23 0 -39 16t-16 39t16 39t39 16t39 -16t16 -39t-16 -39t-39 -16zM192 598
q-23 0 -39 16t-16 39t16 39t39 16t39 -16t16 -39t-16 -39t-39 -16z" />
    <glyph glyph-name="ugrave" unicode="&#xf9;" horiz-adv-x="571" 
d="M501 500v-500h-73v145l22 -19q-13 -42 -42.5 -73t-70.5 -48t-87 -17q-54 0 -95.5 23t-65.5 68t-24 112v309h75v-292q0 -56 17 -88t46 -45t64 -13q42 0 78 20t58.5 58t22.5 90v270h75zM333 581h-74l-101 137v8h100z" />
    <glyph glyph-name="uhungarumlaut" unicode="&#x171;" horiz-adv-x="571" 
d="M501 500v-500h-73v145l22 -19q-13 -42 -42.5 -73t-70.5 -48t-87 -17q-54 0 -95.5 23t-65.5 68t-24 112v309h75v-292q0 -56 17 -88t46 -45t64 -13q42 0 78 20t58.5 58t22.5 90v270h75zM295 581l60 145h100v-8l-86 -137h-74zM159 581l60 145h100v-8l-86 -137h-74z" />
    <glyph glyph-name="umacron" unicode="&#x16b;" horiz-adv-x="571" 
d="M501 500v-500h-73v145l22 -19q-13 -42 -42.5 -73t-70.5 -48t-87 -17q-54 0 -95.5 23t-65.5 68t-24 112v309h75v-292q0 -56 17 -88t46 -45t64 -13q42 0 78 20t58.5 58t22.5 90v270h75zM130 617v73h306v-73h-306z" />
    <glyph glyph-name="uogonek" unicode="&#x173;" horiz-adv-x="571" 
d="M501 500v-500h-73v145l22 -19q-13 -42 -42.5 -73t-70.5 -48t-87 -17q-54 0 -95.5 23t-65.5 68t-24 112v309h75v-292q0 -56 17 -88t46 -45t64 -13q42 0 78 20t58.5 58t22.5 90v270h75zM459 -205q-49 0 -78.5 27.5t-29.5 73.5q0 43 27 77.5t81 62.5l42 -36
q-38 -20 -58.5 -43.5t-20.5 -46.5q0 -21 13.5 -34t35.5 -13q14 0 25 4l5 -11v-56q-12 -2 -22 -3.5t-20 -1.5z" />
    <glyph glyph-name="uring" unicode="&#x16f;" horiz-adv-x="571" 
d="M501 500v-500h-73v145l22 -19q-13 -42 -42.5 -73t-70.5 -48t-87 -17q-54 0 -95.5 23t-65.5 68t-24 112v309h75v-292q0 -56 17 -88t46 -45t64 -13q42 0 78 20t58.5 58t22.5 90v270h75zM283 543q-33 0 -60 15t-42.5 41.5t-15.5 58.5q0 33 15.5 59t42.5 41t60 15
q34 0 60.5 -15t42 -41t15.5 -59q0 -32 -15.5 -58.5t-42 -41.5t-60.5 -15zM283 602q24 0 40 16.5t16 39.5t-16 39.5t-40 16.5t-40 -16.5t-16 -39.5t16 -39.5t40 -16.5z" />
    <glyph glyph-name="v" unicode="v" horiz-adv-x="499" 
d="M239 0v76l172 424h78v-8l-203 -492h-47zM213 0l-203 492v8h78l172 -424v-76h-47z" />
    <glyph glyph-name="w" unicode="w" horiz-adv-x="762" 
d="M176 0l-161 492v8h75l134 -420l22 -80h-70zM176 0l28 80l143 420h68v-8l-169 -492h-70zM516 0l-169 492v8h68l143 -420l28 -80h-70zM516 0l22 80l133 420h76v-8l-161 -492h-70z" />
    <glyph glyph-name="wacute" unicode="&#x1e83;" horiz-adv-x="762" 
d="M176 0l-161 492v8h75l134 -420l22 -80h-70zM176 0l28 80l143 420h68v-8l-169 -492h-70zM516 0l-169 492v8h68l143 -420l28 -80h-70zM516 0l22 80l133 420h76v-8l-161 -492h-70zM342 581l75 145h100v-8l-101 -137h-74z" />
    <glyph glyph-name="wcircumflex" unicode="&#x175;" horiz-adv-x="762" 
d="M176 0l-161 492v8h75l134 -420l22 -80h-70zM176 0l28 80l143 420h68v-8l-169 -492h-70zM516 0l-169 492v8h68l143 -420l28 -80h-70zM516 0l22 80l133 420h76v-8l-161 -492h-70zM227 581l106 145h99l106 -145h-85l-71 88l-71 -88h-84z" />
    <glyph glyph-name="wdieresis" unicode="&#x1e85;" horiz-adv-x="762" 
d="M176 0l-161 492v8h75l134 -420l22 -80h-70zM176 0l28 80l143 420h68v-8l-169 -492h-70zM516 0l-169 492v8h68l143 -420l28 -80h-70zM516 0l22 80l133 420h76v-8l-161 -492h-70zM474 598q-23 0 -39 16t-16 39t16 39t39 16t39 -16t16 -39t-16 -39t-39 -16zM292 598
q-23 0 -39 16t-16 39t16 39t39 16t39 -16t16 -39t-16 -39t-39 -16z" />
    <glyph glyph-name="wgrave" unicode="&#x1e81;" horiz-adv-x="762" 
d="M176 0l-161 492v8h75l134 -420l22 -80h-70zM176 0l28 80l143 420h68v-8l-169 -492h-70zM516 0l-169 492v8h68l143 -420l28 -80h-70zM516 0l22 80l133 420h76v-8l-161 -492h-70zM407 581h-74l-101 137v8h100z" />
    <glyph glyph-name="x" unicode="x" horiz-adv-x="446" 
d="M356 0l-351 492v8h85l351 -492v-8h-85zM5 0v8l198 276l46 -58l-159 -226h-85zM255 224l-46 60l150 216h82v-8z" />
    <glyph glyph-name="y" unicode="y" horiz-adv-x="507" 
d="M131 -200v8l81 192l26 55l181 445h78v-8l-290 -692h-76zM213 0l-203 492v8h78l171 -424v-76h-46z" />
    <glyph glyph-name="yacute" unicode="&#xfd;" horiz-adv-x="507" 
d="M131 -200v8l81 192l26 55l181 445h78v-8l-290 -692h-76zM213 0l-203 492v8h78l171 -424v-76h-46zM196 581l75 145h100v-8l-101 -137h-74z" />
    <glyph glyph-name="ycircumflex" unicode="&#x177;" horiz-adv-x="507" 
d="M131 -200v8l81 192l26 55l181 445h78v-8l-290 -692h-76zM213 0l-203 492v8h78l171 -424v-76h-46zM98 581l106 145h99l106 -145h-85l-71 88l-71 -88h-84z" />
    <glyph glyph-name="ydieresis" unicode="&#xff;" horiz-adv-x="507" 
d="M131 -200v8l81 192l26 55l181 445h78v-8l-290 -692h-76zM213 0l-203 492v8h78l171 -424v-76h-46zM345 598q-23 0 -39 16t-16 39t16 39t39 16t39 -16t16 -39t-16 -39t-39 -16zM163 598q-23 0 -39 16t-16 39t16 39t39 16t39 -16t16 -39t-16 -39t-39 -16z" />
    <glyph glyph-name="ygrave" unicode="&#x1ef3;" horiz-adv-x="507" 
d="M131 -200v8l81 192l26 55l181 445h78v-8l-290 -692h-76zM213 0l-203 492v8h78l171 -424v-76h-46zM304 581h-74l-101 137v8h100z" />
    <glyph glyph-name="z" unicode="z" horiz-adv-x="456" 
d="M25 0v70l344 396l16 -39h-357v73h403v-69l-345 -398l-15 40h360v-73h-406z" />
    <glyph glyph-name="zacute" unicode="&#x17a;" horiz-adv-x="456" 
d="M25 0v70l344 396l16 -39h-357v73h403v-69l-345 -398l-15 40h360v-73h-406zM170 581l75 145h100v-8l-101 -137h-74z" />
    <glyph glyph-name="zcaron" unicode="&#x17e;" horiz-adv-x="456" 
d="M25 0v70l344 396l16 -39h-357v73h403v-69l-345 -398l-15 40h360v-73h-406zM72 726h84l71 -88l71 88h85l-106 -145h-99z" />
    <glyph glyph-name="zdotaccent" unicode="&#x17c;" horiz-adv-x="456" 
d="M25 0v70l344 396l16 -39h-357v73h403v-69l-345 -398l-15 40h360v-73h-406zM228 598q-23 0 -39 16t-16 39t16 39t39 16t39 -16t16 -39t-16 -39t-39 -16z" />
    <glyph glyph-name="iogonek.dotless" horiz-adv-x="215" 
d="M70 0v500h75v-500h-75zM103 -205q-49 0 -78.5 27.5t-29.5 73.5q0 43 27 77.5t81 62.5l42 -36q-38 -20 -58.5 -43.5t-20.5 -46.5q0 -21 13.5 -34t35.5 -13q14 0 25 4l5 -11v-56q-12 -2 -22 -3.5t-20 -1.5z" />
    <glyph glyph-name="a.ss03" horiz-adv-x="596" 
d="M276 -12q-66 0 -119.5 34t-85 93t-31.5 135t31.5 135t85 93t119.5 34q51 0 94 -20.5t74 -57t46 -86.5v-196q-15 -49 -46 -86t-74 -57.5t-94 -20.5zM279 61q50 0 88.5 24t61 66.5t22.5 98.5t-22.5 98.5t-61 66.5t-88.5 24q-47 0 -84.5 -24t-58.5 -66.5t-21 -98.5t21 -98.5
t58.5 -66.5t84.5 -24zM453 0v187l12 63l-12 63v187h73v-500h-73z" />
    <glyph glyph-name="aacute.ss03" horiz-adv-x="596" 
d="M276 -12q-66 0 -119.5 34t-85 93t-31.5 135t31.5 135t85 93t119.5 34q51 0 94 -20.5t74 -57t46 -86.5v-196q-15 -49 -46 -86t-74 -57.5t-94 -20.5zM279 61q50 0 88.5 24t61 66.5t22.5 98.5t-22.5 98.5t-61 66.5t-88.5 24q-47 0 -84.5 -24t-58.5 -66.5t-21 -98.5t21 -98.5
t58.5 -66.5t84.5 -24zM453 0v187l12 63l-12 63v187h73v-500h-73zM235 581l75 145h100v-8l-101 -137h-74z" />
    <glyph glyph-name="abreve.ss03" horiz-adv-x="596" 
d="M276 -12q-66 0 -119.5 34t-85 93t-31.5 135t31.5 135t85 93t119.5 34q51 0 94 -20.5t74 -57t46 -86.5v-196q-15 -49 -46 -86t-74 -57.5t-94 -20.5zM279 61q50 0 88.5 24t61 66.5t22.5 98.5t-22.5 98.5t-61 66.5t-88.5 24q-47 0 -84.5 -24t-58.5 -66.5t-21 -98.5t21 -98.5
t58.5 -66.5t84.5 -24zM453 0v187l12 63l-12 63v187h73v-500h-73zM292 579q-41 0 -74 18.5t-52 52t-19 76.5h71q1 -36 22 -60.5t52 -24.5q32 0 53 24.5t22 60.5h71q0 -43 -19 -76.5t-52 -52t-75 -18.5z" />
    <glyph glyph-name="acircumflex.ss03" horiz-adv-x="596" 
d="M276 -12q-66 0 -119.5 34t-85 93t-31.5 135t31.5 135t85 93t119.5 34q51 0 94 -20.5t74 -57t46 -86.5v-196q-15 -49 -46 -86t-74 -57.5t-94 -20.5zM279 61q50 0 88.5 24t61 66.5t22.5 98.5t-22.5 98.5t-61 66.5t-88.5 24q-47 0 -84.5 -24t-58.5 -66.5t-21 -98.5t21 -98.5
t58.5 -66.5t84.5 -24zM453 0v187l12 63l-12 63v187h73v-500h-73zM137 581l106 145h99l106 -145h-85l-71 88l-71 -88h-84z" />
    <glyph glyph-name="adieresis.ss03" horiz-adv-x="596" 
d="M276 -12q-66 0 -119.5 34t-85 93t-31.5 135t31.5 135t85 93t119.5 34q51 0 94 -20.5t74 -57t46 -86.5v-196q-15 -49 -46 -86t-74 -57.5t-94 -20.5zM279 61q50 0 88.5 24t61 66.5t22.5 98.5t-22.5 98.5t-61 66.5t-88.5 24q-47 0 -84.5 -24t-58.5 -66.5t-21 -98.5t21 -98.5
t58.5 -66.5t84.5 -24zM453 0v187l12 63l-12 63v187h73v-500h-73zM384 598q-23 0 -39 16t-16 39t16 39t39 16t39 -16t16 -39t-16 -39t-39 -16zM202 598q-23 0 -39 16t-16 39t16 39t39 16t39 -16t16 -39t-16 -39t-39 -16z" />
    <glyph glyph-name="agrave.ss03" horiz-adv-x="596" 
d="M276 -12q-66 0 -119.5 34t-85 93t-31.5 135t31.5 135t85 93t119.5 34q51 0 94 -20.5t74 -57t46 -86.5v-196q-15 -49 -46 -86t-74 -57.5t-94 -20.5zM279 61q50 0 88.5 24t61 66.5t22.5 98.5t-22.5 98.5t-61 66.5t-88.5 24q-47 0 -84.5 -24t-58.5 -66.5t-21 -98.5t21 -98.5
t58.5 -66.5t84.5 -24zM453 0v187l12 63l-12 63v187h73v-500h-73zM343 581h-74l-101 137v8h100z" />
    <glyph glyph-name="amacron.ss03" horiz-adv-x="596" 
d="M276 -12q-66 0 -119.5 34t-85 93t-31.5 135t31.5 135t85 93t119.5 34q51 0 94 -20.5t74 -57t46 -86.5v-196q-15 -49 -46 -86t-74 -57.5t-94 -20.5zM279 61q50 0 88.5 24t61 66.5t22.5 98.5t-22.5 98.5t-61 66.5t-88.5 24q-47 0 -84.5 -24t-58.5 -66.5t-21 -98.5t21 -98.5
t58.5 -66.5t84.5 -24zM453 0v187l12 63l-12 63v187h73v-500h-73zM140 617v73h306v-73h-306z" />
    <glyph glyph-name="aogonek.ss03" horiz-adv-x="596" 
d="M276 -12q-66 0 -119.5 34t-85 93t-31.5 135t31.5 135t85 93t119.5 34q51 0 94 -20.5t74 -57t46 -86.5v-196q-15 -49 -46 -86t-74 -57.5t-94 -20.5zM279 61q50 0 88.5 24t61 66.5t22.5 98.5t-22.5 98.5t-61 66.5t-88.5 24q-47 0 -84.5 -24t-58.5 -66.5t-21 -98.5t21 -98.5
t58.5 -66.5t84.5 -24zM453 0v187l12 63l-12 63v187h73v-500h-73zM484 -205q-49 0 -78.5 27.5t-29.5 73.5q0 43 27 77.5t81 62.5l42 -36q-38 -20 -58.5 -43.5t-20.5 -46.5q0 -21 13.5 -34t35.5 -13q14 0 25 4l5 -11v-56q-12 -2 -22 -3.5t-20 -1.5z" />
    <glyph glyph-name="aring.ss03" horiz-adv-x="596" 
d="M276 -12q-66 0 -119.5 34t-85 93t-31.5 135t31.5 135t85 93t119.5 34q51 0 94 -20.5t74 -57t46 -86.5v-196q-15 -49 -46 -86t-74 -57.5t-94 -20.5zM279 61q50 0 88.5 24t61 66.5t22.5 98.5t-22.5 98.5t-61 66.5t-88.5 24q-47 0 -84.5 -24t-58.5 -66.5t-21 -98.5t21 -98.5
t58.5 -66.5t84.5 -24zM453 0v187l12 63l-12 63v187h73v-500h-73zM293 543q-33 0 -60 15t-42.5 41.5t-15.5 58.5q0 33 15.5 59t42.5 41t60 15q34 0 60.5 -15t42 -41t15.5 -59q0 -32 -15.5 -58.5t-42 -41.5t-60.5 -15zM293 602q24 0 40 16.5t16 39.5t-16 39.5t-40 16.5
t-40 -16.5t-16 -39.5t16 -39.5t40 -16.5z" />
    <glyph glyph-name="atilde.ss03" horiz-adv-x="596" 
d="M276 -12q-66 0 -119.5 34t-85 93t-31.5 135t31.5 135t85 93t119.5 34q51 0 94 -20.5t74 -57t46 -86.5v-196q-15 -49 -46 -86t-74 -57.5t-94 -20.5zM279 61q50 0 88.5 24t61 66.5t22.5 98.5t-22.5 98.5t-61 66.5t-88.5 24q-47 0 -84.5 -24t-58.5 -66.5t-21 -98.5t21 -98.5
t58.5 -66.5t84.5 -24zM453 0v187l12 63l-12 63v187h73v-500h-73zM359 592q-21 0 -38 8t-31.5 19t-28.5 19t-29 8q-17 0 -27 -15t-10 -38h-64q0 54 26.5 88t69.5 34q21 0 38 -8t31.5 -19t28.5 -19t29 -8q17 0 27 15t10 38h64q0 -54 -26.5 -88t-69.5 -34z" />
    <glyph glyph-name="g.ss03" horiz-adv-x="596" 
d="M286 -212q-60 0 -105.5 19t-76 52t-45.5 76l66 24h11q13 -43 53.5 -72t98.5 -29q49 0 85.5 22t57 60.5t20.5 89.5v167l14 63l-12 63v177h73v-452q0 -74 -28 -133t-81.5 -93t-130.5 -34zM276 6q-66 0 -119.5 32.5t-85 90t-31.5 130.5q0 74 31.5 131t85 89.5t119.5 32.5
q51 0 94 -19.5t74 -55t46 -83.5v-190q-15 -47 -46 -83t-74 -55.5t-94 -19.5zM279 79q50 0 88.5 22.5t61 63.5t22.5 94q0 54 -22.5 94.5t-61 63t-88.5 22.5q-47 0 -84.5 -22.5t-58.5 -63t-21 -94.5q0 -53 21 -94t58.5 -63.5t84.5 -22.5z" />
    <glyph glyph-name="gbreve.ss03" horiz-adv-x="596" 
d="M286 -212q-60 0 -105.5 19t-76 52t-45.5 76l66 24h11q13 -43 53.5 -72t98.5 -29q49 0 85.5 22t57 60.5t20.5 89.5v167l14 63l-12 63v177h73v-452q0 -74 -28 -133t-81.5 -93t-130.5 -34zM276 6q-66 0 -119.5 32.5t-85 90t-31.5 130.5q0 74 31.5 131t85 89.5t119.5 32.5
q51 0 94 -19.5t74 -55t46 -83.5v-190q-15 -47 -46 -83t-74 -55.5t-94 -19.5zM279 79q50 0 88.5 22.5t61 63.5t22.5 94q0 54 -22.5 94.5t-61 63t-88.5 22.5q-47 0 -84.5 -22.5t-58.5 -63t-21 -94.5q0 -53 21 -94t58.5 -63.5t84.5 -22.5zM292 579q-41 0 -74 18.5t-52 52
t-19 76.5h71q1 -36 22 -60.5t52 -24.5q32 0 53 24.5t22 60.5h71q0 -43 -19 -76.5t-52 -52t-75 -18.5z" />
    <glyph glyph-name="uni0123.ss03" horiz-adv-x="596" 
d="M286 -212q-60 0 -105.5 19t-76 52t-45.5 76l66 24h11q13 -43 53.5 -72t98.5 -29q49 0 85.5 22t57 60.5t20.5 89.5v167l14 63l-12 63v177h73v-452q0 -74 -28 -133t-81.5 -93t-130.5 -34zM276 6q-66 0 -119.5 32.5t-85 90t-31.5 130.5q0 74 31.5 131t85 89.5t119.5 32.5
q51 0 94 -19.5t74 -55t46 -83.5v-190q-15 -47 -46 -83t-74 -55.5t-94 -19.5zM279 79q50 0 88.5 22.5t61 63.5t22.5 94q0 54 -22.5 94.5t-61 63t-88.5 22.5q-47 0 -84.5 -22.5t-58.5 -63t-21 -94.5q0 -53 21 -94t58.5 -63.5t84.5 -22.5zM338 762v-49q-23 -5 -36 -19t-13 -32
q0 -16 4 -25l-31 -18q-3 11 -3 20q0 15 8 22.5t17 9.5t13 2q22 0 36.5 -14.5t14.5 -35.5q0 -22 -14.5 -37t-36.5 -15q-28 0 -43.5 24t-15.5 54q0 21 10 45t32 43.5t58 24.5z" />
    <glyph glyph-name="gdotaccent.ss03" horiz-adv-x="596" 
d="M286 -212q-60 0 -105.5 19t-76 52t-45.5 76l66 24h11q13 -43 53.5 -72t98.5 -29q49 0 85.5 22t57 60.5t20.5 89.5v167l14 63l-12 63v177h73v-452q0 -74 -28 -133t-81.5 -93t-130.5 -34zM276 6q-66 0 -119.5 32.5t-85 90t-31.5 130.5q0 74 31.5 131t85 89.5t119.5 32.5
q51 0 94 -19.5t74 -55t46 -83.5v-190q-15 -47 -46 -83t-74 -55.5t-94 -19.5zM279 79q50 0 88.5 22.5t61 63.5t22.5 94q0 54 -22.5 94.5t-61 63t-88.5 22.5q-47 0 -84.5 -22.5t-58.5 -63t-21 -94.5q0 -53 21 -94t58.5 -63.5t84.5 -22.5zM293 598q-23 0 -39 16t-16 39t16 39
t39 16t39 -16t16 -39t-16 -39t-39 -16z" />
    <glyph glyph-name="a.ss04" horiz-adv-x="596" 
d="M276 -12q-66 0 -119.5 34t-85 93t-31.5 135t31.5 135t85 93t119.5 34q51 0 94 -20.5t74 -57t46 -86.5v-196q-15 -49 -46 -86t-74 -57.5t-94 -20.5zM279 61q50 0 88.5 24t61 66.5t22.5 98.5t-22.5 98.5t-61 66.5t-88.5 24q-47 0 -84.5 -24t-58.5 -66.5t-21 -98.5t21 -98.5
t58.5 -66.5t84.5 -24zM572 0q-58 0 -88.5 38t-30.5 99v50l12 63l-12 63v187h73v-363q0 -37 15.5 -50.5t43.5 -13.5l5 -11v-62h-18z" />
    <glyph glyph-name="aacute.ss04" horiz-adv-x="596" 
d="M276 -12q-66 0 -119.5 34t-85 93t-31.5 135t31.5 135t85 93t119.5 34q51 0 94 -20.5t74 -57t46 -86.5v-196q-15 -49 -46 -86t-74 -57.5t-94 -20.5zM279 61q50 0 88.5 24t61 66.5t22.5 98.5t-22.5 98.5t-61 66.5t-88.5 24q-47 0 -84.5 -24t-58.5 -66.5t-21 -98.5t21 -98.5
t58.5 -66.5t84.5 -24zM572 0q-58 0 -88.5 38t-30.5 99v50l12 63l-12 63v187h73v-363q0 -37 15.5 -50.5t43.5 -13.5l5 -11v-62h-18zM235 581l75 145h100v-8l-101 -137h-74z" />
    <glyph glyph-name="abreve.ss04" horiz-adv-x="596" 
d="M276 -12q-66 0 -119.5 34t-85 93t-31.5 135t31.5 135t85 93t119.5 34q51 0 94 -20.5t74 -57t46 -86.5v-196q-15 -49 -46 -86t-74 -57.5t-94 -20.5zM279 61q50 0 88.5 24t61 66.5t22.5 98.5t-22.5 98.5t-61 66.5t-88.5 24q-47 0 -84.5 -24t-58.5 -66.5t-21 -98.5t21 -98.5
t58.5 -66.5t84.5 -24zM572 0q-58 0 -88.5 38t-30.5 99v50l12 63l-12 63v187h73v-363q0 -37 15.5 -50.5t43.5 -13.5l5 -11v-62h-18zM292 579q-41 0 -74 18.5t-52 52t-19 76.5h71q1 -36 22 -60.5t52 -24.5q32 0 53 24.5t22 60.5h71q0 -43 -19 -76.5t-52 -52t-75 -18.5z" />
    <glyph glyph-name="acircumflex.ss04" horiz-adv-x="596" 
d="M276 -12q-66 0 -119.5 34t-85 93t-31.5 135t31.5 135t85 93t119.5 34q51 0 94 -20.5t74 -57t46 -86.5v-196q-15 -49 -46 -86t-74 -57.5t-94 -20.5zM279 61q50 0 88.5 24t61 66.5t22.5 98.5t-22.5 98.5t-61 66.5t-88.5 24q-47 0 -84.5 -24t-58.5 -66.5t-21 -98.5t21 -98.5
t58.5 -66.5t84.5 -24zM572 0q-58 0 -88.5 38t-30.5 99v50l12 63l-12 63v187h73v-363q0 -37 15.5 -50.5t43.5 -13.5l5 -11v-62h-18zM137 581l106 145h99l106 -145h-85l-71 88l-71 -88h-84z" />
    <glyph glyph-name="adieresis.ss04" horiz-adv-x="596" 
d="M276 -12q-66 0 -119.5 34t-85 93t-31.5 135t31.5 135t85 93t119.5 34q51 0 94 -20.5t74 -57t46 -86.5v-196q-15 -49 -46 -86t-74 -57.5t-94 -20.5zM279 61q50 0 88.5 24t61 66.5t22.5 98.5t-22.5 98.5t-61 66.5t-88.5 24q-47 0 -84.5 -24t-58.5 -66.5t-21 -98.5t21 -98.5
t58.5 -66.5t84.5 -24zM572 0q-58 0 -88.5 38t-30.5 99v50l12 63l-12 63v187h73v-363q0 -37 15.5 -50.5t43.5 -13.5l5 -11v-62h-18zM384 598q-23 0 -39 16t-16 39t16 39t39 16t39 -16t16 -39t-16 -39t-39 -16zM202 598q-23 0 -39 16t-16 39t16 39t39 16t39 -16t16 -39
t-16 -39t-39 -16z" />
    <glyph glyph-name="agrave.ss04" horiz-adv-x="596" 
d="M276 -12q-66 0 -119.5 34t-85 93t-31.5 135t31.5 135t85 93t119.5 34q51 0 94 -20.5t74 -57t46 -86.5v-196q-15 -49 -46 -86t-74 -57.5t-94 -20.5zM279 61q50 0 88.5 24t61 66.5t22.5 98.5t-22.5 98.5t-61 66.5t-88.5 24q-47 0 -84.5 -24t-58.5 -66.5t-21 -98.5t21 -98.5
t58.5 -66.5t84.5 -24zM572 0q-58 0 -88.5 38t-30.5 99v50l12 63l-12 63v187h73v-363q0 -37 15.5 -50.5t43.5 -13.5l5 -11v-62h-18zM343 581h-74l-101 137v8h100z" />
    <glyph glyph-name="amacron.ss04" horiz-adv-x="596" 
d="M276 -12q-66 0 -119.5 34t-85 93t-31.5 135t31.5 135t85 93t119.5 34q51 0 94 -20.5t74 -57t46 -86.5v-196q-15 -49 -46 -86t-74 -57.5t-94 -20.5zM279 61q50 0 88.5 24t61 66.5t22.5 98.5t-22.5 98.5t-61 66.5t-88.5 24q-47 0 -84.5 -24t-58.5 -66.5t-21 -98.5t21 -98.5
t58.5 -66.5t84.5 -24zM572 0q-58 0 -88.5 38t-30.5 99v50l12 63l-12 63v187h73v-363q0 -37 15.5 -50.5t43.5 -13.5l5 -11v-62h-18zM140 617v73h306v-73h-306z" />
    <glyph glyph-name="aogonek.ss04" horiz-adv-x="596" 
d="M276 -12q-66 0 -119.5 34t-85 93t-31.5 135t31.5 135t85 93t119.5 34q51 0 94 -20.5t74 -57t46 -86.5v-196q-15 -49 -46 -86t-74 -57.5t-94 -20.5zM279 61q50 0 88.5 24t61 66.5t22.5 98.5t-22.5 98.5t-61 66.5t-88.5 24q-47 0 -84.5 -24t-58.5 -66.5t-21 -98.5t21 -98.5
t58.5 -66.5t84.5 -24zM572 0q-58 0 -88.5 38t-30.5 99v50l12 63l-12 63v187h73v-363q0 -37 15.5 -50.5t43.5 -13.5l5 -11v-62h-18zM548 -205q-49 0 -78.5 27.5t-29.5 73.5q0 43 27 77.5t81 62.5l42 -36q-38 -20 -58.5 -43.5t-20.5 -46.5q0 -21 13.5 -34t35.5 -13q14 0 25 4
l5 -11v-56q-12 -2 -22 -3.5t-20 -1.5z" />
    <glyph glyph-name="aring.ss04" horiz-adv-x="596" 
d="M276 -12q-66 0 -119.5 34t-85 93t-31.5 135t31.5 135t85 93t119.5 34q51 0 94 -20.5t74 -57t46 -86.5v-196q-15 -49 -46 -86t-74 -57.5t-94 -20.5zM279 61q50 0 88.5 24t61 66.5t22.5 98.5t-22.5 98.5t-61 66.5t-88.5 24q-47 0 -84.5 -24t-58.5 -66.5t-21 -98.5t21 -98.5
t58.5 -66.5t84.5 -24zM572 0q-58 0 -88.5 38t-30.5 99v50l12 63l-12 63v187h73v-363q0 -37 15.5 -50.5t43.5 -13.5l5 -11v-62h-18zM293 543q-33 0 -60 15t-42.5 41.5t-15.5 58.5q0 33 15.5 59t42.5 41t60 15q34 0 60.5 -15t42 -41t15.5 -59q0 -32 -15.5 -58.5t-42 -41.5
t-60.5 -15zM293 602q24 0 40 16.5t16 39.5t-16 39.5t-40 16.5t-40 -16.5t-16 -39.5t16 -39.5t40 -16.5z" />
    <glyph glyph-name="atilde.ss04" horiz-adv-x="596" 
d="M276 -12q-66 0 -119.5 34t-85 93t-31.5 135t31.5 135t85 93t119.5 34q51 0 94 -20.5t74 -57t46 -86.5v-196q-15 -49 -46 -86t-74 -57.5t-94 -20.5zM279 61q50 0 88.5 24t61 66.5t22.5 98.5t-22.5 98.5t-61 66.5t-88.5 24q-47 0 -84.5 -24t-58.5 -66.5t-21 -98.5t21 -98.5
t58.5 -66.5t84.5 -24zM572 0q-58 0 -88.5 38t-30.5 99v50l12 63l-12 63v187h73v-363q0 -37 15.5 -50.5t43.5 -13.5l5 -11v-62h-18zM359 592q-21 0 -38 8t-31.5 19t-28.5 19t-29 8q-17 0 -27 -15t-10 -38h-64q0 54 26.5 88t69.5 34q21 0 38 -8t31.5 -19t28.5 -19t29 -8
q17 0 27 15t10 38h64q0 -54 -26.5 -88t-69.5 -34z" />
    <glyph glyph-name="g.ss04" horiz-adv-x="596" 
d="M116 -200v62l5 11h227q56 0 79.5 23t23.5 80v221l14 63l-12 63v177h73v-530q0 -78 -46 -124t-117 -46h-247zM276 -12q-66 0 -119.5 34t-85 93t-31.5 135t31.5 135t85 93t119.5 34q51 0 94 -20.5t74 -57t46 -86.5v-196q-15 -49 -46 -86t-74 -57.5t-94 -20.5zM279 61
q50 0 88.5 24t61 66.5t22.5 98.5t-22.5 98.5t-61 66.5t-88.5 24q-47 0 -84.5 -24t-58.5 -66.5t-21 -98.5t21 -98.5t58.5 -66.5t84.5 -24z" />
    <glyph glyph-name="gbreve.ss04" horiz-adv-x="596" 
d="M116 -200v62l5 11h227q56 0 79.5 23t23.5 80v221l14 63l-12 63v177h73v-530q0 -78 -46 -124t-117 -46h-247zM276 -12q-66 0 -119.5 34t-85 93t-31.5 135t31.5 135t85 93t119.5 34q51 0 94 -20.5t74 -57t46 -86.5v-196q-15 -49 -46 -86t-74 -57.5t-94 -20.5zM279 61
q50 0 88.5 24t61 66.5t22.5 98.5t-22.5 98.5t-61 66.5t-88.5 24q-47 0 -84.5 -24t-58.5 -66.5t-21 -98.5t21 -98.5t58.5 -66.5t84.5 -24zM292 579q-41 0 -74 18.5t-52 52t-19 76.5h71q1 -36 22 -60.5t52 -24.5q32 0 53 24.5t22 60.5h71q0 -43 -19 -76.5t-52 -52t-75 -18.5z
" />
    <glyph glyph-name="uni0123.ss04" horiz-adv-x="596" 
d="M116 -200v62l5 11h227q56 0 79.5 23t23.5 80v221l14 63l-12 63v177h73v-530q0 -78 -46 -124t-117 -46h-247zM276 -12q-66 0 -119.5 34t-85 93t-31.5 135t31.5 135t85 93t119.5 34q51 0 94 -20.5t74 -57t46 -86.5v-196q-15 -49 -46 -86t-74 -57.5t-94 -20.5zM279 61
q50 0 88.5 24t61 66.5t22.5 98.5t-22.5 98.5t-61 66.5t-88.5 24q-47 0 -84.5 -24t-58.5 -66.5t-21 -98.5t21 -98.5t58.5 -66.5t84.5 -24zM338 762v-49q-23 -5 -36 -19t-13 -32q0 -16 4 -25l-31 -18q-3 11 -3 20q0 15 8 22.5t17 9.5t13 2q22 0 36.5 -14.5t14.5 -35.5
q0 -22 -14.5 -37t-36.5 -15q-28 0 -43.5 24t-15.5 54q0 21 10 45t32 43.5t58 24.5z" />
    <glyph glyph-name="gdotaccent.ss04" horiz-adv-x="596" 
d="M116 -200v62l5 11h227q56 0 79.5 23t23.5 80v221l14 63l-12 63v177h73v-530q0 -78 -46 -124t-117 -46h-247zM276 -12q-66 0 -119.5 34t-85 93t-31.5 135t31.5 135t85 93t119.5 34q51 0 94 -20.5t74 -57t46 -86.5v-196q-15 -49 -46 -86t-74 -57.5t-94 -20.5zM279 61
q50 0 88.5 24t61 66.5t22.5 98.5t-22.5 98.5t-61 66.5t-88.5 24q-47 0 -84.5 -24t-58.5 -66.5t-21 -98.5t21 -98.5t58.5 -66.5t84.5 -24zM293 598q-23 0 -39 16t-16 39t16 39t39 16t39 -16t16 -39t-16 -39t-39 -16z" />
    <glyph glyph-name="l.ss04" horiz-adv-x="225" 
d="M196 0q-37 0 -64 18t-42 50.5t-15 76.5v575l72 9l3 -8v-576q0 -38 14 -55t45 -17l5 -11v-62h-18z" />
    <glyph glyph-name="lacute.ss04" horiz-adv-x="225" 
d="M196 0q-37 0 -64 18t-42 50.5t-15 76.5v575l72 9l3 -8v-576q0 -38 14 -55t45 -17l5 -11v-62h-18zM76 771l75 145h100v-8l-101 -137h-74z" />
    <glyph glyph-name="lcaron.ss04" horiz-adv-x="225" 
d="M196 0q-37 0 -64 18t-42 50.5t-15 76.5v575l72 9l3 -8v-576q0 -38 14 -55t45 -17l5 -11v-62h-18zM192 536l20 184h83l-41 -184h-62z" />
    <glyph glyph-name="uni013C.ss04" horiz-adv-x="225" 
d="M196 0q-37 0 -64 18t-42 50.5t-15 76.5v575l72 9l3 -8v-576q0 -38 14 -55t45 -17l5 -11v-62h-18zM105 -223v49q23 5 36 19t13 32q0 16 -4 25l31 18q3 -10 3 -20q0 -15 -8 -22t-17 -9.5t-13 -2.5q-22 0 -36.5 14.5t-14.5 35.5q0 22 14.5 37t36.5 15q28 0 43.5 -24
t15.5 -54q0 -21 -10 -45t-31.5 -43t-58.5 -25z" />
    <glyph glyph-name="ldot.ss04" horiz-adv-x="275" 
d="M196 0q-37 0 -64 18t-42 50.5t-15 76.5v575l72 9l3 -8v-576q0 -38 14 -55t45 -17l5 -11v-62h-18zM250 321q-23 0 -39 16t-16 39t16 39t39 16t39 -16t16 -39t-16 -39t-39 -16z" />
    <glyph glyph-name="lslash.ss04" horiz-adv-x="255" 
d="M17 238v86l221 138v-86zM211 0q-37 0 -64 18t-42 50.5t-15 76.5v575l72 9l3 -8v-576q0 -38 14 -55t45 -17l5 -11v-62h-18z" />
    <glyph glyph-name="y.ss04" horiz-adv-x="571" 
d="M111 -200v62l5 11h207q56 0 80.5 23t24.5 80v169l22 -19q-13 -42 -42.5 -73t-70.5 -48t-87 -17q-54 0 -95.5 23t-65.5 68t-24 112v309h75v-292q0 -56 17 -88t46 -45t64 -13q42 0 78 20t58.5 58t22.5 90v270h75v-530q0 -78 -46 -124t-117 -46h-227z" />
    <glyph glyph-name="yacute.ss04" horiz-adv-x="571" 
d="M111 -200v62l5 11h207q56 0 80.5 23t24.5 80v169l22 -19q-13 -42 -42.5 -73t-70.5 -48t-87 -17q-54 0 -95.5 23t-65.5 68t-24 112v309h75v-292q0 -56 17 -88t46 -45t64 -13q42 0 78 20t58.5 58t22.5 90v270h75v-530q0 -78 -46 -124t-117 -46h-227zM230 581l75 145h100v-8
l-101 -137h-74z" />
    <glyph glyph-name="ycircumflex.ss04" horiz-adv-x="571" 
d="M111 -200v62l5 11h207q56 0 80.5 23t24.5 80v169l22 -19q-13 -42 -42.5 -73t-70.5 -48t-87 -17q-54 0 -95.5 23t-65.5 68t-24 112v309h75v-292q0 -56 17 -88t46 -45t64 -13q42 0 78 20t58.5 58t22.5 90v270h75v-530q0 -78 -46 -124t-117 -46h-227zM132 581l106 145h99
l106 -145h-85l-71 88l-71 -88h-84z" />
    <glyph glyph-name="ydieresis.ss04" horiz-adv-x="571" 
d="M111 -200v62l5 11h207q56 0 80.5 23t24.5 80v169l22 -19q-13 -42 -42.5 -73t-70.5 -48t-87 -17q-54 0 -95.5 23t-65.5 68t-24 112v309h75v-292q0 -56 17 -88t46 -45t64 -13q42 0 78 20t58.5 58t22.5 90v270h75v-530q0 -78 -46 -124t-117 -46h-227zM379 598q-23 0 -39 16
t-16 39t16 39t39 16t39 -16t16 -39t-16 -39t-39 -16zM197 598q-23 0 -39 16t-16 39t16 39t39 16t39 -16t16 -39t-16 -39t-39 -16z" />
    <glyph glyph-name="ygrave.ss04" horiz-adv-x="571" 
d="M111 -200v62l5 11h207q56 0 80.5 23t24.5 80v169l22 -19q-13 -42 -42.5 -73t-70.5 -48t-87 -17q-54 0 -95.5 23t-65.5 68t-24 112v309h75v-292q0 -56 17 -88t46 -45t64 -13q42 0 78 20t58.5 58t22.5 90v270h75v-530q0 -78 -46 -124t-117 -46h-227zM338 581h-74l-101 137
v8h100z" />
    <glyph glyph-name="fi" unicode="&#xfb01;" horiz-adv-x="543" 
d="M111 0v572q0 68 40 108t102 40h55v-62l-5 -11h-37q-43 0 -61.5 -18t-18.5 -62v-567h-75zM25 427v73h283v-73h-283zM398 0v500h75v-500h-75zM436 598q-23 0 -39 16t-16 39t16 39t39 16t39 -16t16 -39t-16 -39t-39 -16z" />
    <glyph glyph-name="fl" unicode="&#xfb02;" horiz-adv-x="553" 
d="M111 0v572q0 68 40 108t102 40h55v-62l-5 -11h-37q-43 0 -61.5 -18t-18.5 -62v-567h-75zM25 427v73h283v-73h-283zM403 0v720l72 9l3 -8v-721h-75z" />
    <glyph glyph-name="ordfeminine" unicode="&#xaa;" horiz-adv-x="387" 
d="M160 341q-54 0 -89.5 30.5t-35.5 78.5q0 47 33 76.5t94 33.5l136 11v-57l-124 -10q-37 -3 -55 -16t-18 -36q0 -22 19 -36.5t49 -14.5t55 14t39.5 38t14.5 53v58q0 38 -25 63t-64 25q-31 0 -53 -16t-30 -42h-8l-56 17q16 50 55.5 75t91.5 25q72 0 112.5 -42.5t40.5 -120.5
v-198h-60v102l23 -9q-13 -45 -53.5 -73.5t-91.5 -28.5z" />
    <glyph glyph-name="ordmasculine" unicode="&#xba;" horiz-adv-x="432" 
d="M216 340q-51 0 -91 23.5t-62.5 65.5t-22.5 97t22.5 96.5t62 65t91.5 23.5t91.5 -23.5t62 -65t22.5 -96.5t-22.5 -97t-62 -65.5t-91.5 -23.5zM216 401q50 0 80.5 34t30.5 91q0 56 -30.5 90t-80.5 34q-49 0 -80 -34t-31 -90q0 -57 31 -91t80 -34z" />
    <glyph glyph-name="uni0621" unicode="&#x621;" horiz-adv-x="498" 
d="M152 40q-32 49 -32 94q0 38 20 70t52 60t69.5 52t72.5 46h7l37 -61q-56 -34 -92 -61t-56.5 -49t-29 -39t-8.5 -30q0 -19 12 -33t32 -14zM53 0l-3 6l37 69h2q32 0 60 -3.5l28 -3.5l13 7h258v-7l-21 -68h-374z" />
    <glyph glyph-name="uni0627" unicode="&#x627;" horiz-adv-x="230" 
d="M70 0v746l72 9l3 -8v-500q0 -41 2.5 -82t5 -75.5t5 -55l2.5 -20.5l-15 -14h-75z" />
    <glyph glyph-name="uni0627.fina" horiz-adv-x="231" 
d="M145 0l-75 1v745l72 9l3 -8v-747zM70 0v75h161v-75h-161zM231 0v75q12 0 16 -10t4 -27q0 -16 -4 -27t-16 -11z" />
    <glyph glyph-name="uni0627.short" horiz-adv-x="230" 
d="M70 0v658l72 9l3 -8v-412q0 -41 2.5 -82t5 -75.5t5 -55l2.5 -20.5l-15 -14h-75z" />
    <glyph glyph-name="uni0627.short.fina" horiz-adv-x="231" 
d="M145 0l-75 1v657l72 9l3 -8v-659zM70 0v75h161v-75h-161zM231 0v75q12 0 16 -10t4 -27q0 -16 -4 -27t-16 -11z" />
    <glyph glyph-name="uni066E" unicode="&#x66e;" horiz-adv-x="916" 
d="M468 0q-75 0 -151.5 5.5t-144.5 21.5t-117 47l36 59h11q50 -30 139 -44t227 -14h313v-75h-313zM780 0l3 42l-3 32.5t-6 83.5t-3 107v88l72 9l3 -8v-107q0 -41 2.5 -82t5 -75.5t5 -55l2.5 -20.5l-15 -14h-66zM685 0v75h106v-75h-106zM685 0q-11 0 -15.5 11t-4.5 27
q0 17 4.5 27t15.5 10v-75z" />
    <glyph glyph-name="uni066E.fina" horiz-adv-x="932" 
d="M815 0v75h117v-75h-117zM932 0v75q12 0 16 -10t4 -27q0 -16 -4 -27t-16 -11zM468 0q-75 0 -151.5 5.5t-144.5 21.5t-117 47l36 59h11q50 -30 139 -44t227 -14h313v-75h-313zM780 0l3 42l-3 32.5t-6 83.5t-3 107v88l72 9l3 -8v-107q0 -41 2.5 -82t5 -75.5t5 -55l2.5 -20.5
l-15 -14h-66zM685 0v75h106v-75h-106zM685 0q-11 0 -15.5 11t-4.5 27q0 17 4.5 27t15.5 10v-75z" />
    <glyph glyph-name="uni066E.medi" horiz-adv-x="247" 
d="M140 0v75h107v-75h-107zM247 0v75q12 0 16 -10t4 -27q0 -16 -4 -27t-16 -11zM95 0l3 42l-3 32.5t-6 83.5t-3 107v88l72 9l3 -8v-107q0 -41 2.5 -82t5 -75.5t5 -55l2.5 -20.5l-15 -14h-66zM0 0v75h106v-75h-106zM0 0q-11 0 -15.5 11t-4.5 27q0 17 4.5 27t15.5 10v-75z" />
    <glyph glyph-name="uni066E.medi.high" horiz-adv-x="247" 
d="M140 0v75h107v-75h-107zM247 0v75q12 0 16 -10t4 -27q0 -16 -4 -27t-16 -11zM86 342v106l72 9l3 -8v-107h-75zM95 0l3 42l-3 32.5t-6 83.5t-3 107v88l72 9l3 -8v-107q0 -41 2.5 -82t5 -75.5t5 -55l2.5 -20.5l-15 -14h-66zM0 0v75h106v-75h-106zM0 0q-11 0 -15.5 11
t-4.5 27q0 17 4.5 27t15.5 10v-75z" />
    <glyph glyph-name="uni066E.init" horiz-adv-x="231" 
d="M95 0l3 42l-3 32.5t-6 83.5t-3 107v88l72 9l3 -8v-107q0 -41 2.5 -82t5 -75.5t5 -55l2.5 -20.5l-15 -14h-66zM0 0v75h106v-75h-106zM0 0q-11 0 -15.5 11t-4.5 27q0 17 4.5 27t15.5 10v-75z" />
    <glyph glyph-name="uni066E.init.high" horiz-adv-x="231" 
d="M86 342v106l72 9l3 -8v-107h-75zM95 0l3 42l-3 32.5t-6 83.5t-3 107v88l72 9l3 -8v-107q0 -41 2.5 -82t5 -75.5t5 -55l2.5 -20.5l-15 -14h-66zM0 0v75h106v-75h-106zM0 0q-11 0 -15.5 11t-4.5 27q0 17 4.5 27t15.5 10v-75z" />
    <glyph glyph-name="uni062D" unicode="&#x62d;" horiz-adv-x="708" 
d="M574 4q-63 17 -128 47t-126.5 71.5t-116.5 91t-99 104.5l55 44h7q32 -39 79.5 -84t107 -87t128 -74.5t141.5 -47.5zM279 0v75h41q25 0 49.5 -1.5t40.5 -3.5l16 -2l94 7h128v-7l-21 -68h-348zM282 -200q-77 0 -131 20t-82.5 53.5t-28.5 74.5q0 64 65.5 95.5t173.5 31.5
v-75q-78 0 -123.5 -14.5t-53.5 -39.5q8 -31 58 -51t120 -20q15 0 34.5 1t40.5 2l13 -64v-10q-24 -2 -46.5 -3t-39.5 -1z" />
    <glyph glyph-name="uni062D.fina" horiz-adv-x="676" 
d="M590 0v75h86v-75h-86zM676 0v75q12 0 16 -10t4 -27q0 -16 -4 -27t-16 -11zM574 4q-63 17 -128 47t-126.5 71.5t-116.5 91t-99 104.5l55 44h7q32 -39 79.5 -84t107 -87t128 -74.5t141.5 -47.5zM279 0v75h41q25 0 49.5 -1.5t40.5 -3.5l16 -2l94 7h128v-7l-21 -68h-348z
M282 -200q-77 0 -131 20t-82.5 53.5t-28.5 74.5q0 64 65.5 95.5t173.5 31.5v-75q-78 0 -123.5 -14.5t-53.5 -39.5q8 -31 58 -51t120 -20q15 0 34.5 1t40.5 2l13 -64v-10q-24 -2 -46.5 -3t-39.5 -1z" />
    <glyph glyph-name="uni062D.medi" horiz-adv-x="625" 
d="M539 0v75h86v-75h-86zM625 0v75q12 0 16 -10t4 -27q0 -16 -4 -27t-16 -11zM523 4q-63 17 -128 47t-126.5 71.5t-116.5 91t-99 104.5l55 44h7q32 -39 79.5 -84t107 -87t128 -74.5t141.5 -47.5zM0 0v75h269q25 0 49.5 -1.5t40.5 -3.5l16 -2l94 7h128v-7l-21 -68h-576zM0 0
q-11 0 -15.5 11t-4.5 27q0 17 4.5 27t15.5 10v-75z" />
    <glyph glyph-name="uni062D.init" horiz-adv-x="657" 
d="M523 4q-63 17 -128 47t-126.5 71.5t-116.5 91t-99 104.5l55 44h7q32 -39 79.5 -84t107 -87t128 -74.5t141.5 -47.5zM0 0v75h269q25 0 49.5 -1.5t40.5 -3.5l16 -2l94 7h128v-7l-21 -68h-576zM0 0q-11 0 -15.5 11t-4.5 27q0 17 4.5 27t15.5 10v-75z" />
    <glyph glyph-name="uni062F" unicode="&#x62f;" horiz-adv-x="542" 
d="M404 97q0 26 -14.5 47.5t-39.5 34t-57 12.5h-150v11l8 64h142q51 0 93.5 -22t67.5 -60t25 -87h-75zM28 0l-3 6l37 69h118v-75h-152zM62 0v75h251q25 0 49.5 -1.5t40.5 -3.5l16 -2v-68h-357zM111 191l-3 6l37 69h118v-75h-152zM413 0q-2 13 -5.5 36t-3.5 61h75
q0 -33 3 -52t5 -31l-15 -14h-59z" />
    <glyph glyph-name="uni062F.fina" horiz-adv-x="565" 
d="M446 0v75h119v-75h-119zM565 0v75q12 0 16 -10t4 -27q0 -16 -4 -27t-16 -11zM404 97q0 26 -14.5 47.5t-39.5 34t-57 12.5h-150v11l8 64h142q51 0 93.5 -22t67.5 -60t25 -87h-75zM28 0l-3 6l37 69h118v-75h-152zM62 0v75h251q25 0 49.5 -1.5t40.5 -3.5l16 -2v-68h-357z
M111 191l-3 6l37 69h118v-75h-152zM413 0q-2 13 -5.5 36t-3.5 61h75q0 -33 3 -52t5 -31l-15 -14h-59z" />
    <glyph glyph-name="uni0631" unicode="&#x631;" horiz-adv-x="247" 
d="M0 -200v75q62 0 89.5 35.5t27.5 124.5v318l72 9l3 -8v-319q0 -71 -18.5 -124t-60.5 -82t-113 -29z" />
    <glyph glyph-name="uni0631.fina" horiz-adv-x="278" 
d="M169 0v75h109v-75h-109zM278 0v75q12 0 16 -10t4 -27q0 -16 -4 -27t-16 -11zM0 -200v75q62 0 89.5 35.5t27.5 124.5v318l72 9l3 -8v-319q0 -71 -18.5 -124t-60.5 -82t-113 -29z" />
    <glyph glyph-name="uni0633" unicode="&#x633;" horiz-adv-x="1026" 
d="M282 -232q-109 0 -173 69t-64 191h75q0 -90 42 -137.5t120 -47.5q80 0 125.5 48.5t45.5 136.5h75q0 -81 -31.5 -139.5t-86.5 -89.5t-128 -31zM45 28v55l72 10l3 -8v-57h-75zM453 28v230l72 9l3 -8v-231h-75zM480 0v75h421v-75h-421zM676 0l3 42l-3 32.5t-6 83.5t-3 107
v41l72 9l3 -8v-60q0 -41 2.5 -82t5 -75.5t5 -55l2.5 -20.5l-15 -14h-66zM890 0l3 42l-3 32.5t-6 83.5t-3 107v88l72 9l3 -8v-107q0 -41 2.5 -82t5 -75.5t5 -55l2.5 -20.5l-15 -14h-66z" />
    <glyph glyph-name="uni0633.fina" horiz-adv-x="1042" 
d="M955 0v75h87v-75h-87zM1042 0v75q12 0 16 -10t4 -27q0 -16 -4 -27t-16 -11zM282 -232q-109 0 -173 69t-64 191h75q0 -90 42 -137.5t120 -47.5q80 0 125.5 48.5t45.5 136.5h75q0 -81 -31.5 -139.5t-86.5 -89.5t-128 -31zM45 28v55l72 10l3 -8v-57h-75zM453 28v230l72 9
l3 -8v-231h-75zM480 0v75h421v-75h-421zM676 0l3 42l-3 32.5t-6 83.5t-3 107v41l72 9l3 -8v-60q0 -41 2.5 -82t5 -75.5t5 -55l2.5 -20.5l-15 -14h-66zM890 0l3 42l-3 32.5t-6 83.5t-3 107v88l72 9l3 -8v-107q0 -41 2.5 -82t5 -75.5t5 -55l2.5 -20.5l-15 -14h-66z" />
    <glyph glyph-name="uni0633.medi" horiz-adv-x="675" 
d="M578 0v75h97v-75h-97zM675 0v75q12 0 16 -10t4 -27q0 -16 -4 -27t-16 -11zM0 0v75h534v-75h-534zM309 0l3 42l-3 32.5t-6 83.5t-3 107v41l72 9l3 -8v-60q0 -41 2.5 -82t5 -75.5t5 -55l2.5 -20.5l-15 -14h-66zM95 0l3 42l-3 32t-6 80t-3 96v8l72 9l3 -8v-27q0 -35 2.5 -73
t5 -71t5 -53.5l2.5 -20.5l-15 -14h-66zM523 0l3 42l-3 32.5t-6 83.5t-3 107v88l72 9l3 -8v-107q0 -41 2.5 -82t5 -75.5t5 -55l2.5 -20.5l-15 -14h-66zM0 0q-11 0 -15.5 11t-4.5 27q0 17 4.5 27t15.5 10v-75z" />
    <glyph glyph-name="uni0633.init" horiz-adv-x="659" 
d="M0 0v75h534v-75h-534zM309 0l3 42l-3 32.5t-6 83.5t-3 107v41l72 9l3 -8v-60q0 -41 2.5 -82t5 -75.5t5 -55l2.5 -20.5l-15 -14h-66zM95 0l3 42l-3 32t-6 80t-3 96v8l72 9l3 -8v-27q0 -35 2.5 -73t5 -71t5 -53.5l2.5 -20.5l-15 -14h-66zM523 0l3 42l-3 32.5t-6 83.5
t-3 107v88l72 9l3 -8v-107q0 -41 2.5 -82t5 -75.5t5 -55l2.5 -20.5l-15 -14h-66zM0 0q-11 0 -15.5 11t-4.5 27q0 17 4.5 27t15.5 10v-75z" />
    <glyph glyph-name="uni0635" unicode="&#x635;" horiz-adv-x="1205" 
d="M453 0v353l72 9l3 -8v-354h-75zM498 191v75h381v-75h-381zM498 0v75h381v-75h-381zM282 -231q-109 0 -173 69t-64 191h75q0 -90 42 -137.5t120 -47.5q80 0 125.5 48.5t45.5 136.5h75q0 -81 -31.5 -139.5t-86.5 -89.5t-128 -31zM45 29v55l72 10l3 -8v-57h-75zM453 29v324
l72 9l3 -8v-325h-75zM1067 97q0 26 -14.5 47.5t-39.5 34t-57 12.5h-150v11l8 64h142q51 0 93.5 -22t67.5 -60t25 -87h-75zM691 0l-3 6l37 69h118v-75h-152zM725 0v75h251q25 0 49.5 -1.5t40.5 -3.5l16 -2v-68h-357zM774 191l-3 6l37 69h118v-75h-152zM1076 0q-2 13 -5.5 36
t-3.5 61h75q0 -33 3 -52t5 -31l-15 -14h-59z" />
    <glyph glyph-name="uni0635.fina" horiz-adv-x="1228" 
d="M1073 0v75h155v-75h-155zM1228 0v75q12 0 16 -10t4 -27q0 -16 -4 -27t-16 -11zM453 0v353l72 9l3 -8v-354h-75zM498 191v75h381v-75h-381zM498 0v75h381v-75h-381zM282 -231q-109 0 -173 69t-64 191h75q0 -90 42 -137.5t120 -47.5q80 0 125.5 48.5t45.5 136.5h75
q0 -81 -31.5 -139.5t-86.5 -89.5t-128 -31zM45 29v55l72 10l3 -8v-57h-75zM453 29v324l72 9l3 -8v-325h-75zM1067 97q0 26 -14.5 47.5t-39.5 34t-57 12.5h-150v11l8 64h142q51 0 93.5 -22t67.5 -60t25 -87h-75zM691 0l-3 6l37 69h118v-75h-152zM725 0v75h251q25 0 49.5 -1.5
t40.5 -3.5l16 -2v-68h-357zM774 191l-3 6l37 69h118v-75h-152zM1076 0q-2 13 -5.5 36t-3.5 61h75q0 -33 3 -52t5 -31l-15 -14h-59z" />
    <glyph glyph-name="uni0635.medi" horiz-adv-x="861" 
d="M706 0v75h155v-75h-155zM861 0v75q12 0 16 -10t4 -27q0 -16 -4 -27t-16 -11zM86 0v353l72 9l3 -8v-354h-75zM0 0v75h161v-75h-161zM0 0q-11 0 -15.5 11t-4.5 27q0 17 4.5 27t15.5 10v-75zM131 191v75h381v-75h-381zM131 0v75h381v-75h-381zM700 97q0 26 -14.5 47.5
t-39.5 34t-57 12.5h-150v11l8 64h142q51 0 93.5 -22t67.5 -60t25 -87h-75zM324 0l-3 6l37 69h118v-75h-152zM358 0v75h251q25 0 49.5 -1.5t40.5 -3.5l16 -2v-68h-357zM407 191l-3 6l37 69h118v-75h-152zM709 0q-2 13 -5.5 36t-3.5 61h75q0 -33 3 -52t5 -31l-15 -14h-59z" />
    <glyph glyph-name="uni0635.init" horiz-adv-x="838" 
d="M86 0v353l72 9l3 -8v-354h-75zM0 0v75h161v-75h-161zM0 0q-11 0 -15.5 11t-4.5 27q0 17 4.5 27t15.5 10v-75zM131 191v75h381v-75h-381zM131 0v75h381v-75h-381zM700 97q0 26 -14.5 47.5t-39.5 34t-57 12.5h-150v11l8 64h142q51 0 93.5 -22t67.5 -60t25 -87h-75zM324 0
l-3 6l37 69h118v-75h-152zM358 0v75h251q25 0 49.5 -1.5t40.5 -3.5l16 -2v-68h-357zM407 191l-3 6l37 69h118v-75h-152zM709 0q-2 13 -5.5 36t-3.5 61h75q0 -33 3 -52t5 -31l-15 -14h-59z" />
    <glyph glyph-name="uni0637" unicode="&#x637;" horiz-adv-x="872" 
d="M120 0v746l72 9l3 -8v-747h-75zM43 0l-3 6l37 69h118v-75h-152zM165 191v75h381v-75h-381zM165 0v75h381v-75h-381zM734 97q0 26 -14.5 47.5t-39.5 34t-57 12.5h-150v11l8 64h142q51 0 93.5 -22t67.5 -60t25 -87h-75zM358 0l-3 6l37 69h118v-75h-152zM392 0v75h251
q25 0 49.5 -1.5t40.5 -3.5l16 -2v-68h-357zM441 191l-3 6l37 69h118v-75h-152zM743 0q-2 13 -5.5 36t-3.5 61h75q0 -33 3 -52t5 -31l-15 -14h-59z" />
    <glyph glyph-name="uni0637.fina" horiz-adv-x="895" 
d="M759 0v75h136v-75h-136zM895 0v75q12 0 16 -10t4 -27q0 -16 -4 -27t-16 -11zM120 0v746l72 9l3 -8v-747h-75zM43 0l-3 6l37 69h118v-75h-152zM165 191v75h381v-75h-381zM165 0v75h381v-75h-381zM734 97q0 26 -14.5 47.5t-39.5 34t-57 12.5h-150v11l8 64h142
q51 0 93.5 -22t67.5 -60t25 -87h-75zM358 0l-3 6l37 69h118v-75h-152zM392 0v75h251q25 0 49.5 -1.5t40.5 -3.5l16 -2v-68h-357zM441 191l-3 6l37 69h118v-75h-152zM743 0q-2 13 -5.5 36t-3.5 61h75q0 -33 3 -52t5 -31l-15 -14h-59z" />
    <glyph glyph-name="uni0637.medi" horiz-adv-x="861" 
d="M729 0v75h132v-75h-132zM861 0v75q12 0 16 -10t4 -27q0 -16 -4 -27t-16 -11zM0 0v75h82v-75h-82zM0 0q-11 0 -15.5 11t-4.5 27q0 17 4.5 27t15.5 10v-75zM86 0v746l72 9l3 -8v-747h-75zM9 0l-3 6l37 69h118v-75h-152zM131 191v75h381v-75h-381zM131 0v75h381v-75h-381z
M700 97q0 26 -14.5 47.5t-39.5 34t-57 12.5h-150v11l8 64h142q51 0 93.5 -22t67.5 -60t25 -87h-75zM324 0l-3 6l37 69h118v-75h-152zM358 0v75h251q25 0 49.5 -1.5t40.5 -3.5l16 -2v-68h-357zM407 191l-3 6l37 69h118v-75h-152zM709 0q-2 13 -5.5 36t-3.5 61h75q0 -33 3 -52
t5 -31l-15 -14h-59z" />
    <glyph glyph-name="uni0637.init" horiz-adv-x="838" 
d="M0 0v75h82v-75h-82zM0 0q-11 0 -15.5 11t-4.5 27q0 17 4.5 27t15.5 10v-75zM86 0v746l72 9l3 -8v-747h-75zM9 0l-3 6l37 69h118v-75h-152zM131 191v75h381v-75h-381zM131 0v75h381v-75h-381zM700 97q0 26 -14.5 47.5t-39.5 34t-57 12.5h-150v11l8 64h142q51 0 93.5 -22
t67.5 -60t25 -87h-75zM324 0l-3 6l37 69h118v-75h-152zM358 0v75h251q25 0 49.5 -1.5t40.5 -3.5l16 -2v-68h-357zM407 191l-3 6l37 69h118v-75h-152zM709 0q-2 13 -5.5 36t-3.5 61h75q0 -33 3 -52t5 -31l-15 -14h-59z" />
    <glyph glyph-name="uni0639" unicode="&#x639;" horiz-adv-x="535" 
d="M157 40q-32 49 -32 94q0 38 20 70t52 60t69.5 52t72.5 46h7l37 -61q-56 -34 -92 -61t-56.5 -49t-29 -39t-8.5 -30q0 -19 12 -33t32 -14zM192 0v75h278v-7l-21 -68h-257zM282 -200q-77 0 -131 20t-82.5 53.5t-28.5 74.5q0 64 65.5 95.5t173.5 31.5v-75q-78 0 -123.5 -14.5
t-53.5 -39.5q8 -31 58 -51t120 -20q21 0 49 1.5t56 3.5l13 -63v-10q-20 -2 -41.5 -4t-40.5 -2.5t-34 -0.5z" />
    <glyph glyph-name="uni0639.fina" horiz-adv-x="554" 
d="M282 -200q-77 0 -131 20t-82.5 53.5t-28.5 74.5q0 40 25 64t65 39.5t84 29.5q36 11 70.5 24t62.5 30.5t45 42t17 58.5q0 37 -24 55.5t-77 18.5q-41 0 -81 -10.5t-75 -28.5l1 -13q41 -22 69 -53t44 -54q18 -24 32.5 -39t29 -23t33.5 -11t47 -3h146v-75h-146
q-61 0 -97.5 14.5t-60 39t-44.5 52.5q-24 32 -51.5 60t-73.5 41l-6 98l3 8q44 32 105.5 52t122.5 20q79 0 128.5 -37t49.5 -112q0 -54 -25 -92.5t-64.5 -64.5t-85.5 -43.5t-88 -31.5q-30 -9 -55 -18.5t-41.5 -19.5t-21.5 -23q10 -30 59.5 -49t119.5 -19q19 0 47 1.5t56 3.5
l13 -63v-10q-20 -2 -41.5 -4t-40.5 -2.5t-34 -0.5zM554 0v75q12 0 16 -10t4 -27q0 -16 -4 -27t-16 -11z" />
    <glyph glyph-name="uni0639.medi" horiz-adv-x="524" 
d="M0 0v75h123q50 0 96 14t82 38t57 54t21 61q0 32 -25.5 50t-78.5 18q-38 0 -78 -10.5t-75 -28.5l1 -13q41 -22 68.5 -53t44.5 -54q18 -24 32 -39t29 -23t34.5 -11t46.5 -3h146v-75h-146q-61 0 -97.5 14.5t-60 39t-44.5 52.5q-22 30 -50 59t-75 42l-6 98l3 8
q44 32 105.5 52t121.5 20q80 0 129.5 -37t49.5 -106q0 -52 -28.5 -96.5t-77 -77t-107 -50.5t-118.5 -18h-123zM0 0q-11 0 -15.5 11t-4.5 27q0 17 4.5 27t15.5 10v-75zM524 0v75q12 0 16 -10t4 -27q0 -16 -4 -27t-16 -11z" />
    <glyph glyph-name="uni0639.init" horiz-adv-x="475" 
d="M97 40q-32 49 -32 94q0 38 20 70t52 60t69.5 52t72.5 46h7l37 -61q-56 -34 -92 -61t-56.5 -49t-29 -39t-8.5 -30q0 -19 12 -33t32 -14zM0 0v75h3q25 0 49.5 -1.5t40.5 -3.5l16 -2l23 7h278v-7l-21 -68h-389zM0 0q-11 0 -15.5 11t-4.5 27q0 17 4.5 27t15.5 10v-75z" />
    <glyph glyph-name="uni06A1" unicode="&#x6a1;" horiz-adv-x="961" 
d="M468 0q-75 0 -151.5 5.5t-144.5 21.5t-117 47l36 59h11q50 -30 139 -44t227 -14h274q25 0 49.5 -1.5t40.5 -3.5l16 -2h-20v8v8q-1 106 -31.5 164t-84.5 58q-27 0 -50.5 -14.5t-37.5 -41.5t-14 -64q0 -52 32.5 -81.5t97.5 -29.5v-56q-75 0 -120 25t-65 65t-20 84
q0 55 24.5 97t65.5 66.5t89 24.5q62 0 104 -39t63.5 -106t21.5 -152q0 -19 1 -39t2 -35l-7 -10h-431z" />
    <glyph glyph-name="uni06A1.fina" horiz-adv-x="989" 
d="M875 0v75h114v-75h-114zM989 0v75q12 0 16 -10t4 -27q0 -16 -4 -27t-16 -11zM468 0q-75 0 -151.5 5.5t-144.5 21.5t-117 47l36 59h11q50 -30 139 -44t227 -14h274q25 0 49.5 -1.5t40.5 -3.5l16 -2h-20v8v8q-1 106 -31.5 164t-84.5 58q-27 0 -50.5 -14.5t-37.5 -41.5
t-14 -64q0 -52 32.5 -81.5t97.5 -29.5v-56q-75 0 -120 25t-65 65t-20 84q0 55 24.5 97t65.5 66.5t89 24.5q62 0 104 -39t63.5 -106t21.5 -152q0 -19 1 -39t2 -35l-7 -10h-431z" />
    <glyph glyph-name="uni06A1.medi" horiz-adv-x="509" 
d="M383 0v75h126v-75h-126zM509 0v75q12 0 16 -10t4 -27q0 -16 -4 -27t-16 -11zM0 0v75h262q25 0 49.5 -1.5t40.5 -3.5l16 -2h-20v8v8q-1 106 -31.5 164t-84.5 58q-27 0 -50.5 -14.5t-37.5 -41.5t-14 -64q0 -52 32.5 -81.5t97.5 -29.5v-56q-75 0 -120 25t-65 65t-20 84
q0 55 24.5 97t65.5 66.5t89 24.5q62 0 104 -39t63.5 -106t21.5 -152q0 -19 1 -39t2 -35l-7 -10h-419zM0 0q-11 0 -15.5 11t-4.5 27q0 17 4.5 27t15.5 10v-75z" />
    <glyph glyph-name="uni06A1.init" horiz-adv-x="481" 
d="M0 0v75h262q25 0 49.5 -1.5t40.5 -3.5l16 -2h-20v8v8q-1 106 -31.5 164t-84.5 58q-27 0 -50.5 -14.5t-37.5 -41.5t-14 -64q0 -52 32.5 -81.5t97.5 -29.5v-56q-75 0 -120 25t-65 65t-20 84q0 55 24.5 97t65.5 66.5t89 24.5q62 0 104 -39t63.5 -106t21.5 -152q0 -19 1 -39
t2 -35l-7 -10h-419zM0 0q-11 0 -15.5 11t-4.5 27q0 17 4.5 27t15.5 10v-75z" />
    <glyph glyph-name="uni066F" unicode="&#x66f;" horiz-adv-x="615" 
d="M301 -231q-121 0 -188.5 69t-67.5 191h75q0 -91 46 -138t135 -47q63 0 104 25t60.5 78.5t19.5 136.5h75q0 -51 -10 -106t-37 -102.5t-78 -77t-134 -29.5zM45 29v55l72 10l3 -8v-57h-75zM386 0q-70 0 -113 28t-62 71.5t-19 89.5q0 57 24.5 100.5t65.5 67.5t89 24
q62 0 104 -39t63.5 -106t21.5 -152h-75q0 105 -31.5 163.5t-85.5 58.5q-27 0 -50 -14.5t-37 -41.5t-14 -64q0 -52 32.5 -81.5t97.5 -29.5q38 0 64.5 9.5t42.5 27.5l20 -59q-20 -22 -53 -37.5t-85 -15.5z" />
    <glyph glyph-name="uni066F.fina" horiz-adv-x="646" 
d="M386 0q-70 0 -113 28t-62 71.5t-19 89.5q0 57 24.5 100.5t65.5 67.5t89 24q62 0 104 -39t63.5 -106t21.5 -152h-75q0 105 -31.5 163.5t-85.5 58.5q-27 0 -50 -14.5t-37 -41.5t-14 -64q0 -52 32.5 -81.5t97.5 -29.5h249v-75h-260zM301 -231q-121 0 -188.5 69t-67.5 191h75
q0 -91 46 -138t135 -47q63 0 104 25t60.5 78.5t19.5 136.5h75q0 -51 -10 -106t-37 -102.5t-78 -77t-134 -29.5zM45 29v55l72 10l3 -8v-57h-75zM646 0v75q12 0 16 -10t4 -27q0 -16 -4 -27t-16 -11z" />
    <glyph glyph-name="kafDotlessar" horiz-adv-x="821" 
d="M468 0q-75 0 -151.5 5.5t-144.5 21.5t-117 47l36 59h11q50 -30 139 -44t227 -14h218v-75h-218zM676 305v441l72 9l3 -8v-442h-75zM685 0l3 42l-3 32.5t-6 83.5t-3 107v88l72 9l3 -8v-107q0 -41 2.5 -82t5 -75.5t5 -55l2.5 -20.5l-15 -14h-66zM590 0v75h106v-75h-106z
M590 0q-11 0 -15.5 11t-4.5 27q0 17 4.5 27t15.5 10v-75z" />
    <glyph glyph-name="kafDotlessar.fina" horiz-adv-x="846" 
d="M720 0v75h126v-75h-126zM846 0v75q12 0 16 -10t4 -27q0 -16 -4 -27t-16 -11zM468 0q-75 0 -151.5 5.5t-144.5 21.5t-117 47l36 59h11q50 -30 139 -44t227 -14h218v-75h-218zM676 305v441l72 9l3 -8v-442h-75zM685 0l3 42l-3 32.5t-6 83.5t-3 107v88l72 9l3 -8v-107
q0 -41 2.5 -82t5 -75.5t5 -55l2.5 -20.5l-15 -14h-66zM590 0v75h106v-75h-106zM590 0q-11 0 -15.5 11t-4.5 27q0 17 4.5 27t15.5 10v-75z" />
    <glyph glyph-name="uni0643.medi" horiz-adv-x="749" 
d="M632 0v75h117v-75h-117zM749 0v75q12 0 16 -10t4 -27q0 -16 -4 -27t-16 -11zM101 223l-60 43l263 379h11l62 -38zM0 0v75h497q25 0 49.5 -1.5t40.5 -3.5l16 -2v-68h-603zM87 191l-46 75h396v-75h-350zM588 97q0 26 -14.5 47.5t-39.5 34t-57 12.5h-198v11l8 64h190
q51 0 93.5 -22t67.5 -60t25 -87h-75zM597 0q-2 13 -5.5 36t-3.5 61h75q0 -33 3 -52t5 -31l-15 -14h-59zM0 0q-11 0 -15.5 11t-4.5 27q0 17 4.5 27t15.5 10v-75z" />
    <glyph glyph-name="uni0643.init" horiz-adv-x="726" 
d="M101 223l-60 43l263 379h11l62 -38zM0 0v75h497q25 0 49.5 -1.5t40.5 -3.5l16 -2v-68h-603zM87 191l-46 75h396v-75h-350zM588 97q0 26 -14.5 47.5t-39.5 34t-57 12.5h-198v11l8 64h190q51 0 93.5 -22t67.5 -60t25 -87h-75zM597 0q-2 13 -5.5 36t-3.5 61h75q0 -33 3 -52
t5 -31l-15 -14h-59zM0 0q-11 0 -15.5 11t-4.5 27q0 17 4.5 27t15.5 10v-75z" />
    <glyph glyph-name="uni06A9" unicode="&#x6a9;" horiz-adv-x="821" 
d="M293 223l-60 43l263 379h11l62 -38zM468 0q-75 0 -151.5 5.5t-144.5 21.5t-117 47l36 59h11q50 -30 139 -44t227 -14h78v-75h-78zM546 0v75h46q25 0 49.5 -1.5t40.5 -3.5l16 -2v-68h-152zM683 97q0 26 -14.5 47.5t-39.5 34t-57 12.5h-101v11l8 64h93q51 0 93.5 -22
t67.5 -60t25 -87h-75zM692 0q-2 13 -5.5 36t-3.5 61h75q0 -33 3 -52t5 -31l-15 -14h-59zM279 191l-46 75h299v-75h-253z" />
    <glyph glyph-name="uni06A9.fina" horiz-adv-x="845" 
d="M739 0v75h106v-75h-106zM845 0v75q12 0 16 -10t4 -27q0 -16 -4 -27t-16 -11zM293 223l-60 43l263 379h11l62 -38zM468 0q-75 0 -151.5 5.5t-144.5 21.5t-117 47l36 59h11q50 -30 139 -44t227 -14h78v-75h-78zM546 0v75h46q25 0 49.5 -1.5t40.5 -3.5l16 -2v-68h-152z
M683 97q0 26 -14.5 47.5t-39.5 34t-57 12.5h-101v11l8 64h93q51 0 93.5 -22t67.5 -60t25 -87h-75zM692 0q-2 13 -5.5 36t-3.5 61h75q0 -33 3 -52t5 -31l-15 -14h-59zM279 191l-46 75h299v-75h-253z" />
    <glyph glyph-name="uni06AA" unicode="&#x6aa;" horiz-adv-x="1091" 
d="M816 0v75h46q25 0 49.5 -1.5t40.5 -3.5l16 -2v-68h-152zM962 0q-2 13 -5.5 36t-3.5 61h75q0 -33 3 -52t5 -31l-15 -14h-59zM279 191l-46 75h569v-75h-523zM293 223l-60 43l159 229h11l59 -37zM468 0q-75 0 -151.5 5.5t-144.5 21.5t-117 47l36 59h11q50 -30 139 -44
t227 -14h348v-75h-348zM953 97q0 26 -14.5 47.5t-39.5 34t-57 12.5h-371v11l8 64h363q51 0 93.5 -22t67.5 -60t25 -87h-75z" />
    <glyph glyph-name="uni06AA.fina" horiz-adv-x="1115" 
d="M997 0v75h118v-75h-118zM1115 0v75q12 0 16 -10t4 -27q0 -16 -4 -27t-16 -11zM816 0v75h46q25 0 49.5 -1.5t40.5 -3.5l16 -2v-68h-152zM962 0q-2 13 -5.5 36t-3.5 61h75q0 -33 3 -52t5 -31l-15 -14h-59zM279 191l-46 75h569v-75h-523zM293 223l-60 43l159 229h11l59 -37z
M468 0q-75 0 -151.5 5.5t-144.5 21.5t-117 47l36 59h11q50 -30 139 -44t227 -14h348v-75h-348zM953 97q0 26 -14.5 47.5t-39.5 34t-57 12.5h-371v11l8 64h363q51 0 93.5 -22t67.5 -60t25 -87h-75z" />
    <glyph glyph-name="uni06AA.medi" horiz-adv-x="922" 
d="M805 0v75h117v-75h-117zM922 0v75q12 0 16 -10t4 -27q0 -16 -4 -27t-16 -11zM761 97q0 26 -14.5 47.5t-39.5 34t-57 12.5h-371v11l8 64h363q51 0 93.5 -22t67.5 -60t25 -87h-75zM0 0v75h624v-75h-624zM101 223l-60 43l159 229h11l59 -37zM87 191l-46 75h569v-75h-523z
M624 0v75h46q25 0 49.5 -1.5t40.5 -3.5l16 -2v-68h-152zM770 0q-2 13 -5.5 36t-3.5 61h75q0 -33 3 -52t5 -31l-15 -14h-59zM0 0q-11 0 -15.5 11t-4.5 27q0 17 4.5 27t15.5 10v-75z" />
    <glyph glyph-name="uni06AA.init" horiz-adv-x="899" 
d="M761 97q0 26 -14.5 47.5t-39.5 34t-57 12.5h-371v11l8 64h363q51 0 93.5 -22t67.5 -60t25 -87h-75zM0 0v75h624v-75h-624zM101 223l-60 43l159 229h11l59 -37zM87 191l-46 75h569v-75h-523zM624 0v75h46q25 0 49.5 -1.5t40.5 -3.5l16 -2v-68h-152zM770 0q-2 13 -5.5 36
t-3.5 61h75q0 -33 3 -52t5 -31l-15 -14h-59zM0 0q-11 0 -15.5 11t-4.5 27q0 17 4.5 27t15.5 10v-75z" />
    <glyph glyph-name="uni0644" unicode="&#x644;" horiz-adv-x="583" 
d="M453 212v534l72 9l3 -8v-535h-75zM282 -231q-109 0 -173 69t-64 191h75q0 -90 42 -137.5t120 -47.5q80 0 125.5 48.5t45.5 136.5h75q0 -81 -31.5 -139.5t-86.5 -89.5t-128 -31zM45 29v55l72 10l3 -8v-57h-75zM453 29v324l72 9l3 -8v-325h-75z" />
    <glyph glyph-name="uni0644.fina" horiz-adv-x="614" 
d="M507 0v75h107v-75h-107zM614 0v75q12 0 16 -10t4 -27q0 -16 -4 -27t-16 -11zM453 212v534l72 9l3 -8v-535h-75zM282 -231q-109 0 -173 69t-64 191h75q0 -90 42 -137.5t120 -47.5q80 0 125.5 48.5t45.5 136.5h75q0 -81 -31.5 -139.5t-86.5 -89.5t-128 -31zM45 29v55l72 10
l3 -8v-57h-75zM453 29v324l72 9l3 -8v-325h-75z" />
    <glyph glyph-name="uni0644.medi" horiz-adv-x="247" 
d="M131 0v75h116v-75h-116zM247 0v75q12 0 16 -10t4 -27q0 -16 -4 -27t-16 -11zM86 0v746l72 9l3 -8v-733l-15 -14h-60zM0 0v75h120v-75h-120zM0 0q-11 0 -15.5 11t-4.5 27q0 17 4.5 27t15.5 10v-75z" />
    <glyph glyph-name="uni0644.init" horiz-adv-x="231" 
d="M86 0v746l72 9l3 -8v-733l-15 -14h-60zM0 0v75h120v-75h-120zM0 0q-11 0 -15.5 11t-4.5 27q0 17 4.5 27t15.5 10v-75z" />
    <glyph glyph-name="uni0645" unicode="&#x645;" horiz-adv-x="703" 
d="M53 0l-3 6l37 69h263v-75h-297zM454 -15q-36 0 -72.5 11.5t-71.5 33.5l41 63q26 -16 51.5 -24.5t51.5 -8.5q35 0 62 14t42 39.5t15 58.5t-14 59t-37 41t-52 15t-52.5 -15.5t-36.5 -43.5t-13 -66q0 -28 6 -53.5t17 -45.5l-66 -36q-15 27 -23.5 63t-8.5 72q0 66 26 110.5
t67 67t84 22.5q47 0 87.5 -24.5t65.5 -67t25 -98.5q0 -58 -27 -99.5t-71 -64.5t-96 -23zM207 0v75h169v-75h-169zM207 0q-11 0 -15.5 11t-4.5 27q0 17 4.5 27t15.5 10v-75z" />
    <glyph glyph-name="uni0645.ss01" horiz-adv-x="557" 
d="M173 0v75h147q47 0 77 30t30 76q0 49 -28 77.5t-75 28.5q-46 0 -74 -31t-28 -84q0 -28 5.5 -53t16.5 -48l-67 -33q-16 32 -23 67.5t-7 66.5q0 64 26 106t66.5 63t84.5 21q45 0 86 -20.5t66.5 -60.5t25.5 -100q0 -49 -22.5 -90t-63.5 -66t-96 -25h-147zM50 -290v213
q0 69 30 110.5t93 41.5v-75q-25 0 -36.5 -16t-11.5 -61v-213h-75z" />
    <glyph glyph-name="uni0645.fina" horiz-adv-x="714" 
d="M528 0v75h186v-75h-186zM714 0v75q12 0 16 -10t4 -27q0 -16 -4 -27t-16 -11zM53 0l-3 6l37 69h263v-75h-297zM454 -15q-36 0 -72.5 11.5t-71.5 33.5l41 63q26 -16 51.5 -24.5t51.5 -8.5q35 0 62 14t42 39.5t15 58.5t-14 59t-37 41t-52 15t-52.5 -15.5t-36.5 -43.5
t-13 -66q0 -28 6 -53.5t17 -45.5l-66 -36q-15 27 -23.5 63t-8.5 72q0 66 26 110.5t67 67t84 22.5q47 0 87.5 -24.5t65.5 -67t25 -98.5q0 -58 -27 -99.5t-71 -64.5t-96 -23zM207 0v75h169v-75h-169zM207 0q-11 0 -15.5 11t-4.5 27q0 17 4.5 27t15.5 10v-75z" />
    <glyph glyph-name="uni0645.fina.ss01" horiz-adv-x="567" 
d="M567 0q-52 0 -95 17.5t-72 39.5l46 59q53 -41 121 -41v-75zM567 0v75q11 0 15.5 -10t4.5 -27q0 -16 -4.5 -27t-15.5 -11zM173 0v75h147q47 0 77 30t30 76q0 49 -28 77.5t-75 28.5q-46 0 -74 -31t-28 -84q0 -28 5.5 -53t16.5 -48l-67 -33q-16 32 -23 67.5t-7 66.5
q0 64 26 106t66.5 63t84.5 21q45 0 86 -20.5t66.5 -60.5t25.5 -100q0 -49 -22.5 -90t-63.5 -66t-96 -25h-147zM50 -290v213q0 69 30 110.5t93 41.5v-75q-25 0 -36.5 -16t-11.5 -61v-213h-75z" />
    <glyph glyph-name="uni0645.medi" horiz-adv-x="526" 
d="M118 27q-15 27 -23.5 63t-8.5 72q0 66 26 110.5t67 67t84 22.5q44 0 84.5 -22.5t66.5 -67t26 -110.5q0 -36 -8.5 -72t-23.5 -63l-66 36q11 20 17 45.5t6 53.5q0 38 -13 66t-36 43.5t-53 15.5q-29 0 -52.5 -15.5t-36.5 -43.5t-13 -66q0 -28 6 -53.5t17 -45.5zM0 0v75h169
v-75h-169zM263 -31q-36 0 -72.5 11.5t-71.5 33.5l41 63q26 -16 51.5 -24.5t51.5 -8.5t52 8.5t51 24.5l41 -63q-34 -22 -71 -33.5t-73 -11.5zM357 0v75h169v-75h-169zM0 0q-11 0 -15.5 11t-4.5 27q0 17 4.5 27t15.5 10v-75zM526 0v75q12 0 16 -10t4 -27q0 -16 -4 -27t-16 -11
z" />
    <glyph glyph-name="uni0645.init" horiz-adv-x="496" 
d="M247 -15q-36 0 -72.5 11.5t-71.5 33.5l41 63q26 -16 51.5 -24.5t51.5 -8.5q35 0 62 14t42 39.5t15 58.5t-14 59t-37 41t-52 15t-52.5 -15.5t-36.5 -43.5t-13 -66q0 -28 6 -53.5t17 -45.5l-66 -36q-15 27 -23.5 63t-8.5 72q0 66 26 110.5t67 67t84 22.5q47 0 87.5 -24.5
t65.5 -67t25 -98.5q0 -58 -27 -99.5t-71 -64.5t-96 -23zM0 0v75h169v-75h-169zM0 0q-11 0 -15.5 11t-4.5 27q0 17 4.5 27t15.5 10v-75z" />
    <glyph glyph-name="uni06BA" unicode="&#x6ba;" horiz-adv-x="583" 
d="M282 -231q-109 0 -173 69t-64 191h75q0 -90 42 -137.5t120 -47.5q80 0 125.5 48.5t45.5 136.5h75q0 -81 -31.5 -139.5t-86.5 -89.5t-128 -31zM45 29v55l72 10l3 -8v-57h-75zM453 29v324l72 9l3 -8v-325h-75z" />
    <glyph glyph-name="uni06BA.fina" horiz-adv-x="614" 
d="M509 0v75h105v-75h-105zM614 0v75q12 0 16 -10t4 -27q0 -16 -4 -27t-16 -11zM282 -231q-109 0 -173 69t-64 191h75q0 -90 42 -137.5t120 -47.5q80 0 125.5 48.5t45.5 136.5h75q0 -81 -31.5 -139.5t-86.5 -89.5t-128 -31zM45 29v55l72 10l3 -8v-57h-75zM453 29v324l72 9
l3 -8v-325h-75z" />
    <glyph glyph-name="uni0647" unicode="&#x647;" horiz-adv-x="479" 
d="M228 0q-57 0 -98 24.5t-63 67.5t-22 96q0 46 15 82l7 6q83 25 152.5 52.5t126.5 58.5l37 -65q-57 -32 -130 -61t-165 -56l36 33q0 -9 -2 -21t-2 -29q0 -53 29 -83t81 -30q51 0 119 31l60 -54q-49 -26 -94.5 -39t-86.5 -13zM343 52l3 52l-3 32.5t-6 83.5t-3 107v88l72 9
l3 -8v-117q0 -41 2.5 -82t5 -75.5t5 -55l2.5 -20.5l-15 -14h-66z" />
    <glyph glyph-name="uni0647.fina" horiz-adv-x="495" 
d="M228 33q-57 0 -98 24.5t-63 67.5t-22 96q0 46 15 82l7 6q83 25 152.5 52.5t126.5 58.5l37 -65q-57 -32 -130 -61t-165 -56l36 33q0 -9 -2 -21.5t-2 -28.5q0 -35 13 -60.5t38 -39t59 -13.5q27 0 56 7.5t63 23.5l31 -68q-41 -19 -79 -28.5t-73 -9.5zM334 0v75h161v-75h-161
zM334 0v448l72 9l3 -8v-449h-75zM495 0v75q12 0 16 -10t4 -27q0 -16 -4 -27t-16 -11z" />
    <glyph glyph-name="uni0647.medi" horiz-adv-x="521" 
d="M410 0v75h111v-75h-111zM521 0v75q12 0 16 -10t4 -27q0 -16 -4 -27t-16 -11zM280 -150q-98 0 -157.5 73t-59.5 209q0 89 25.5 155.5t69 103.5t97.5 37q49 0 90 -28.5t65.5 -77.5t24.5 -109q0 -98 -71 -155.5t-203 -57.5h-50v75h50q100 0 149.5 35.5t49.5 102.5
q0 39 -14.5 71t-38 50.5t-51.5 18.5q-32 0 -59 -27.5t-43 -77.5t-16 -118q0 -101 37.5 -153t104.5 -52q29 0 60 7.5t68 23.5l-31 -42q-7 74 -12 157t-5 156v221l72 9l3 -8v-222q0 -78 5.5 -167t12.5 -166q-96 -44 -173 -44zM0 0v75h111v-75h-111zM0 0q-11 0 -15.5 11
t-4.5 27q0 17 4.5 27t15.5 10v-75z" />
    <glyph glyph-name="uni0647.init" horiz-adv-x="508" 
d="M280 -150q-98 0 -157.5 73t-59.5 209q0 89 25.5 155.5t69 103.5t97.5 37q49 0 90 -28.5t65.5 -77.5t24.5 -109q0 -98 -71 -155.5t-203 -57.5h-50v75h50q100 0 149.5 35.5t49.5 102.5q0 39 -14.5 71t-38 50.5t-51.5 18.5q-32 0 -59 -27.5t-43 -77.5t-16 -118
q0 -101 37.5 -153t104.5 -52q29 0 60 7.5t68 23.5l-31 -42q-7 74 -12 157t-5 156v221l72 9l3 -8v-222q0 -78 5.5 -167t12.5 -166q-96 -44 -173 -44zM0 0v75h111v-75h-111zM0 0q-11 0 -15.5 11t-4.5 27q0 17 4.5 27t15.5 10v-75z" />
    <glyph glyph-name="uni06C1" unicode="&#x6c1;" horiz-adv-x="479" 
d="M228 0q-57 0 -98 24.5t-63 67.5t-22 96q0 46 15 82l7 6q83 25 152.5 52.5t126.5 58.5l37 -65q-57 -32 -130 -61t-165 -56l36 33q0 -9 -2 -21t-2 -29q0 -53 29 -83t81 -30q51 0 119 31l60 -54q-49 -26 -94.5 -39t-86.5 -13zM343 52l3 52l-3 32.5t-6 83.5t-3 107v88l72 9
l3 -8v-117q0 -41 2.5 -82t5 -75.5t5 -55l2.5 -20.5l-15 -14h-66z" />
    <glyph glyph-name="uni06C1.fina" horiz-adv-x="499" 
d="M103 -36l-63 40l184 291h89zM499 0q-28 0 -62 10t-69.5 38.5t-68.5 83t-58 143.5l72 20q16 -55 35.5 -96.5t43 -69t50.5 -41t57 -13.5v-75zM499 0v75q12 0 16 -10t4 -27q0 -16 -4 -27t-16 -11z" />
    <glyph glyph-name="uni06C1.medi" horiz-adv-x="435" 
d="M260 -243q-51 47 -87 110.5t-55.5 138t-19.5 154.5q0 16 1 33.5t2 35.5h76q-2 -17 -3 -35t-1 -34q0 -53 9 -102.5t24 -92t33.5 -74.5t38.5 -50l-22 -8q6 71 26 125.5t56 85.5t88 31h9v-75h-9q-46 0 -71 -59t-26 -161l-62 -23h-7zM0 0v75q23 0 37.5 9t26.5 33.5t25 72.5
l15 56h7l66 -17l-31 -58q-20 -87 -52 -129t-94 -42zM0 0q-11 0 -15.5 11t-4.5 27q0 17 4.5 27t15.5 10v-75zM435 0v75q12 0 16 -10t4 -27q0 -16 -4 -27t-16 -11z" />
    <glyph glyph-name="uni06D5" unicode="&#x6d5;" horiz-adv-x="479" 
d="M228 0q-57 0 -98 24.5t-63 67.5t-22 96q0 46 15 82l7 6q83 25 152.5 52.5t126.5 58.5l37 -65q-57 -32 -130 -61t-165 -56l36 33q0 -9 -2 -21t-2 -29q0 -53 29 -83t81 -30q51 0 119 31l60 -54q-49 -26 -94.5 -39t-86.5 -13zM343 52l3 52l-3 32.5t-6 83.5t-3 107v88l72 9
l3 -8v-117q0 -41 2.5 -82t5 -75.5t5 -55l2.5 -20.5l-15 -14h-66z" />
    <glyph glyph-name="uni06BE" unicode="&#x6be;" horiz-adv-x="608" 
d="M43 0l-3 6l37 69h76v-75h-110zM380 -150q-98 0 -157.5 73t-59.5 209q0 89 25.5 155.5t69 103.5t97.5 37q49 0 90 -28.5t65.5 -77.5t24.5 -109q0 -98 -71 -155.5t-203 -57.5h-50v75h50q100 0 149.5 35.5t49.5 102.5q0 39 -14.5 71t-38 50.5t-51.5 18.5q-32 0 -59 -27.5
t-43 -77.5t-16 -118q0 -101 37.5 -153t104.5 -52q29 0 60 7.5t68 23.5l-31 -42q-7 74 -12 157t-5 156v221l72 9l3 -8v-222q0 -78 5.5 -167t12.5 -166q-96 -44 -173 -44zM100 0v75h111v-75h-111zM100 0q-11 0 -15.5 11t-4.5 27q0 17 4.5 27t15.5 10v-75z" />
    <glyph glyph-name="uni06BE.fina" horiz-adv-x="621" 
d="M43 0l-3 6l37 69h76v-75h-110zM510 0v75h111v-75h-111zM621 0v75q12 0 16 -10t4 -27q0 -16 -4 -27t-16 -11zM380 -150q-98 0 -157.5 73t-59.5 209q0 89 25.5 155.5t69 103.5t97.5 37q49 0 90 -28.5t65.5 -77.5t24.5 -109q0 -98 -71 -155.5t-203 -57.5h-50v75h50
q100 0 149.5 35.5t49.5 102.5q0 39 -14.5 71t-38 50.5t-51.5 18.5q-32 0 -59 -27.5t-43 -77.5t-16 -118q0 -101 37.5 -153t104.5 -52q29 0 60 7.5t68 23.5l-31 -42q-7 74 -12 157t-5 156v221l72 9l3 -8v-222q0 -78 5.5 -167t12.5 -166q-96 -44 -173 -44zM100 0v75h111v-75
h-111zM100 0q-11 0 -15.5 11t-4.5 27q0 17 4.5 27t15.5 10v-75z" />
    <glyph glyph-name="uni06BE.medi" horiz-adv-x="521" 
d="M410 0v75h111v-75h-111zM521 0v75q12 0 16 -10t4 -27q0 -16 -4 -27t-16 -11zM280 -150q-98 0 -157.5 73t-59.5 209q0 89 25.5 155.5t69 103.5t97.5 37q49 0 90 -28.5t65.5 -77.5t24.5 -109q0 -98 -71 -155.5t-203 -57.5h-50v75h50q100 0 149.5 35.5t49.5 102.5
q0 39 -14.5 71t-38 50.5t-51.5 18.5q-32 0 -59 -27.5t-43 -77.5t-16 -118q0 -101 37.5 -153t104.5 -52q29 0 60 7.5t68 23.5l-31 -42q-7 74 -12 157t-5 156v221l72 9l3 -8v-222q0 -78 5.5 -167t12.5 -166q-96 -44 -173 -44zM0 0v75h111v-75h-111zM0 0q-11 0 -15.5 11
t-4.5 27q0 17 4.5 27t15.5 10v-75z" />
    <glyph glyph-name="uni0648" unicode="&#x648;" horiz-adv-x="483" 
d="M255 0q-71 0 -114 28t-62 71t-19 89q0 58 24.5 101t65.5 67.5t89 24.5q62 0 104 -39t63.5 -106t21.5 -152h-75q0 105 -31.5 163.5t-85.5 58.5q-27 0 -50 -14.5t-37 -41.5t-14 -64q0 -52 32.5 -81.5t97.5 -29.5q38 0 64.5 9.5t42.5 27.5l26 -56q-21 -24 -55.5 -40
t-87.5 -16zM192 -200q-36 0 -67.5 6.5t-64.5 16.5l25 67h11q29 -8 51 -11.5t45 -3.5q83 0 122 49t39 160h75q0 -79 -21.5 -143.5t-73 -102.5t-141.5 -38z" />
    <glyph glyph-name="uni0648.fina" horiz-adv-x="515" 
d="M255 0q-71 0 -114 28t-62 71t-19 89q0 58 24.5 101t65.5 67.5t89 24.5q62 0 104 -39t63.5 -106t21.5 -152h-75q0 105 -31.5 163.5t-85.5 58.5q-27 0 -50 -14.5t-37 -41.5t-14 -64q0 -52 32.5 -81.5t97.5 -29.5h250v-75h-260zM192 -200q-36 0 -67.5 6.5t-64.5 16.5l25 67
h11q29 -8 51 -11.5t45 -3.5q83 0 122 49t39 160h75q0 -79 -21.5 -143.5t-73 -102.5t-141.5 -38zM515 0v75q12 0 16 -10t4 -27q0 -16 -4 -27t-16 -11z" />
    <glyph glyph-name="uni0649" unicode="&#x649;" horiz-adv-x="761" 
d="M292 -200q-83 0 -148.5 18t-103.5 36l30 64h11q47 -21 101.5 -32t109.5 -11q62 0 106.5 13.5t69 37t24.5 52.5q0 18 -13 42.5t-49 70.5q-39 50 -59.5 87t-20.5 77q0 65 48 108t121 65l74 -23q16 -54 31.5 -93.5t35.5 -70t47 -59.5l-55 -39h-11q-37 42 -63.5 91.5
t-47.5 118.5q-19 -6 -43.5 -18t-43 -31.5t-18.5 -48.5q0 -27 19.5 -56.5t44.5 -61.5q29 -37 53.5 -76.5t24.5 -82.5q0 -27 -13.5 -58t-45 -58.5t-84.5 -44.5t-132 -17z" />
    <glyph glyph-name="uni0649.fina" horiz-adv-x="799" 
d="M292 -200q-83 0 -148.5 18t-103.5 36l30 64h11q47 -21 101.5 -32t109.5 -11q62 0 106.5 13.5t69 37t24.5 52.5q0 18 -13 42.5t-49 70.5q-39 50 -59.5 87t-20.5 77q0 65 48 108t121 65l76 -23q26 -107 66 -191.5t107 -166.5l-58 -47q-62 77 -107.5 164t-75.5 201l20 -7
q-9 -3 -29 -9.5t-41.5 -18.5t-36.5 -30.5t-15 -44.5q0 -27 19.5 -56.5t44.5 -61.5q29 -37 53.5 -76.5t24.5 -82.5q0 -27 -13.5 -58t-45 -58.5t-84.5 -44.5t-132 -17zM710 0v75h89v-75h-89zM799 0v75q12 0 16 -10t4 -27q0 -16 -4 -27t-16 -11z" />
    <glyph glyph-name="uni06D2" unicode="&#x6d2;" horiz-adv-x="908" 
d="M377 0q-112 0 -183 29t-105 76t-34 100q0 56 34 110.5t96 94.5l73 -23q12 -41 23.5 -71t27 -53t35.5 -45l-49 -45h-11q-29 32 -49.5 68.5t-36.5 85.5q-32 -25 -49.5 -55.5t-17.5 -60.5q0 -35 26 -66.5t80.5 -50.5t139.5 -19h473l3 -6l-37 -69h-439z" />
    <glyph glyph-name="uni06D2.fina" horiz-adv-x="820" 
d="M308 -179q-57 62 -105 126.5t-85.5 139.5t-62.5 168q0 65 48 108t121 65l76 -23q26 -107 66 -191.5t107 -166.5l-58 -47q-62 77 -107.5 164t-75.5 201l20 -7q-9 -3 -29 -9.5t-41.5 -18.5t-36.5 -30.5t-15 -44.5l-7 40q21 -82 51 -150.5t73 -131t102 -126.5zM308 -179v75
h461l3 -6l-37 -69h-427zM415 0v75h405v-75h-405zM820 0v75q12 0 16 -10t4 -27q0 -16 -4 -27t-16 -11z" />
    <glyph glyph-name="uni06D2.fina.narrow" horiz-adv-x="473" 
d="M308 -179q-57 62 -105 126.5t-85.5 139.5t-62.5 168q0 65 48 108t121 65l76 -23q26 -107 66 -191.5t107 -166.5l-58 -47q-62 77 -107.5 164t-75.5 201l20 -7q-9 -3 -29 -9.5t-41.5 -18.5t-36.5 -30.5t-15 -44.5l-7 40q21 -82 51 -150.5t73 -131t102 -126.5zM308 -179v75
h461l3 -6l-37 -69h-427zM415 0v75h58v-75h-58zM473 0v75q12 0 16 -10t4 -27q0 -16 -4 -27t-16 -11z" />
    <glyph glyph-name="uni0640" unicode="&#x640;" horiz-adv-x="242" 
d="M0 0v75h242v-75h-242zM0 0q-11 0 -15.5 11t-4.5 27q0 17 4.5 27t15.5 10v-75zM242 0v75q12 0 16 -10t4 -27q0 -16 -4 -27t-16 -11z" />
    <glyph glyph-name="uni0622" unicode="&#x622;" horiz-adv-x="230" 
d="M70 0v658l72 9l3 -8v-412q0 -41 2.5 -82t5 -75.5t5 -55l2.5 -20.5l-15 -14h-75zM27 716q0 26 3.5 43.5t16 26.5t38.5 9q17 0 37.5 -2.5t42 -5t37.5 -1.5v-50q-17 -1 -40.5 1.5t-46 5.5t-37.5 3l18 5q-13 -6 -16 -13.5t-3 -21.5h-50z" />
    <glyph glyph-name="uni0623" unicode="&#x623;" horiz-adv-x="230" 
d="M70 0v658l72 9l3 -8v-412q0 -41 2.5 -82t5 -75.5t5 -55l2.5 -20.5l-15 -14h-75zM61 752q-14 20 -14 40q0 22 14.5 39t35.5 31.5t41 26.5h3l29 -42q-39 -24 -52.5 -39t-13.5 -25q0 -7 4.5 -11.5t11.5 -4.5zM31 716v51h3q11 0 19.5 -1.5l8.5 -1.5l14 3h122v-3l-14 -48h-153
z" />
    <glyph glyph-name="uni0625" unicode="&#x625;" horiz-adv-x="230" 
d="M70 0v746l72 9l3 -8v-500q0 -41 2.5 -82t5 -75.5t5 -55l2.5 -20.5l-15 -14h-75zM54 -185q-14 20 -14 40q0 22 14.5 39t35.5 31.5t41 26.5h3l29 -42q-39 -24 -52.5 -39t-13.5 -25q0 -7 4.5 -11.5t11.5 -4.5zM24 -221v51h3q11 0 19.5 -1.5l8.5 -1.5l14 3h122v-3l-14 -48
h-153z" />
    <glyph glyph-name="uni0671" unicode="&#x671;" horiz-adv-x="230" 
d="M70 0v658l72 9l3 -8v-412q0 -41 2.5 -82t5 -75.5t5 -55l2.5 -20.5l-15 -14h-75zM170 765q0 15 -12 25.5t-30 10.5h-56v47h56q38 0 66.5 -23.5t28.5 -59.5h-53zM4 716l-2 3l22 43h40v-46h-60zM32 716v132h54v-132h-54zM64 716v46h71q14 0 28 -1l14 -1v-44h-113zM175 716
q-1 13 -3 26t-2 23h53q0 -10 1.5 -22.5t2.5 -21.5l-6 -5h-46z" />
    <glyph glyph-name="uni0628" unicode="&#x628;" horiz-adv-x="916" 
d="M468 0q-75 0 -151.5 5.5t-144.5 21.5t-117 47l36 59h11q50 -30 139 -44t227 -14h313v-75h-313zM780 0l3 42l-3 32.5t-6 83.5t-3 107v88l72 9l3 -8v-107q0 -41 2.5 -82t5 -75.5t5 -55l2.5 -20.5l-15 -14h-66zM685 0v75h106v-75h-106zM685 0q-11 0 -15.5 11t-4.5 27
q0 17 4.5 27t15.5 10v-75zM458 -192q-20 0 -34 14t-14 34t14 34t34 14t34 -14t14 -34t-14 -34t-34 -14z" />
    <glyph glyph-name="uni062A" unicode="&#x62a;" horiz-adv-x="916" 
d="M468 0q-75 0 -151.5 5.5t-144.5 21.5t-117 47l36 59h11q50 -30 139 -44t227 -14h313v-75h-313zM780 0l3 42l-3 32.5t-6 83.5t-3 107v88l72 9l3 -8v-107q0 -41 2.5 -82t5 -75.5t5 -55l2.5 -20.5l-15 -14h-66zM685 0v75h106v-75h-106zM685 0q-11 0 -15.5 11t-4.5 27
q0 17 4.5 27t15.5 10v-75zM403 338q-20 0 -34 14t-14 34t14 34t34 14t34 -14t14 -34t-14 -34t-34 -14zM513 338q-20 0 -34 14t-14 34t14 34t34 14t34 -14t14 -34t-14 -34t-34 -14z" />
    <glyph glyph-name="uni062B" unicode="&#x62b;" horiz-adv-x="916" 
d="M468 0q-75 0 -151.5 5.5t-144.5 21.5t-117 47l36 59h11q50 -30 139 -44t227 -14h313v-75h-313zM780 0l3 42l-3 32.5t-6 83.5t-3 107v88l72 9l3 -8v-107q0 -41 2.5 -82t5 -75.5t5 -55l2.5 -20.5l-15 -14h-66zM685 0v75h106v-75h-106zM685 0q-11 0 -15.5 11t-4.5 27
q0 17 4.5 27t15.5 10v-75zM403 338q-20 0 -34 14t-14 34t14 34t34 14t34 -14t14 -34t-14 -34t-34 -14zM513 338q-20 0 -34 14t-14 34t14 34t34 14t34 -14t14 -34t-14 -34t-34 -14zM458 433q-20 0 -34 14t-14 34t14 34t34 14t34 -14t14 -34t-14 -34t-34 -14z" />
    <glyph glyph-name="uni0679" unicode="&#x679;" horiz-adv-x="916" 
d="M468 0q-75 0 -151.5 5.5t-144.5 21.5t-117 47l36 59h11q50 -30 139 -44t227 -14h313v-75h-313zM780 0l3 42l-3 32.5t-6 83.5t-3 107v88l72 9l3 -8v-107q0 -41 2.5 -82t5 -75.5t5 -55l2.5 -20.5l-15 -14h-66zM685 0v75h106v-75h-106zM685 0q-11 0 -15.5 11t-4.5 27
q0 17 4.5 27t15.5 10v-75zM513 387q0 15 -12 25.5t-30 10.5h-56v47h56q38 0 66.5 -23.5t28.5 -59.5h-53zM347 338l-2 3l22 43h40v-46h-60zM407 338v46h71q14 0 28 -1l14 -1v-44h-113zM518 338q-1 13 -3 26t-2 23h53q0 -10 1.5 -22.5t2.5 -21.5l-6 -5h-46zM375 338v175l54 4
v-179h-54z" />
    <glyph glyph-name="uni067A" unicode="&#x67a;" horiz-adv-x="916" 
d="M468 0q-75 0 -151.5 5.5t-144.5 21.5t-117 47l36 59h11q50 -30 139 -44t227 -14h313v-75h-313zM780 0l3 42l-3 32.5t-6 83.5t-3 107v88l72 9l3 -8v-107q0 -41 2.5 -82t5 -75.5t5 -55l2.5 -20.5l-15 -14h-66zM685 0v75h106v-75h-106zM685 0q-11 0 -15.5 11t-4.5 27
q0 17 4.5 27t15.5 10v-75zM505 386q0 -20 -14 -34t-34 -14t-34 14t-14 34t14 34t34 14t34 -14t14 -34zM505 496q0 -20 -14 -34t-34 -14t-34 14t-14 34t14 34t34 14t34 -14t14 -34z" />
    <glyph glyph-name="uni067B" unicode="&#x67b;" horiz-adv-x="916" 
d="M468 0q-75 0 -151.5 5.5t-144.5 21.5t-117 47l36 59h11q50 -30 139 -44t227 -14h313v-75h-313zM780 0l3 42l-3 32.5t-6 83.5t-3 107v88l72 9l3 -8v-107q0 -41 2.5 -82t5 -75.5t5 -55l2.5 -20.5l-15 -14h-66zM685 0v75h106v-75h-106zM685 0q-11 0 -15.5 11t-4.5 27
q0 17 4.5 27t15.5 10v-75zM506 -254q0 -20 -14 -34t-34 -14t-34 14t-14 34t14 34t34 14t34 -14t14 -34zM506 -144q0 -20 -14 -34t-34 -14t-34 14t-14 34t14 34t34 14t34 -14t14 -34z" />
    <glyph glyph-name="uni067C" unicode="&#x67c;" horiz-adv-x="916" 
d="M468 0q-75 0 -151.5 5.5t-144.5 21.5t-117 47l36 59h11q50 -30 139 -44t227 -14h313v-75h-313zM780 0l3 42l-3 32.5t-6 83.5t-3 107v88l72 9l3 -8v-107q0 -41 2.5 -82t5 -75.5t5 -55l2.5 -20.5l-15 -14h-66zM685 0v75h106v-75h-106zM685 0q-11 0 -15.5 11t-4.5 27
q0 17 4.5 27t15.5 10v-75zM403 338q-20 0 -34 14t-14 34t14 34t34 14t34 -14t14 -34t-14 -34t-34 -14zM513 338q-20 0 -34 14t-14 34t14 34t34 14t34 -14t14 -34t-14 -34t-34 -14zM458 -139q-42 0 -67 22.5t-25 62.5q0 42 26.5 71.5t65.5 29.5t65.5 -28.5t26.5 -72.5
q0 -41 -25 -63t-67 -22zM458 -92q45 0 45 40q0 23 -12.5 37.5t-32.5 14.5q-19 0 -32 -15t-13 -38q0 -39 45 -39z" />
    <glyph glyph-name="uni067D" unicode="&#x67d;" horiz-adv-x="916" 
d="M468 0q-75 0 -151.5 5.5t-144.5 21.5t-117 47l36 59h11q50 -30 139 -44t227 -14h313v-75h-313zM780 0l3 42l-3 32.5t-6 83.5t-3 107v88l72 9l3 -8v-107q0 -41 2.5 -82t5 -75.5t5 -55l2.5 -20.5l-15 -14h-66zM685 0v75h106v-75h-106zM685 0q-11 0 -15.5 11t-4.5 27
q0 17 4.5 27t15.5 10v-75zM403 433q-20 0 -34 14t-14 34t14 34t34 14t34 -14t14 -34t-14 -34t-34 -14zM513 433q-20 0 -34 14t-14 34t14 34t34 14t34 -14t14 -34t-14 -34t-34 -14zM458 338q-20 0 -34 14t-14 34t14 34t34 14t34 -14t14 -34t-14 -34t-34 -14z" />
    <glyph glyph-name="uni067E" unicode="&#x67e;" horiz-adv-x="916" 
d="M468 0q-75 0 -151.5 5.5t-144.5 21.5t-117 47l36 59h11q50 -30 139 -44t227 -14h313v-75h-313zM780 0l3 42l-3 32.5t-6 83.5t-3 107v88l72 9l3 -8v-107q0 -41 2.5 -82t5 -75.5t5 -55l2.5 -20.5l-15 -14h-66zM685 0v75h106v-75h-106zM685 0q-11 0 -15.5 11t-4.5 27
q0 17 4.5 27t15.5 10v-75zM403 -192q-20 0 -34 14t-14 34t14 34t34 14t34 -14t14 -34t-14 -34t-34 -14zM513 -192q-20 0 -34 14t-14 34t14 34t34 14t34 -14t14 -34t-14 -34t-34 -14zM458 -287q-20 0 -34 14t-14 34t14 34t34 14t34 -14t14 -34t-14 -34t-34 -14z" />
    <glyph glyph-name="uni067F" unicode="&#x67f;" horiz-adv-x="916" 
d="M468 0q-75 0 -151.5 5.5t-144.5 21.5t-117 47l36 59h11q50 -30 139 -44t227 -14h313v-75h-313zM780 0l3 42l-3 32.5t-6 83.5t-3 107v88l72 9l3 -8v-107q0 -41 2.5 -82t5 -75.5t5 -55l2.5 -20.5l-15 -14h-66zM685 0v75h106v-75h-106zM685 0q-11 0 -15.5 11t-4.5 27
q0 17 4.5 27t15.5 10v-75zM403 338q-20 0 -34 14t-14 34t14 34t34 14t34 -14t14 -34t-14 -34t-34 -14zM403 448q-20 0 -34 14t-14 34t14 34t34 14t34 -14t14 -34t-14 -34t-34 -14zM513 338q-20 0 -34 14t-14 34t14 34t34 14t34 -14t14 -34t-14 -34t-34 -14zM513 448
q-20 0 -34 14t-14 34t14 34t34 14t34 -14t14 -34t-14 -34t-34 -14z" />
    <glyph glyph-name="uni0680" unicode="&#x680;" horiz-adv-x="916" 
d="M468 0q-75 0 -151.5 5.5t-144.5 21.5t-117 47l36 59h11q50 -30 139 -44t227 -14h313v-75h-313zM780 0l3 42l-3 32.5t-6 83.5t-3 107v88l72 9l3 -8v-107q0 -41 2.5 -82t5 -75.5t5 -55l2.5 -20.5l-15 -14h-66zM685 0v75h106v-75h-106zM685 0q-11 0 -15.5 11t-4.5 27
q0 17 4.5 27t15.5 10v-75zM403 -302q-20 0 -34 14t-14 34t14 34t34 14t34 -14t14 -34t-14 -34t-34 -14zM403 -192q-20 0 -34 14t-14 34t14 34t34 14t34 -14t14 -34t-14 -34t-34 -14zM513 -302q-20 0 -34 14t-14 34t14 34t34 14t34 -14t14 -34t-14 -34t-34 -14zM513 -192
q-20 0 -34 14t-14 34t14 34t34 14t34 -14t14 -34t-14 -34t-34 -14z" />
    <glyph glyph-name="uni0751" unicode="&#x751;" horiz-adv-x="916" 
d="M468 0q-75 0 -151.5 5.5t-144.5 21.5t-117 47l36 59h11q50 -30 139 -44t227 -14h313v-75h-313zM780 0l3 42l-3 32.5t-6 83.5t-3 107v88l72 9l3 -8v-107q0 -41 2.5 -82t5 -75.5t5 -55l2.5 -20.5l-15 -14h-66zM685 0v75h106v-75h-106zM685 0q-11 0 -15.5 11t-4.5 27
q0 17 4.5 27t15.5 10v-75zM458 -192q-20 0 -34 14t-14 34t14 34t34 14t34 -14t14 -34t-14 -34t-34 -14zM403 338q-20 0 -34 14t-14 34t14 34t34 14t34 -14t14 -34t-14 -34t-34 -14zM513 338q-20 0 -34 14t-14 34t14 34t34 14t34 -14t14 -34t-14 -34t-34 -14zM458 433
q-20 0 -34 14t-14 34t14 34t34 14t34 -14t14 -34t-14 -34t-34 -14z" />
    <glyph glyph-name="uni0752" unicode="&#x752;" horiz-adv-x="916" 
d="M468 0q-75 0 -151.5 5.5t-144.5 21.5t-117 47l36 59h11q50 -30 139 -44t227 -14h313v-75h-313zM780 0l3 42l-3 32.5t-6 83.5t-3 107v88l72 9l3 -8v-107q0 -41 2.5 -82t5 -75.5t5 -55l2.5 -20.5l-15 -14h-66zM685 0v75h106v-75h-106zM685 0q-11 0 -15.5 11t-4.5 27
q0 17 4.5 27t15.5 10v-75zM403 -287q-20 0 -34 14t-14 34t14 34t34 14t34 -14t14 -34t-14 -34t-34 -14zM513 -287q-20 0 -34 14t-14 34t14 34t34 14t34 -14t14 -34t-14 -34t-34 -14zM458 -192q-20 0 -34 14t-14 34t14 34t34 14t34 -14t14 -34t-14 -34t-34 -14z" />
    <glyph glyph-name="uni0753" unicode="&#x753;" horiz-adv-x="916" 
d="M468 0q-75 0 -151.5 5.5t-144.5 21.5t-117 47l36 59h11q50 -30 139 -44t227 -14h313v-75h-313zM780 0l3 42l-3 32.5t-6 83.5t-3 107v88l72 9l3 -8v-107q0 -41 2.5 -82t5 -75.5t5 -55l2.5 -20.5l-15 -14h-66zM685 0v75h106v-75h-106zM685 0q-11 0 -15.5 11t-4.5 27
q0 17 4.5 27t15.5 10v-75zM403 -287q-20 0 -34 14t-14 34t14 34t34 14t34 -14t14 -34t-14 -34t-34 -14zM513 -287q-20 0 -34 14t-14 34t14 34t34 14t34 -14t14 -34t-14 -34t-34 -14zM458 -192q-20 0 -34 14t-14 34t14 34t34 14t34 -14t14 -34t-14 -34t-34 -14zM403 338
q-20 0 -34 14t-14 34t14 34t34 14t34 -14t14 -34t-14 -34t-34 -14zM513 338q-20 0 -34 14t-14 34t14 34t34 14t34 -14t14 -34t-14 -34t-34 -14z" />
    <glyph glyph-name="uni0754" unicode="&#x754;" horiz-adv-x="916" 
d="M468 0q-75 0 -151.5 5.5t-144.5 21.5t-117 47l36 59h11q50 -30 139 -44t227 -14h313v-75h-313zM780 0l3 42l-3 32.5t-6 83.5t-3 107v88l72 9l3 -8v-107q0 -41 2.5 -82t5 -75.5t5 -55l2.5 -20.5l-15 -14h-66zM685 0v75h106v-75h-106zM685 0q-11 0 -15.5 11t-4.5 27
q0 17 4.5 27t15.5 10v-75zM403 -192q-20 0 -34 14t-14 34t14 34t34 14t34 -14t14 -34t-14 -34t-34 -14zM513 -192q-20 0 -34 14t-14 34t14 34t34 14t34 -14t14 -34t-14 -34t-34 -14zM458 338q-20 0 -34 14t-14 34t14 34t34 14t34 -14t14 -34t-14 -34t-34 -14z" />
    <glyph glyph-name="uni0755" unicode="&#x755;" horiz-adv-x="916" 
d="M468 0q-75 0 -151.5 5.5t-144.5 21.5t-117 47l36 59h11q50 -30 139 -44t227 -14h313v-75h-313zM780 0l3 42l-3 32.5t-6 83.5t-3 107v88l72 9l3 -8v-107q0 -41 2.5 -82t5 -75.5t5 -55l2.5 -20.5l-15 -14h-66zM685 0v75h106v-75h-106zM685 0q-11 0 -15.5 11t-4.5 27
q0 17 4.5 27t15.5 10v-75zM433 -96l56 -7l47 -158l-2 -4h-45l-34 140l5 1l-32 -141h-46l-2 4l45 158z" />
    <glyph glyph-name="uni0756" unicode="&#x756;" horiz-adv-x="916" 
d="M468 0q-75 0 -151.5 5.5t-144.5 21.5t-117 47l36 59h11q50 -30 139 -44t227 -14h313v-75h-313zM780 0l3 42l-3 32.5t-6 83.5t-3 107v88l72 9l3 -8v-107q0 -41 2.5 -82t5 -75.5t5 -55l2.5 -20.5l-15 -14h-66zM685 0v75h106v-75h-106zM685 0q-11 0 -15.5 11t-4.5 27
q0 17 4.5 27t15.5 10v-75zM433 338l-8 7l-45 158l2 4h46l32 -141l-5 1l34 140h45l2 -4l-47 -158z" />
    <glyph glyph-name="uni08A0" unicode="&#x8a0;" horiz-adv-x="916" 
d="M468 0q-75 0 -151.5 5.5t-144.5 21.5t-117 47l36 59h11q50 -30 139 -44t227 -14h313v-75h-313zM780 0l3 42l-3 32.5t-6 83.5t-3 107v88l72 9l3 -8v-107q0 -41 2.5 -82t5 -75.5t5 -55l2.5 -20.5l-15 -14h-66zM685 0v75h106v-75h-106zM685 0q-11 0 -15.5 11t-4.5 27
q0 17 4.5 27t15.5 10v-75zM433 -265l-8 7l-45 158l2 4h46l32 -141l-5 1l34 140h45l2 -4l-47 -158z" />
    <glyph glyph-name="uni08A1" unicode="&#x8a1;" horiz-adv-x="916" 
d="M468 0q-75 0 -151.5 5.5t-144.5 21.5t-117 47l36 59h11q50 -30 139 -44t227 -14h313v-75h-313zM780 0l3 42l-3 32.5t-6 83.5t-3 107v88l72 9l3 -8v-107q0 -41 2.5 -82t5 -75.5t5 -55l2.5 -20.5l-15 -14h-66zM685 0v75h106v-75h-106zM685 0q-11 0 -15.5 11t-4.5 27
q0 17 4.5 27t15.5 10v-75zM458 -192q-20 0 -34 14t-14 34t14 34t34 14t34 -14t14 -34t-14 -34t-34 -14zM404 374q-14 20 -14 40q0 22 14.5 39t35.5 31.5t41 26.5h3l29 -42q-39 -24 -52.5 -39t-13.5 -25q0 -7 4.5 -11.5t11.5 -4.5zM374 338v51h3q11 0 19.5 -1.5l8.5 -1.5
l14 3h122v-3l-14 -48h-153z" />
    <glyph glyph-name="uni08BE" unicode="&#x8be;" horiz-adv-x="916" 
d="M468 0q-75 0 -151.5 5.5t-144.5 21.5t-117 47l36 59h11q50 -30 139 -44t227 -14h313v-75h-313zM780 0l3 42l-3 32.5t-6 83.5t-3 107v88l72 9l3 -8v-107q0 -41 2.5 -82t5 -75.5t5 -55l2.5 -20.5l-15 -14h-66zM685 0v75h106v-75h-106zM685 0q-11 0 -15.5 11t-4.5 27
q0 17 4.5 27t15.5 10v-75zM403 -192q-20 0 -34 14t-14 34t14 34t34 14t34 -14t14 -34t-14 -34t-34 -14zM513 -192q-20 0 -34 14t-14 34t14 34t34 14t34 -14t14 -34t-14 -34t-34 -14zM458 -287q-20 0 -34 14t-14 34t14 34t34 14t34 -14t14 -34t-14 -34t-34 -14zM433 338l-8 7
l-45 158l2 4h46l32 -141l-5 1l34 140h45l2 -4l-47 -158z" />
    <glyph glyph-name="uni08BF" unicode="&#x8bf;" horiz-adv-x="916" 
d="M468 0q-75 0 -151.5 5.5t-144.5 21.5t-117 47l36 59h11q50 -30 139 -44t227 -14h313v-75h-313zM780 0l3 42l-3 32.5t-6 83.5t-3 107v88l72 9l3 -8v-107q0 -41 2.5 -82t5 -75.5t5 -55l2.5 -20.5l-15 -14h-66zM685 0v75h106v-75h-106zM685 0q-11 0 -15.5 11t-4.5 27
q0 17 4.5 27t15.5 10v-75zM403 338q-20 0 -34 14t-14 34t14 34t34 14t34 -14t14 -34t-14 -34t-34 -14zM513 338q-20 0 -34 14t-14 34t14 34t34 14t34 -14t14 -34t-14 -34t-34 -14zM433 483l-8 7l-45 158l2 4h46l32 -141l-5 1l34 140h45l2 -4l-47 -158z" />
    <glyph glyph-name="uni08C0" unicode="&#x8c0;" horiz-adv-x="916" 
d="M468 0q-75 0 -151.5 5.5t-144.5 21.5t-117 47l36 59h11q50 -30 139 -44t227 -14h313v-75h-313zM780 0l3 42l-3 32.5t-6 83.5t-3 107v88l72 9l3 -8v-107q0 -41 2.5 -82t5 -75.5t5 -55l2.5 -20.5l-15 -14h-66zM685 0v75h106v-75h-106zM685 0q-11 0 -15.5 11t-4.5 27
q0 17 4.5 27t15.5 10v-75zM513 387q0 15 -12 25.5t-30 10.5h-56v47h56q38 0 66.5 -23.5t28.5 -59.5h-53zM347 338l-2 3l22 43h40v-46h-60zM407 338v46h71q14 0 28 -1l14 -1v-44h-113zM518 338q-1 13 -3 26t-2 23h53q0 -10 1.5 -22.5t2.5 -21.5l-6 -5h-46zM375 338v175l54 4
v-179h-54zM433 532l-8 7l-45 158l2 4h46l32 -141l-5 1l34 140h45l2 -4l-47 -158z" />
    <glyph glyph-name="uni062C" unicode="&#x62c;" horiz-adv-x="708" 
d="M574 4q-63 17 -128 47t-126.5 71.5t-116.5 91t-99 104.5l55 44h7q32 -39 79.5 -84t107 -87t128 -74.5t141.5 -47.5zM279 0v75h41q25 0 49.5 -1.5t40.5 -3.5l16 -2l94 7h128v-7l-21 -68h-348zM282 -200q-77 0 -131 20t-82.5 53.5t-28.5 74.5q0 64 65.5 95.5t173.5 31.5
v-75q-78 0 -123.5 -14.5t-53.5 -39.5q8 -31 58 -51t120 -20q15 0 34.5 1t40.5 2l13 -64v-10q-24 -2 -46.5 -3t-39.5 -1zM517 -174q-20 0 -34 14t-14 34t14 34t34 14t34 -14t14 -34t-14 -34t-34 -14z" />
    <glyph glyph-name="uni062E" unicode="&#x62e;" horiz-adv-x="708" 
d="M574 4q-63 17 -128 47t-126.5 71.5t-116.5 91t-99 104.5l55 44h7q32 -39 79.5 -84t107 -87t128 -74.5t141.5 -47.5zM279 0v75h41q25 0 49.5 -1.5t40.5 -3.5l16 -2l94 7h128v-7l-21 -68h-348zM282 -200q-77 0 -131 20t-82.5 53.5t-28.5 74.5q0 64 65.5 95.5t173.5 31.5
v-75q-78 0 -123.5 -14.5t-53.5 -39.5q8 -31 58 -51t120 -20q15 0 34.5 1t40.5 2l13 -64v-10q-24 -2 -46.5 -3t-39.5 -1zM250 435q-20 0 -34 14t-14 34t14 34t34 14t34 -14t14 -34t-14 -34t-34 -14z" />
    <glyph glyph-name="uni0681" unicode="&#x681;" horiz-adv-x="708" 
d="M574 4q-63 17 -128 47t-126.5 71.5t-116.5 91t-99 104.5l55 44h7q32 -39 79.5 -84t107 -87t128 -74.5t141.5 -47.5zM279 0v75h41q25 0 49.5 -1.5t40.5 -3.5l16 -2l94 7h128v-7l-21 -68h-348zM282 -200q-77 0 -131 20t-82.5 53.5t-28.5 74.5q0 64 65.5 95.5t173.5 31.5
v-75q-78 0 -123.5 -14.5t-53.5 -39.5q8 -31 58 -51t120 -20q15 0 34.5 1t40.5 2l13 -64v-10q-24 -2 -46.5 -3t-39.5 -1zM196 471q-14 20 -14 40q0 22 14.5 39t35.5 31.5t41 26.5h3l29 -42q-39 -24 -52.5 -39t-13.5 -25q0 -7 4.5 -11.5t11.5 -4.5zM166 435v51h3
q11 0 19.5 -1.5l8.5 -1.5l14 3h122v-3l-14 -48h-153z" />
    <glyph glyph-name="uni0682" unicode="&#x682;" horiz-adv-x="708" 
d="M574 4q-63 17 -128 47t-126.5 71.5t-116.5 91t-99 104.5l55 44h7q32 -39 79.5 -84t107 -87t128 -74.5t141.5 -47.5zM279 0v75h41q25 0 49.5 -1.5t40.5 -3.5l16 -2l94 7h128v-7l-21 -68h-348zM282 -200q-77 0 -131 20t-82.5 53.5t-28.5 74.5q0 64 65.5 95.5t173.5 31.5
v-75q-78 0 -123.5 -14.5t-53.5 -39.5q8 -31 58 -51t120 -20q15 0 34.5 1t40.5 2l13 -64v-10q-24 -2 -46.5 -3t-39.5 -1zM297 483q0 -20 -14 -34t-34 -14t-34 14t-14 34t14 34t34 14t34 -14t14 -34zM297 593q0 -20 -14 -34t-34 -14t-34 14t-14 34t14 34t34 14t34 -14t14 -34z
" />
    <glyph glyph-name="uni0683" unicode="&#x683;" horiz-adv-x="708" 
d="M574 4q-63 17 -128 47t-126.5 71.5t-116.5 91t-99 104.5l55 44h7q32 -39 79.5 -84t107 -87t128 -74.5t141.5 -47.5zM279 0v75h41q25 0 49.5 -1.5t40.5 -3.5l16 -2l94 7h128v-7l-21 -68h-348zM282 -200q-77 0 -131 20t-82.5 53.5t-28.5 74.5q0 64 65.5 95.5t173.5 31.5
v-75q-78 0 -123.5 -14.5t-53.5 -39.5q8 -31 58 -51t120 -20q15 0 34.5 1t40.5 2l13 -64v-10q-24 -2 -46.5 -3t-39.5 -1zM462 -174q-20 0 -34 14t-14 34t14 34t34 14t34 -14t14 -34t-14 -34t-34 -14zM572 -174q-20 0 -34 14t-14 34t14 34t34 14t34 -14t14 -34t-14 -34
t-34 -14z" />
    <glyph glyph-name="uni0684" unicode="&#x684;" horiz-adv-x="708" 
d="M574 4q-63 17 -128 47t-126.5 71.5t-116.5 91t-99 104.5l55 44h7q32 -39 79.5 -84t107 -87t128 -74.5t141.5 -47.5zM279 0v75h41q25 0 49.5 -1.5t40.5 -3.5l16 -2l94 7h128v-7l-21 -68h-348zM282 -200q-77 0 -131 20t-82.5 53.5t-28.5 74.5q0 64 65.5 95.5t173.5 31.5
v-75q-78 0 -123.5 -14.5t-53.5 -39.5q8 -31 58 -51t120 -20q15 0 34.5 1t40.5 2l13 -64v-10q-24 -2 -46.5 -3t-39.5 -1zM565 -216q0 -20 -14 -34t-34 -14t-34 14t-14 34t14 34t34 14t34 -14t14 -34zM565 -106q0 -20 -14 -34t-34 -14t-34 14t-14 34t14 34t34 14t34 -14
t14 -34z" />
    <glyph glyph-name="uni0685" unicode="&#x685;" horiz-adv-x="708" 
d="M574 4q-63 17 -128 47t-126.5 71.5t-116.5 91t-99 104.5l55 44h7q32 -39 79.5 -84t107 -87t128 -74.5t141.5 -47.5zM279 0v75h41q25 0 49.5 -1.5t40.5 -3.5l16 -2l94 7h128v-7l-21 -68h-348zM282 -200q-77 0 -131 20t-82.5 53.5t-28.5 74.5q0 64 65.5 95.5t173.5 31.5
v-75q-78 0 -123.5 -14.5t-53.5 -39.5q8 -31 58 -51t120 -20q15 0 34.5 1t40.5 2l13 -64v-10q-24 -2 -46.5 -3t-39.5 -1zM195 435q-20 0 -34 14t-14 34t14 34t34 14t34 -14t14 -34t-14 -34t-34 -14zM305 435q-20 0 -34 14t-14 34t14 34t34 14t34 -14t14 -34t-14 -34t-34 -14z
M250 530q-20 0 -34 14t-14 34t14 34t34 14t34 -14t14 -34t-14 -34t-34 -14z" />
    <glyph glyph-name="uni0686" unicode="&#x686;" horiz-adv-x="708" 
d="M574 4q-63 17 -128 47t-126.5 71.5t-116.5 91t-99 104.5l55 44h7q32 -39 79.5 -84t107 -87t128 -74.5t141.5 -47.5zM279 0v75h41q25 0 49.5 -1.5t40.5 -3.5l16 -2l94 7h128v-7l-21 -68h-348zM282 -200q-77 0 -131 20t-82.5 53.5t-28.5 74.5q0 64 65.5 95.5t173.5 31.5
v-75q-78 0 -123.5 -14.5t-53.5 -39.5q8 -31 58 -51t120 -20q15 0 34.5 1t40.5 2l13 -64v-10q-24 -2 -46.5 -3t-39.5 -1zM462 -154q-20 0 -34 14t-14 34t14 34t34 14t34 -14t14 -34t-14 -34t-34 -14zM572 -154q-20 0 -34 14t-14 34t14 34t34 14t34 -14t14 -34t-14 -34
t-34 -14zM517 -249q-20 0 -34 14t-14 34t14 34t34 14t34 -14t14 -34t-14 -34t-34 -14z" />
    <glyph glyph-name="uni0687" unicode="&#x687;" horiz-adv-x="708" 
d="M574 4q-63 17 -128 47t-126.5 71.5t-116.5 91t-99 104.5l55 44h7q32 -39 79.5 -84t107 -87t128 -74.5t141.5 -47.5zM279 0v75h41q25 0 49.5 -1.5t40.5 -3.5l16 -2l94 7h128v-7l-21 -68h-348zM282 -200q-77 0 -131 20t-82.5 53.5t-28.5 74.5q0 64 65.5 95.5t173.5 31.5
v-75q-78 0 -123.5 -14.5t-53.5 -39.5q8 -31 58 -51t120 -20q15 0 34.5 1t40.5 2l13 -64v-10q-24 -2 -46.5 -3t-39.5 -1zM462 -264q-20 0 -34 14t-14 34t14 34t34 14t34 -14t14 -34t-14 -34t-34 -14zM462 -154q-20 0 -34 14t-14 34t14 34t34 14t34 -14t14 -34t-14 -34
t-34 -14zM572 -264q-20 0 -34 14t-14 34t14 34t34 14t34 -14t14 -34t-14 -34t-34 -14zM572 -154q-20 0 -34 14t-14 34t14 34t34 14t34 -14t14 -34t-14 -34t-34 -14z" />
    <glyph glyph-name="uni06BF" unicode="&#x6bf;" horiz-adv-x="708" 
d="M574 4q-63 17 -128 47t-126.5 71.5t-116.5 91t-99 104.5l55 44h7q32 -39 79.5 -84t107 -87t128 -74.5t141.5 -47.5zM279 0v75h41q25 0 49.5 -1.5t40.5 -3.5l16 -2l94 7h128v-7l-21 -68h-348zM282 -200q-77 0 -131 20t-82.5 53.5t-28.5 74.5q0 64 65.5 95.5t173.5 31.5
v-75q-78 0 -123.5 -14.5t-53.5 -39.5q8 -31 58 -51t120 -20q15 0 34.5 1t40.5 2l13 -64v-10q-24 -2 -46.5 -3t-39.5 -1zM462 -154q-20 0 -34 14t-14 34t14 34t34 14t34 -14t14 -34t-14 -34t-34 -14zM572 -154q-20 0 -34 14t-14 34t14 34t34 14t34 -14t14 -34t-14 -34
t-34 -14zM517 -249q-20 0 -34 14t-14 34t14 34t34 14t34 -14t14 -34t-14 -34t-34 -14zM250 435q-20 0 -34 14t-14 34t14 34t34 14t34 -14t14 -34t-14 -34t-34 -14z" />
    <glyph glyph-name="uni0757" unicode="&#x757;" horiz-adv-x="708" 
d="M574 4q-63 17 -128 47t-126.5 71.5t-116.5 91t-99 104.5l55 44h7q32 -39 79.5 -84t107 -87t128 -74.5t141.5 -47.5zM279 0v75h41q25 0 49.5 -1.5t40.5 -3.5l16 -2l94 7h128v-7l-21 -68h-348zM282 -200q-77 0 -131 20t-82.5 53.5t-28.5 74.5q0 64 65.5 95.5t173.5 31.5
v-75q-78 0 -123.5 -14.5t-53.5 -39.5q8 -31 58 -51t120 -20q15 0 34.5 1t40.5 2l13 -64v-10q-24 -2 -46.5 -3t-39.5 -1zM195 435q-20 0 -34 14t-14 34t14 34t34 14t34 -14t14 -34t-14 -34t-34 -14zM305 435q-20 0 -34 14t-14 34t14 34t34 14t34 -14t14 -34t-14 -34t-34 -14z
" />
    <glyph glyph-name="uni0758" unicode="&#x758;" horiz-adv-x="708" 
d="M574 4q-63 17 -128 47t-126.5 71.5t-116.5 91t-99 104.5l55 44h7q32 -39 79.5 -84t107 -87t128 -74.5t141.5 -47.5zM279 0v75h41q25 0 49.5 -1.5t40.5 -3.5l16 -2l94 7h128v-7l-21 -68h-348zM282 -200q-77 0 -131 20t-82.5 53.5t-28.5 74.5q0 64 65.5 95.5t173.5 31.5
v-75q-78 0 -123.5 -14.5t-53.5 -39.5q8 -31 58 -51t120 -20q15 0 34.5 1t40.5 2l13 -64v-10q-24 -2 -46.5 -3t-39.5 -1zM462 -249q-20 0 -34 14t-14 34t14 34t34 14t34 -14t14 -34t-14 -34t-34 -14zM572 -249q-20 0 -34 14t-14 34t14 34t34 14t34 -14t14 -34t-14 -34
t-34 -14zM517 -154q-20 0 -34 14t-14 34t14 34t34 14t34 -14t14 -34t-14 -34t-34 -14z" />
    <glyph glyph-name="uni076E" unicode="&#x76e;" horiz-adv-x="708" 
d="M574 4q-63 17 -128 47t-126.5 71.5t-116.5 91t-99 104.5l55 44h7q32 -39 79.5 -84t107 -87t128 -74.5t141.5 -47.5zM279 0v75h41q25 0 49.5 -1.5t40.5 -3.5l16 -2l94 7h128v-7l-21 -68h-348zM282 -200q-77 0 -131 20t-82.5 53.5t-28.5 74.5q0 64 65.5 95.5t173.5 31.5
v-75q-78 0 -123.5 -14.5t-53.5 -39.5q8 -31 58 -51t120 -20q15 0 34.5 1t40.5 2l13 -64v-10q-24 -2 -46.5 -3t-39.5 -1zM572 -149q0 15 -12 25.5t-30 10.5h-56v47h56q38 0 66.5 -23.5t28.5 -59.5h-53zM406 -198l-2 3l22 43h40v-46h-60zM466 -198v46h71q14 0 28 -1l14 -1v-44
h-113zM577 -198q-1 13 -3 26t-2 23h53q0 -10 1.5 -22.5t2.5 -21.5l-6 -5h-46zM434 -198v175l54 4v-179h-54z" />
    <glyph glyph-name="uni076F" unicode="&#x76f;" horiz-adv-x="708" 
d="M574 4q-63 17 -128 47t-126.5 71.5t-116.5 91t-99 104.5l55 44h7q32 -39 79.5 -84t107 -87t128 -74.5t141.5 -47.5zM279 0v75h41q25 0 49.5 -1.5t40.5 -3.5l16 -2l94 7h128v-7l-21 -68h-348zM282 -200q-77 0 -131 20t-82.5 53.5t-28.5 74.5q0 64 65.5 95.5t173.5 31.5
v-75q-78 0 -123.5 -14.5t-53.5 -39.5q8 -31 58 -51t120 -20q15 0 34.5 1t40.5 2l13 -64v-10q-24 -2 -46.5 -3t-39.5 -1zM462 -304q-20 0 -34 14t-14 34t14 34t34 14t34 -14t14 -34t-14 -34t-34 -14zM572 -304q-20 0 -34 14t-14 34t14 34t34 14t34 -14t14 -34t-14 -34
t-34 -14zM572 -149q0 15 -12 25.5t-30 10.5h-56v47h56q38 0 66.5 -23.5t28.5 -59.5h-53zM406 -198l-2 3l22 43h40v-46h-60zM466 -198v46h71q14 0 28 -1l14 -1v-44h-113zM577 -198q-1 13 -3 26t-2 23h53q0 -10 1.5 -22.5t2.5 -21.5l-6 -5h-46zM434 -198v175l54 4v-179h-54z
" />
    <glyph glyph-name="uni0772" unicode="&#x772;" horiz-adv-x="708" 
d="M574 4q-63 17 -128 47t-126.5 71.5t-116.5 91t-99 104.5l55 44h7q32 -39 79.5 -84t107 -87t128 -74.5t141.5 -47.5zM279 0v75h41q25 0 49.5 -1.5t40.5 -3.5l16 -2l94 7h128v-7l-21 -68h-348zM282 -200q-77 0 -131 20t-82.5 53.5t-28.5 74.5q0 64 65.5 95.5t173.5 31.5
v-75q-78 0 -123.5 -14.5t-53.5 -39.5q8 -31 58 -51t120 -20q15 0 34.5 1t40.5 2l13 -64v-10q-24 -2 -46.5 -3t-39.5 -1zM305 484q0 15 -12 25.5t-30 10.5h-56v47h56q38 0 66.5 -23.5t28.5 -59.5h-53zM139 435l-2 3l22 43h40v-46h-60zM199 435v46h71q14 0 28 -1l14 -1v-44
h-113zM310 435q-1 13 -3 26t-2 23h53q0 -10 1.5 -22.5t2.5 -21.5l-6 -5h-46zM167 435v175l54 4v-179h-54z" />
    <glyph glyph-name="uni08A2" unicode="&#x8a2;" horiz-adv-x="708" 
d="M574 4q-63 17 -128 47t-126.5 71.5t-116.5 91t-99 104.5l55 44h7q32 -39 79.5 -84t107 -87t128 -74.5t141.5 -47.5zM279 0v75h41q25 0 49.5 -1.5t40.5 -3.5l16 -2l94 7h128v-7l-21 -68h-348zM282 -200q-77 0 -131 20t-82.5 53.5t-28.5 74.5q0 64 65.5 95.5t173.5 31.5
v-75q-78 0 -123.5 -14.5t-53.5 -39.5q8 -31 58 -51t120 -20q15 0 34.5 1t40.5 2l13 -64v-10q-24 -2 -46.5 -3t-39.5 -1zM517 -174q-20 0 -34 14t-14 34t14 34t34 14t34 -14t14 -34t-14 -34t-34 -14zM195 435q-20 0 -34 14t-14 34t14 34t34 14t34 -14t14 -34t-14 -34t-34 -14
zM305 435q-20 0 -34 14t-14 34t14 34t34 14t34 -14t14 -34t-14 -34t-34 -14z" />
    <glyph glyph-name="uni08C1" unicode="&#x8c1;" horiz-adv-x="708" 
d="M574 4q-63 17 -128 47t-126.5 71.5t-116.5 91t-99 104.5l55 44h7q32 -39 79.5 -84t107 -87t128 -74.5t141.5 -47.5zM279 0v75h41q25 0 49.5 -1.5t40.5 -3.5l16 -2l94 7h128v-7l-21 -68h-348zM282 -200q-77 0 -131 20t-82.5 53.5t-28.5 74.5q0 64 65.5 95.5t173.5 31.5
v-75q-78 0 -123.5 -14.5t-53.5 -39.5q8 -31 58 -51t120 -20q15 0 34.5 1t40.5 2l13 -64v-10q-24 -2 -46.5 -3t-39.5 -1zM462 -154q-20 0 -34 14t-14 34t14 34t34 14t34 -14t14 -34t-14 -34t-34 -14zM572 -154q-20 0 -34 14t-14 34t14 34t34 14t34 -14t14 -34t-14 -34
t-34 -14zM517 -249q-20 0 -34 14t-14 34t14 34t34 14t34 -14t14 -34t-14 -34t-34 -14zM225 435l-8 7l-45 158l2 4h46l32 -141l-5 1l34 140h45l2 -4l-47 -158z" />
    <glyph glyph-name="uni08C5" unicode="&#x8c5;" horiz-adv-x="708" 
d="M574 4q-63 17 -128 47t-126.5 71.5t-116.5 91t-99 104.5l55 44h7q32 -39 79.5 -84t107 -87t128 -74.5t141.5 -47.5zM279 0v75h41q25 0 49.5 -1.5t40.5 -3.5l16 -2l94 7h128v-7l-21 -68h-348zM282 -200q-77 0 -131 20t-82.5 53.5t-28.5 74.5q0 64 65.5 95.5t173.5 31.5
v-75q-78 0 -123.5 -14.5t-53.5 -39.5q8 -31 58 -51t120 -20q15 0 34.5 1t40.5 2l13 -64v-10q-24 -2 -46.5 -3t-39.5 -1zM517 -174q-20 0 -34 14t-14 34t14 34t34 14t34 -14t14 -34t-14 -34t-34 -14zM195 435q-20 0 -34 14t-14 34t14 34t34 14t34 -14t14 -34t-14 -34t-34 -14
zM305 435q-20 0 -34 14t-14 34t14 34t34 14t34 -14t14 -34t-14 -34t-34 -14zM250 530q-20 0 -34 14t-14 34t14 34t34 14t34 -14t14 -34t-14 -34t-34 -14z" />
    <glyph glyph-name="uni08C6" unicode="&#x8c6;" horiz-adv-x="708" 
d="M574 4q-63 17 -128 47t-126.5 71.5t-116.5 91t-99 104.5l55 44h7q32 -39 79.5 -84t107 -87t128 -74.5t141.5 -47.5zM279 0v75h41q25 0 49.5 -1.5t40.5 -3.5l16 -2l94 7h128v-7l-21 -68h-348zM282 -200q-77 0 -131 20t-82.5 53.5t-28.5 74.5q0 64 65.5 95.5t173.5 31.5
v-75q-78 0 -123.5 -14.5t-53.5 -39.5q8 -31 58 -51t120 -20q15 0 34.5 1t40.5 2l13 -64v-10q-24 -2 -46.5 -3t-39.5 -1zM517 -174q-20 0 -34 14t-14 34t14 34t34 14t34 -14t14 -34t-14 -34t-34 -14zM484 -252q-12 0 -20.5 8.5t-8.5 20.5t8.5 20.5t20.5 8.5t20.5 -8.5
t8.5 -20.5t-8.5 -20.5t-20.5 -8.5zM550 -252q-12 0 -20.5 8.5t-8.5 20.5t8.5 20.5t20.5 8.5t20.5 -8.5t8.5 -20.5t-8.5 -20.5t-20.5 -8.5zM517 -309q-12 0 -20.5 8.5t-8.5 20.5t8.5 20.5t20.5 8.5t20.5 -8.5t8.5 -20.5t-8.5 -20.5t-20.5 -8.5z" />
    <glyph glyph-name="uni088A" unicode="&#x88a;" horiz-adv-x="708" 
d="M574 4q-63 17 -128 47t-126.5 71.5t-116.5 91t-99 104.5l55 44h7q32 -39 79.5 -84t107 -87t128 -74.5t141.5 -47.5zM279 0v75h41q25 0 49.5 -1.5t40.5 -3.5l16 -2l94 7h128v-7l-21 -68h-348zM282 -200q-77 0 -131 20t-82.5 53.5t-28.5 74.5q0 64 65.5 95.5t173.5 31.5
v-75q-78 0 -123.5 -14.5t-53.5 -39.5q8 -31 58 -51t120 -20q15 0 34.5 1t40.5 2l13 -64v-10q-24 -2 -46.5 -3t-39.5 -1zM492 -54l56 -7l47 -158l-2 -4h-45l-34 140l5 1l-32 -141h-46l-2 4l45 158z" />
    <glyph glyph-name="uni0630" unicode="&#x630;" horiz-adv-x="542" 
d="M404 97q0 26 -14.5 47.5t-39.5 34t-57 12.5h-150v11l8 64h142q51 0 93.5 -22t67.5 -60t25 -87h-75zM28 0l-3 6l37 69h118v-75h-152zM62 0v75h251q25 0 49.5 -1.5t40.5 -3.5l16 -2v-68h-357zM111 191l-3 6l37 69h118v-75h-152zM413 0q-2 13 -5.5 36t-3.5 61h75
q0 -33 3 -52t5 -31l-15 -14h-59zM243 362q-20 0 -34 14t-14 34t14 34t34 14t34 -14t14 -34t-14 -34t-34 -14z" />
    <glyph glyph-name="uni0688" unicode="&#x688;" horiz-adv-x="542" 
d="M404 97q0 26 -14.5 47.5t-39.5 34t-57 12.5h-150v11l8 64h142q51 0 93.5 -22t67.5 -60t25 -87h-75zM28 0l-3 6l37 69h118v-75h-152zM62 0v75h251q25 0 49.5 -1.5t40.5 -3.5l16 -2v-68h-357zM111 191l-3 6l37 69h118v-75h-152zM413 0q-2 13 -5.5 36t-3.5 61h75
q0 -33 3 -52t5 -31l-15 -14h-59zM298 411q0 15 -12 25.5t-30 10.5h-56v47h56q38 0 66.5 -23.5t28.5 -59.5h-53zM132 362l-2 3l22 43h40v-46h-60zM192 362v46h71q14 0 28 -1l14 -1v-44h-113zM303 362q-1 13 -3 26t-2 23h53q0 -10 1.5 -22.5t2.5 -21.5l-6 -5h-46zM160 362v175
l54 4v-179h-54z" />
    <glyph glyph-name="uni0689" unicode="&#x689;" horiz-adv-x="542" 
d="M404 97q0 26 -14.5 47.5t-39.5 34t-57 12.5h-150v11l8 64h142q51 0 93.5 -22t67.5 -60t25 -87h-75zM28 0l-3 6l37 69h118v-75h-152zM62 0v75h251q25 0 49.5 -1.5t40.5 -3.5l16 -2v-68h-357zM111 191l-3 6l37 69h118v-75h-152zM413 0q-2 13 -5.5 36t-3.5 61h75
q0 -33 3 -52t5 -31l-15 -14h-59zM269 -139q-42 0 -67 22.5t-25 62.5q0 42 26.5 71.5t65.5 29.5t65.5 -28.5t26.5 -72.5q0 -41 -25 -63t-67 -22zM269 -92q45 0 45 40q0 23 -12.5 37.5t-32.5 14.5q-19 0 -32 -15t-13 -38q0 -39 45 -39z" />
    <glyph glyph-name="uni068A" unicode="&#x68a;" horiz-adv-x="542" 
d="M404 97q0 26 -14.5 47.5t-39.5 34t-57 12.5h-150v11l8 64h142q51 0 93.5 -22t67.5 -60t25 -87h-75zM28 0l-3 6l37 69h118v-75h-152zM62 0v75h251q25 0 49.5 -1.5t40.5 -3.5l16 -2v-68h-357zM111 191l-3 6l37 69h118v-75h-152zM413 0q-2 13 -5.5 36t-3.5 61h75
q0 -33 3 -52t5 -31l-15 -14h-59zM269 -192q-20 0 -34 14t-14 34t14 34t34 14t34 -14t14 -34t-14 -34t-34 -14z" />
    <glyph glyph-name="uni068B" unicode="&#x68b;" horiz-adv-x="542" 
d="M404 97q0 26 -14.5 47.5t-39.5 34t-57 12.5h-150v11l8 64h142q51 0 93.5 -22t67.5 -60t25 -87h-75zM28 0l-3 6l37 69h118v-75h-152zM62 0v75h251q25 0 49.5 -1.5t40.5 -3.5l16 -2v-68h-357zM111 191l-3 6l37 69h118v-75h-152zM413 0q-2 13 -5.5 36t-3.5 61h75
q0 -33 3 -52t5 -31l-15 -14h-59zM269 -192q-20 0 -34 14t-14 34t14 34t34 14t34 -14t14 -34t-14 -34t-34 -14zM298 411q0 15 -12 25.5t-30 10.5h-56v47h56q38 0 66.5 -23.5t28.5 -59.5h-53zM132 362l-2 3l22 43h40v-46h-60zM192 362v46h71q14 0 28 -1l14 -1v-44h-113z
M303 362q-1 13 -3 26t-2 23h53q0 -10 1.5 -22.5t2.5 -21.5l-6 -5h-46zM160 362v175l54 4v-179h-54z" />
    <glyph glyph-name="uni068C" unicode="&#x68c;" horiz-adv-x="542" 
d="M404 97q0 26 -14.5 47.5t-39.5 34t-57 12.5h-150v11l8 64h142q51 0 93.5 -22t67.5 -60t25 -87h-75zM28 0l-3 6l37 69h118v-75h-152zM62 0v75h251q25 0 49.5 -1.5t40.5 -3.5l16 -2v-68h-357zM111 191l-3 6l37 69h118v-75h-152zM413 0q-2 13 -5.5 36t-3.5 61h75
q0 -33 3 -52t5 -31l-15 -14h-59zM188 362q-20 0 -34 14t-14 34t14 34t34 14t34 -14t14 -34t-14 -34t-34 -14zM298 362q-20 0 -34 14t-14 34t14 34t34 14t34 -14t14 -34t-14 -34t-34 -14z" />
    <glyph glyph-name="uni068D" unicode="&#x68d;" horiz-adv-x="542" 
d="M404 97q0 26 -14.5 47.5t-39.5 34t-57 12.5h-150v11l8 64h142q51 0 93.5 -22t67.5 -60t25 -87h-75zM28 0l-3 6l37 69h118v-75h-152zM62 0v75h251q25 0 49.5 -1.5t40.5 -3.5l16 -2v-68h-357zM111 191l-3 6l37 69h118v-75h-152zM413 0q-2 13 -5.5 36t-3.5 61h75
q0 -33 3 -52t5 -31l-15 -14h-59zM214 -192q-20 0 -34 14t-14 34t14 34t34 14t34 -14t14 -34t-14 -34t-34 -14zM324 -192q-20 0 -34 14t-14 34t14 34t34 14t34 -14t14 -34t-14 -34t-34 -14z" />
    <glyph glyph-name="uni068E" unicode="&#x68e;" horiz-adv-x="542" 
d="M404 97q0 26 -14.5 47.5t-39.5 34t-57 12.5h-150v11l8 64h142q51 0 93.5 -22t67.5 -60t25 -87h-75zM28 0l-3 6l37 69h118v-75h-152zM62 0v75h251q25 0 49.5 -1.5t40.5 -3.5l16 -2v-68h-357zM111 191l-3 6l37 69h118v-75h-152zM413 0q-2 13 -5.5 36t-3.5 61h75
q0 -33 3 -52t5 -31l-15 -14h-59zM188 362q-20 0 -34 14t-14 34t14 34t34 14t34 -14t14 -34t-14 -34t-34 -14zM298 362q-20 0 -34 14t-14 34t14 34t34 14t34 -14t14 -34t-14 -34t-34 -14zM243 457q-20 0 -34 14t-14 34t14 34t34 14t34 -14t14 -34t-14 -34t-34 -14z" />
    <glyph glyph-name="uni068F" unicode="&#x68f;" horiz-adv-x="542" 
d="M404 97q0 26 -14.5 47.5t-39.5 34t-57 12.5h-150v11l8 64h142q51 0 93.5 -22t67.5 -60t25 -87h-75zM28 0l-3 6l37 69h118v-75h-152zM62 0v75h251q25 0 49.5 -1.5t40.5 -3.5l16 -2v-68h-357zM111 191l-3 6l37 69h118v-75h-152zM413 0q-2 13 -5.5 36t-3.5 61h75
q0 -33 3 -52t5 -31l-15 -14h-59zM188 457q-20 0 -34 14t-14 34t14 34t34 14t34 -14t14 -34t-14 -34t-34 -14zM298 457q-20 0 -34 14t-14 34t14 34t34 14t34 -14t14 -34t-14 -34t-34 -14zM243 362q-20 0 -34 14t-14 34t14 34t34 14t34 -14t14 -34t-14 -34t-34 -14z" />
    <glyph glyph-name="uni0690" unicode="&#x690;" horiz-adv-x="542" 
d="M404 97q0 26 -14.5 47.5t-39.5 34t-57 12.5h-150v11l8 64h142q51 0 93.5 -22t67.5 -60t25 -87h-75zM28 0l-3 6l37 69h118v-75h-152zM62 0v75h251q25 0 49.5 -1.5t40.5 -3.5l16 -2v-68h-357zM111 191l-3 6l37 69h118v-75h-152zM413 0q-2 13 -5.5 36t-3.5 61h75
q0 -33 3 -52t5 -31l-15 -14h-59zM188 362q-20 0 -34 14t-14 34t14 34t34 14t34 -14t14 -34t-14 -34t-34 -14zM188 472q-20 0 -34 14t-14 34t14 34t34 14t34 -14t14 -34t-14 -34t-34 -14zM298 362q-20 0 -34 14t-14 34t14 34t34 14t34 -14t14 -34t-14 -34t-34 -14zM298 472
q-20 0 -34 14t-14 34t14 34t34 14t34 -14t14 -34t-14 -34t-34 -14z" />
    <glyph glyph-name="uni06EE" unicode="&#x6ee;" horiz-adv-x="542" 
d="M404 97q0 26 -14.5 47.5t-39.5 34t-57 12.5h-150v11l8 64h142q51 0 93.5 -22t67.5 -60t25 -87h-75zM28 0l-3 6l37 69h118v-75h-152zM62 0v75h251q25 0 49.5 -1.5t40.5 -3.5l16 -2v-68h-357zM111 191l-3 6l37 69h118v-75h-152zM413 0q-2 13 -5.5 36t-3.5 61h75
q0 -33 3 -52t5 -31l-15 -14h-59zM218 531l56 -7l47 -158l-2 -4h-45l-34 140l5 1l-32 -141h-46l-2 4l45 158z" />
    <glyph glyph-name="uni0759" unicode="&#x759;" horiz-adv-x="542" 
d="M404 97q0 26 -14.5 47.5t-39.5 34t-57 12.5h-150v11l8 64h142q51 0 93.5 -22t67.5 -60t25 -87h-75zM28 0l-3 6l37 69h118v-75h-152zM62 0v75h251q25 0 49.5 -1.5t40.5 -3.5l16 -2v-68h-357zM111 191l-3 6l37 69h118v-75h-152zM413 0q-2 13 -5.5 36t-3.5 61h75
q0 -33 3 -52t5 -31l-15 -14h-59zM317 -254q0 -20 -14 -34t-34 -14t-34 14t-14 34t14 34t34 14t34 -14t14 -34zM317 -144q0 -20 -14 -34t-34 -14t-34 14t-14 34t14 34t34 14t34 -14t14 -34zM298 411q0 15 -12 25.5t-30 10.5h-56v47h56q38 0 66.5 -23.5t28.5 -59.5h-53z
M132 362l-2 3l22 43h40v-46h-60zM192 362v46h71q14 0 28 -1l14 -1v-44h-113zM303 362q-1 13 -3 26t-2 23h53q0 -10 1.5 -22.5t2.5 -21.5l-6 -5h-46zM160 362v175l54 4v-179h-54z" />
    <glyph glyph-name="uni075A" unicode="&#x75a;" horiz-adv-x="542" 
d="M404 97q0 26 -14.5 47.5t-39.5 34t-57 12.5h-150v11l8 64h142q51 0 93.5 -22t67.5 -60t25 -87h-75zM28 0l-3 6l37 69h118v-75h-152zM62 0v75h251q25 0 49.5 -1.5t40.5 -3.5l16 -2v-68h-357zM111 191l-3 6l37 69h118v-75h-152zM413 0q-2 13 -5.5 36t-3.5 61h75
q0 -33 3 -52t5 -31l-15 -14h-59zM244 -96l56 -7l47 -158l-2 -4h-45l-34 140l5 1l-32 -141h-46l-2 4l45 158z" />
    <glyph glyph-name="uni08AE" unicode="&#x8ae;" horiz-adv-x="542" 
d="M404 97q0 26 -14.5 47.5t-39.5 34t-57 12.5h-150v11l8 64h142q51 0 93.5 -22t67.5 -60t25 -87h-75zM28 0l-3 6l37 69h118v-75h-152zM62 0v75h251q25 0 49.5 -1.5t40.5 -3.5l16 -2v-68h-357zM111 191l-3 6l37 69h118v-75h-152zM413 0q-2 13 -5.5 36t-3.5 61h75
q0 -33 3 -52t5 -31l-15 -14h-59zM214 -192q-20 0 -34 14t-14 34t14 34t34 14t34 -14t14 -34t-14 -34t-34 -14zM324 -192q-20 0 -34 14t-14 34t14 34t34 14t34 -14t14 -34t-14 -34t-34 -14zM269 -287q-20 0 -34 14t-14 34t14 34t34 14t34 -14t14 -34t-14 -34t-34 -14z" />
    <glyph glyph-name="uni0632" unicode="&#x632;" horiz-adv-x="247" 
d="M0 -200v75q62 0 89.5 35.5t27.5 124.5v318l72 9l3 -8v-319q0 -71 -18.5 -124t-60.5 -82t-113 -29zM155 458q-20 0 -34 14t-14 34t14 34t34 14t34 -14t14 -34t-14 -34t-34 -14z" />
    <glyph glyph-name="uni0691" unicode="&#x691;" horiz-adv-x="247" 
d="M0 -200v75q62 0 89.5 35.5t27.5 124.5v318l72 9l3 -8v-319q0 -71 -18.5 -124t-60.5 -82t-113 -29zM210 507q0 15 -12 25.5t-30 10.5h-56v47h56q38 0 66.5 -23.5t28.5 -59.5h-53zM44 458l-2 3l22 43h40v-46h-60zM104 458v46h71q14 0 28 -1l14 -1v-44h-113zM215 458
q-1 13 -3 26t-2 23h53q0 -10 1.5 -22.5t2.5 -21.5l-6 -5h-46zM72 458v175l54 4v-179h-54z" />
    <glyph glyph-name="uni0692" unicode="&#x692;" horiz-adv-x="247" 
d="M0 -200v75q62 0 89.5 35.5t27.5 124.5v318l72 9l3 -8v-319q0 -71 -18.5 -124t-60.5 -82t-113 -29zM130 458l-8 7l-45 158l2 4h46l32 -141l-5 1l34 140h45l2 -4l-47 -158z" />
    <glyph glyph-name="uni0693" unicode="&#x693;" horiz-adv-x="247" 
d="M0 -200v75q62 0 89.5 35.5t27.5 124.5v318l72 9l3 -8v-319q0 -71 -18.5 -124t-60.5 -82t-113 -29zM109 -319q-42 0 -67 22.5t-25 62.5q0 42 26.5 71.5t65.5 29.5t65.5 -28.5t26.5 -72.5q0 -41 -25 -63t-67 -22zM109 -272q45 0 45 40q0 23 -12.5 37.5t-32.5 14.5
q-19 0 -32 -15t-13 -38q0 -39 45 -39z" />
    <glyph glyph-name="uni0694" unicode="&#x694;" horiz-adv-x="247" 
d="M0 -200v75q62 0 89.5 35.5t27.5 124.5v318l72 9l3 -8v-319q0 -71 -18.5 -124t-60.5 -82t-113 -29zM99 -392q-20 0 -34 14t-14 34t14 34t34 14t34 -14t14 -34t-14 -34t-34 -14z" />
    <glyph glyph-name="uni0695" unicode="&#x695;" horiz-adv-x="247" 
d="M0 -200v75q62 0 89.5 35.5t27.5 124.5v318l72 9l3 -8v-319q0 -71 -18.5 -124t-60.5 -82t-113 -29zM74 -465l-8 7l-45 158l2 4h46l32 -141l-5 1l34 140h45l2 -4l-47 -158z" />
    <glyph glyph-name="uni0696" unicode="&#x696;" horiz-adv-x="247" 
d="M0 -200v75q62 0 89.5 35.5t27.5 124.5v318l72 9l3 -8v-319q0 -71 -18.5 -124t-60.5 -82t-113 -29zM17 21q-20 0 -34 14t-14 34t14 34t34 14t34 -14t14 -34t-14 -34t-34 -14zM99 -392q-20 0 -34 14t-14 34t14 34t34 14t34 -14t14 -34t-14 -34t-34 -14z" />
    <glyph glyph-name="uni0697" unicode="&#x697;" horiz-adv-x="247" 
d="M0 -200v75q62 0 89.5 35.5t27.5 124.5v318l72 9l3 -8v-319q0 -71 -18.5 -124t-60.5 -82t-113 -29zM100 458q-20 0 -34 14t-14 34t14 34t34 14t34 -14t14 -34t-14 -34t-34 -14zM210 458q-20 0 -34 14t-14 34t14 34t34 14t34 -14t14 -34t-14 -34t-34 -14z" />
    <glyph glyph-name="uni0698" unicode="&#x698;" horiz-adv-x="247" 
d="M0 -200v75q62 0 89.5 35.5t27.5 124.5v318l72 9l3 -8v-319q0 -71 -18.5 -124t-60.5 -82t-113 -29zM100 458q-20 0 -34 14t-14 34t14 34t34 14t34 -14t14 -34t-14 -34t-34 -14zM210 458q-20 0 -34 14t-14 34t14 34t34 14t34 -14t14 -34t-14 -34t-34 -14zM155 553
q-20 0 -34 14t-14 34t14 34t34 14t34 -14t14 -34t-14 -34t-34 -14z" />
    <glyph glyph-name="uni0699" unicode="&#x699;" horiz-adv-x="247" 
d="M0 -200v75q62 0 89.5 35.5t27.5 124.5v318l72 9l3 -8v-319q0 -71 -18.5 -124t-60.5 -82t-113 -29zM100 458q-20 0 -34 14t-14 34t14 34t34 14t34 -14t14 -34t-14 -34t-34 -14zM100 568q-20 0 -34 14t-14 34t14 34t34 14t34 -14t14 -34t-14 -34t-34 -14zM210 458
q-20 0 -34 14t-14 34t14 34t34 14t34 -14t14 -34t-14 -34t-34 -14zM210 568q-20 0 -34 14t-14 34t14 34t34 14t34 -14t14 -34t-14 -34t-34 -14z" />
    <glyph glyph-name="uni06EF" unicode="&#x6ef;" horiz-adv-x="247" 
d="M0 -200v75q62 0 89.5 35.5t27.5 124.5v318l72 9l3 -8v-319q0 -71 -18.5 -124t-60.5 -82t-113 -29zM130 627l56 -7l47 -158l-2 -4h-45l-34 140l5 1l-32 -141h-46l-2 4l45 158z" />
    <glyph glyph-name="uni076B" unicode="&#x76b;" horiz-adv-x="247" 
d="M0 -200v75q62 0 89.5 35.5t27.5 124.5v318l72 9l3 -8v-319q0 -71 -18.5 -124t-60.5 -82t-113 -29zM202 506q0 -20 -14 -34t-34 -14t-34 14t-14 34t14 34t34 14t34 -14t14 -34zM202 616q0 -20 -14 -34t-34 -14t-34 14t-14 34t14 34t34 14t34 -14t14 -34z" />
    <glyph glyph-name="uni076C" unicode="&#x76c;" horiz-adv-x="247" 
d="M0 -200v75q62 0 89.5 35.5t27.5 124.5v318l72 9l3 -8v-319q0 -71 -18.5 -124t-60.5 -82t-113 -29zM101 494q-14 20 -14 40q0 22 14.5 39t35.5 31.5t41 26.5h3l29 -42q-39 -24 -52.5 -39t-13.5 -25q0 -7 4.5 -11.5t11.5 -4.5zM71 458v51h3q11 0 19.5 -1.5l8.5 -1.5l14 3
h122v-3l-14 -48h-153z" />
    <glyph glyph-name="uni0771" unicode="&#x771;" horiz-adv-x="247" 
d="M0 -200v75q62 0 89.5 35.5t27.5 124.5v318l72 9l3 -8v-319q0 -71 -18.5 -124t-60.5 -82t-113 -29zM100 458q-20 0 -34 14t-14 34t14 34t34 14t34 -14t14 -34t-14 -34t-34 -14zM210 458q-20 0 -34 14t-14 34t14 34t34 14t34 -14t14 -34t-14 -34t-34 -14zM210 652
q0 15 -12 25.5t-30 10.5h-56v47h56q38 0 66.5 -23.5t28.5 -59.5h-53zM44 603l-2 3l22 43h40v-46h-60zM104 603v46h71q14 0 28 -1l14 -1v-44h-113zM215 603q-1 13 -3 26t-2 23h53q0 -10 1.5 -22.5t2.5 -21.5l-6 -5h-46zM72 603v175l54 4v-179h-54z" />
    <glyph glyph-name="uni08B2" unicode="&#x8b2;" horiz-adv-x="247" 
d="M0 -200v75q62 0 89.5 35.5t27.5 124.5v318l72 9l3 -8v-319q0 -71 -18.5 -124t-60.5 -82t-113 -29zM155 458q-20 0 -34 14t-14 34t14 34t34 14t34 -14t14 -34t-14 -34t-34 -14zM130 772l56 -7l47 -158l-2 -4h-45l-34 140l5 1l-32 -141h-46l-2 4l45 158z" />
    <glyph glyph-name="uni0634" unicode="&#x634;" horiz-adv-x="1026" 
d="M282 -232q-109 0 -173 69t-64 191h75q0 -90 42 -137.5t120 -47.5q80 0 125.5 48.5t45.5 136.5h75q0 -81 -31.5 -139.5t-86.5 -89.5t-128 -31zM45 28v55l72 10l3 -8v-57h-75zM453 28v230l72 9l3 -8v-231h-75zM480 0v75h421v-75h-421zM676 0l3 42l-3 32.5t-6 83.5t-3 107
v41l72 9l3 -8v-60q0 -41 2.5 -82t5 -75.5t5 -55l2.5 -20.5l-15 -14h-66zM890 0l3 42l-3 32.5t-6 83.5t-3 107v88l72 9l3 -8v-107q0 -41 2.5 -82t5 -75.5t5 -55l2.5 -20.5l-15 -14h-66zM647 411q-20 0 -34 14t-14 34t14 34t34 14t34 -14t14 -34t-14 -34t-34 -14zM757 411
q-20 0 -34 14t-14 34t14 34t34 14t34 -14t14 -34t-14 -34t-34 -14zM702 506q-20 0 -34 14t-14 34t14 34t34 14t34 -14t14 -34t-14 -34t-34 -14z" />
    <glyph glyph-name="uni069A" unicode="&#x69a;" horiz-adv-x="1026" 
d="M282 -232q-109 0 -173 69t-64 191h75q0 -90 42 -137.5t120 -47.5q80 0 125.5 48.5t45.5 136.5h75q0 -81 -31.5 -139.5t-86.5 -89.5t-128 -31zM45 28v55l72 10l3 -8v-57h-75zM453 28v230l72 9l3 -8v-231h-75zM480 0v75h421v-75h-421zM676 0l3 42l-3 32.5t-6 83.5t-3 107
v41l72 9l3 -8v-60q0 -41 2.5 -82t5 -75.5t5 -55l2.5 -20.5l-15 -14h-66zM890 0l3 42l-3 32.5t-6 83.5t-3 107v88l72 9l3 -8v-107q0 -41 2.5 -82t5 -75.5t5 -55l2.5 -20.5l-15 -14h-66zM722 -192q-20 0 -34 14t-14 34t14 34t34 14t34 -14t14 -34t-14 -34t-34 -14zM702 411
q-20 0 -34 14t-14 34t14 34t34 14t34 -14t14 -34t-14 -34t-34 -14z" />
    <glyph glyph-name="uni069B" unicode="&#x69b;" horiz-adv-x="1026" 
d="M282 -232q-109 0 -173 69t-64 191h75q0 -90 42 -137.5t120 -47.5q80 0 125.5 48.5t45.5 136.5h75q0 -81 -31.5 -139.5t-86.5 -89.5t-128 -31zM45 28v55l72 10l3 -8v-57h-75zM453 28v230l72 9l3 -8v-231h-75zM480 0v75h421v-75h-421zM676 0l3 42l-3 32.5t-6 83.5t-3 107
v41l72 9l3 -8v-60q0 -41 2.5 -82t5 -75.5t5 -55l2.5 -20.5l-15 -14h-66zM890 0l3 42l-3 32.5t-6 83.5t-3 107v88l72 9l3 -8v-107q0 -41 2.5 -82t5 -75.5t5 -55l2.5 -20.5l-15 -14h-66zM667 -192q-20 0 -34 14t-14 34t14 34t34 14t34 -14t14 -34t-14 -34t-34 -14zM777 -192
q-20 0 -34 14t-14 34t14 34t34 14t34 -14t14 -34t-14 -34t-34 -14zM722 -287q-20 0 -34 14t-14 34t14 34t34 14t34 -14t14 -34t-14 -34t-34 -14z" />
    <glyph glyph-name="uni069C" unicode="&#x69c;" horiz-adv-x="1026" 
d="M282 -232q-109 0 -173 69t-64 191h75q0 -90 42 -137.5t120 -47.5q80 0 125.5 48.5t45.5 136.5h75q0 -81 -31.5 -139.5t-86.5 -89.5t-128 -31zM45 28v55l72 10l3 -8v-57h-75zM453 28v230l72 9l3 -8v-231h-75zM480 0v75h421v-75h-421zM676 0l3 42l-3 32.5t-6 83.5t-3 107
v41l72 9l3 -8v-60q0 -41 2.5 -82t5 -75.5t5 -55l2.5 -20.5l-15 -14h-66zM890 0l3 42l-3 32.5t-6 83.5t-3 107v88l72 9l3 -8v-107q0 -41 2.5 -82t5 -75.5t5 -55l2.5 -20.5l-15 -14h-66zM647 411q-20 0 -34 14t-14 34t14 34t34 14t34 -14t14 -34t-14 -34t-34 -14zM757 411
q-20 0 -34 14t-14 34t14 34t34 14t34 -14t14 -34t-14 -34t-34 -14zM702 506q-20 0 -34 14t-14 34t14 34t34 14t34 -14t14 -34t-14 -34t-34 -14zM667 -192q-20 0 -34 14t-14 34t14 34t34 14t34 -14t14 -34t-14 -34t-34 -14zM777 -192q-20 0 -34 14t-14 34t14 34t34 14t34 -14
t14 -34t-14 -34t-34 -14zM722 -287q-20 0 -34 14t-14 34t14 34t34 14t34 -14t14 -34t-14 -34t-34 -14z" />
    <glyph glyph-name="uni06FA" unicode="&#x6fa;" horiz-adv-x="1026" 
d="M282 -232q-109 0 -173 69t-64 191h75q0 -90 42 -137.5t120 -47.5q80 0 125.5 48.5t45.5 136.5h75q0 -81 -31.5 -139.5t-86.5 -89.5t-128 -31zM45 28v55l72 10l3 -8v-57h-75zM453 28v230l72 9l3 -8v-231h-75zM480 0v75h421v-75h-421zM676 0l3 42l-3 32.5t-6 83.5t-3 107
v41l72 9l3 -8v-60q0 -41 2.5 -82t5 -75.5t5 -55l2.5 -20.5l-15 -14h-66zM890 0l3 42l-3 32.5t-6 83.5t-3 107v88l72 9l3 -8v-107q0 -41 2.5 -82t5 -75.5t5 -55l2.5 -20.5l-15 -14h-66zM647 411q-20 0 -34 14t-14 34t14 34t34 14t34 -14t14 -34t-14 -34t-34 -14zM757 411
q-20 0 -34 14t-14 34t14 34t34 14t34 -14t14 -34t-14 -34t-34 -14zM702 506q-20 0 -34 14t-14 34t14 34t34 14t34 -14t14 -34t-14 -34t-34 -14zM722 -192q-20 0 -34 14t-14 34t14 34t34 14t34 -14t14 -34t-14 -34t-34 -14z" />
    <glyph glyph-name="uni075C" unicode="&#x75c;" horiz-adv-x="1026" 
d="M282 -232q-109 0 -173 69t-64 191h75q0 -90 42 -137.5t120 -47.5q80 0 125.5 48.5t45.5 136.5h75q0 -81 -31.5 -139.5t-86.5 -89.5t-128 -31zM45 28v55l72 10l3 -8v-57h-75zM453 28v230l72 9l3 -8v-231h-75zM480 0v75h421v-75h-421zM676 0l3 42l-3 32.5t-6 83.5t-3 107
v41l72 9l3 -8v-60q0 -41 2.5 -82t5 -75.5t5 -55l2.5 -20.5l-15 -14h-66zM890 0l3 42l-3 32.5t-6 83.5t-3 107v88l72 9l3 -8v-107q0 -41 2.5 -82t5 -75.5t5 -55l2.5 -20.5l-15 -14h-66zM647 411q-20 0 -34 14t-14 34t14 34t34 14t34 -14t14 -34t-14 -34t-34 -14zM647 521
q-20 0 -34 14t-14 34t14 34t34 14t34 -14t14 -34t-14 -34t-34 -14zM757 411q-20 0 -34 14t-14 34t14 34t34 14t34 -14t14 -34t-14 -34t-34 -14zM757 521q-20 0 -34 14t-14 34t14 34t34 14t34 -14t14 -34t-14 -34t-34 -14z" />
    <glyph glyph-name="uni076D" unicode="&#x76d;" horiz-adv-x="1026" 
d="M282 -232q-109 0 -173 69t-64 191h75q0 -90 42 -137.5t120 -47.5q80 0 125.5 48.5t45.5 136.5h75q0 -81 -31.5 -139.5t-86.5 -89.5t-128 -31zM45 28v55l72 10l3 -8v-57h-75zM453 28v230l72 9l3 -8v-231h-75zM480 0v75h421v-75h-421zM676 0l3 42l-3 32.5t-6 83.5t-3 107
v41l72 9l3 -8v-60q0 -41 2.5 -82t5 -75.5t5 -55l2.5 -20.5l-15 -14h-66zM890 0l3 42l-3 32.5t-6 83.5t-3 107v88l72 9l3 -8v-107q0 -41 2.5 -82t5 -75.5t5 -55l2.5 -20.5l-15 -14h-66zM749 459q0 -20 -14 -34t-34 -14t-34 14t-14 34t14 34t34 14t34 -14t14 -34zM749 569
q0 -20 -14 -34t-34 -14t-34 14t-14 34t14 34t34 14t34 -14t14 -34z" />
    <glyph glyph-name="uni0770" unicode="&#x770;" horiz-adv-x="1026" 
d="M282 -232q-109 0 -173 69t-64 191h75q0 -90 42 -137.5t120 -47.5q80 0 125.5 48.5t45.5 136.5h75q0 -81 -31.5 -139.5t-86.5 -89.5t-128 -31zM45 28v55l72 10l3 -8v-57h-75zM453 28v230l72 9l3 -8v-231h-75zM480 0v75h421v-75h-421zM676 0l3 42l-3 32.5t-6 83.5t-3 107
v41l72 9l3 -8v-60q0 -41 2.5 -82t5 -75.5t5 -55l2.5 -20.5l-15 -14h-66zM890 0l3 42l-3 32.5t-6 83.5t-3 107v88l72 9l3 -8v-107q0 -41 2.5 -82t5 -75.5t5 -55l2.5 -20.5l-15 -14h-66zM647 411q-20 0 -34 14t-14 34t14 34t34 14t34 -14t14 -34t-14 -34t-34 -14zM757 411
q-20 0 -34 14t-14 34t14 34t34 14t34 -14t14 -34t-14 -34t-34 -14zM757 605q0 15 -12 25.5t-30 10.5h-56v47h56q38 0 66.5 -23.5t28.5 -59.5h-53zM591 556l-2 3l22 43h40v-46h-60zM651 556v46h71q14 0 28 -1l14 -1v-44h-113zM762 556q-1 13 -3 26t-2 23h53q0 -10 1.5 -22.5
t2.5 -21.5l-6 -5h-46zM619 556v175l54 4v-179h-54z" />
    <glyph glyph-name="uni077E" unicode="&#x77e;" horiz-adv-x="1026" 
d="M282 -232q-109 0 -173 69t-64 191h75q0 -90 42 -137.5t120 -47.5q80 0 125.5 48.5t45.5 136.5h75q0 -81 -31.5 -139.5t-86.5 -89.5t-128 -31zM45 28v55l72 10l3 -8v-57h-75zM453 28v230l72 9l3 -8v-231h-75zM480 0v75h421v-75h-421zM676 0l3 42l-3 32.5t-6 83.5t-3 107
v41l72 9l3 -8v-60q0 -41 2.5 -82t5 -75.5t5 -55l2.5 -20.5l-15 -14h-66zM890 0l3 42l-3 32.5t-6 83.5t-3 107v88l72 9l3 -8v-107q0 -41 2.5 -82t5 -75.5t5 -55l2.5 -20.5l-15 -14h-66zM677 580l56 -7l47 -158l-2 -4h-45l-34 140l5 1l-32 -141h-46l-2 4l45 158z" />
    <glyph glyph-name="uni0636" unicode="&#x636;" horiz-adv-x="1205" 
d="M453 0v353l72 9l3 -8v-354h-75zM498 191v75h381v-75h-381zM498 0v75h381v-75h-381zM282 -231q-109 0 -173 69t-64 191h75q0 -90 42 -137.5t120 -47.5q80 0 125.5 48.5t45.5 136.5h75q0 -81 -31.5 -139.5t-86.5 -89.5t-128 -31zM45 29v55l72 10l3 -8v-57h-75zM453 29v324
l72 9l3 -8v-325h-75zM1067 97q0 26 -14.5 47.5t-39.5 34t-57 12.5h-150v11l8 64h142q51 0 93.5 -22t67.5 -60t25 -87h-75zM691 0l-3 6l37 69h118v-75h-152zM725 0v75h251q25 0 49.5 -1.5t40.5 -3.5l16 -2v-68h-357zM774 191l-3 6l37 69h118v-75h-152zM1076 0q-2 13 -5.5 36
t-3.5 61h75q0 -33 3 -52t5 -31l-15 -14h-59zM768 362q-20 0 -34 14t-14 34t14 34t34 14t34 -14t14 -34t-14 -34t-34 -14z" />
    <glyph glyph-name="uni069D" unicode="&#x69d;" horiz-adv-x="1205" 
d="M453 0v353l72 9l3 -8v-354h-75zM498 191v75h381v-75h-381zM498 0v75h381v-75h-381zM282 -231q-109 0 -173 69t-64 191h75q0 -90 42 -137.5t120 -47.5q80 0 125.5 48.5t45.5 136.5h75q0 -81 -31.5 -139.5t-86.5 -89.5t-128 -31zM45 29v55l72 10l3 -8v-57h-75zM453 29v324
l72 9l3 -8v-325h-75zM1067 97q0 26 -14.5 47.5t-39.5 34t-57 12.5h-150v11l8 64h142q51 0 93.5 -22t67.5 -60t25 -87h-75zM691 0l-3 6l37 69h118v-75h-152zM725 0v75h251q25 0 49.5 -1.5t40.5 -3.5l16 -2v-68h-357zM774 191l-3 6l37 69h118v-75h-152zM1076 0q-2 13 -5.5 36
t-3.5 61h75q0 -33 3 -52t5 -31l-15 -14h-59zM743 -196q-20 0 -34 14t-14 34t14 34t34 14t34 -14t14 -34t-14 -34t-34 -14zM853 -196q-20 0 -34 14t-14 34t14 34t34 14t34 -14t14 -34t-14 -34t-34 -14z" />
    <glyph glyph-name="uni069E" unicode="&#x69e;" horiz-adv-x="1205" 
d="M453 0v353l72 9l3 -8v-354h-75zM498 191v75h381v-75h-381zM498 0v75h381v-75h-381zM282 -231q-109 0 -173 69t-64 191h75q0 -90 42 -137.5t120 -47.5q80 0 125.5 48.5t45.5 136.5h75q0 -81 -31.5 -139.5t-86.5 -89.5t-128 -31zM45 29v55l72 10l3 -8v-57h-75zM453 29v324
l72 9l3 -8v-325h-75zM1067 97q0 26 -14.5 47.5t-39.5 34t-57 12.5h-150v11l8 64h142q51 0 93.5 -22t67.5 -60t25 -87h-75zM691 0l-3 6l37 69h118v-75h-152zM725 0v75h251q25 0 49.5 -1.5t40.5 -3.5l16 -2v-68h-357zM774 191l-3 6l37 69h118v-75h-152zM1076 0q-2 13 -5.5 36
t-3.5 61h75q0 -33 3 -52t5 -31l-15 -14h-59zM713 362q-20 0 -34 14t-14 34t14 34t34 14t34 -14t14 -34t-14 -34t-34 -14zM823 362q-20 0 -34 14t-14 34t14 34t34 14t34 -14t14 -34t-14 -34t-34 -14zM768 457q-20 0 -34 14t-14 34t14 34t34 14t34 -14t14 -34t-14 -34t-34 -14
z" />
    <glyph glyph-name="uni06FB" unicode="&#x6fb;" horiz-adv-x="1205" 
d="M453 0v353l72 9l3 -8v-354h-75zM498 191v75h381v-75h-381zM498 0v75h381v-75h-381zM282 -231q-109 0 -173 69t-64 191h75q0 -90 42 -137.5t120 -47.5q80 0 125.5 48.5t45.5 136.5h75q0 -81 -31.5 -139.5t-86.5 -89.5t-128 -31zM45 29v55l72 10l3 -8v-57h-75zM453 29v324
l72 9l3 -8v-325h-75zM1067 97q0 26 -14.5 47.5t-39.5 34t-57 12.5h-150v11l8 64h142q51 0 93.5 -22t67.5 -60t25 -87h-75zM691 0l-3 6l37 69h118v-75h-152zM725 0v75h251q25 0 49.5 -1.5t40.5 -3.5l16 -2v-68h-357zM774 191l-3 6l37 69h118v-75h-152zM1076 0q-2 13 -5.5 36
t-3.5 61h75q0 -33 3 -52t5 -31l-15 -14h-59zM768 362q-20 0 -34 14t-14 34t14 34t34 14t34 -14t14 -34t-14 -34t-34 -14zM798 -196q-20 0 -34 14t-14 34t14 34t34 14t34 -14t14 -34t-14 -34t-34 -14z" />
    <glyph glyph-name="uni08AF" unicode="&#x8af;" horiz-adv-x="1205" 
d="M453 0v353l72 9l3 -8v-354h-75zM498 191v75h381v-75h-381zM498 0v75h381v-75h-381zM282 -231q-109 0 -173 69t-64 191h75q0 -90 42 -137.5t120 -47.5q80 0 125.5 48.5t45.5 136.5h75q0 -81 -31.5 -139.5t-86.5 -89.5t-128 -31zM45 29v55l72 10l3 -8v-57h-75zM453 29v324
l72 9l3 -8v-325h-75zM1067 97q0 26 -14.5 47.5t-39.5 34t-57 12.5h-150v11l8 64h142q51 0 93.5 -22t67.5 -60t25 -87h-75zM691 0l-3 6l37 69h118v-75h-152zM725 0v75h251q25 0 49.5 -1.5t40.5 -3.5l16 -2v-68h-357zM774 191l-3 6l37 69h118v-75h-152zM1076 0q-2 13 -5.5 36
t-3.5 61h75q0 -33 3 -52t5 -31l-15 -14h-59zM743 -196q-20 0 -34 14t-14 34t14 34t34 14t34 -14t14 -34t-14 -34t-34 -14zM853 -196q-20 0 -34 14t-14 34t14 34t34 14t34 -14t14 -34t-14 -34t-34 -14zM798 -291q-20 0 -34 14t-14 34t14 34t34 14t34 -14t14 -34t-14 -34
t-34 -14z" />
    <glyph glyph-name="uni0638" unicode="&#x638;" horiz-adv-x="872" 
d="M120 0v746l72 9l3 -8v-747h-75zM43 0l-3 6l37 69h118v-75h-152zM165 191v75h381v-75h-381zM165 0v75h381v-75h-381zM734 97q0 26 -14.5 47.5t-39.5 34t-57 12.5h-150v11l8 64h142q51 0 93.5 -22t67.5 -60t25 -87h-75zM358 0l-3 6l37 69h118v-75h-152zM392 0v75h251
q25 0 49.5 -1.5t40.5 -3.5l16 -2v-68h-357zM441 191l-3 6l37 69h118v-75h-152zM743 0q-2 13 -5.5 36t-3.5 61h75q0 -33 3 -52t5 -31l-15 -14h-59zM455 362q-20 0 -34 14t-14 34t14 34t34 14t34 -14t14 -34t-14 -34t-34 -14z" />
    <glyph glyph-name="uni069F" unicode="&#x69f;" horiz-adv-x="872" 
d="M120 0v746l72 9l3 -8v-747h-75zM43 0l-3 6l37 69h118v-75h-152zM165 191v75h381v-75h-381zM165 0v75h381v-75h-381zM734 97q0 26 -14.5 47.5t-39.5 34t-57 12.5h-150v11l8 64h142q51 0 93.5 -22t67.5 -60t25 -87h-75zM358 0l-3 6l37 69h118v-75h-152zM392 0v75h251
q25 0 49.5 -1.5t40.5 -3.5l16 -2v-68h-357zM441 191l-3 6l37 69h118v-75h-152zM743 0q-2 13 -5.5 36t-3.5 61h75q0 -33 3 -52t5 -31l-15 -14h-59zM400 362q-20 0 -34 14t-14 34t14 34t34 14t34 -14t14 -34t-14 -34t-34 -14zM510 362q-20 0 -34 14t-14 34t14 34t34 14t34 -14
t14 -34t-14 -34t-34 -14zM455 457q-20 0 -34 14t-14 34t14 34t34 14t34 -14t14 -34t-14 -34t-34 -14z" />
    <glyph glyph-name="uni08A3" unicode="&#x8a3;" horiz-adv-x="872" 
d="M120 0v746l72 9l3 -8v-747h-75zM43 0l-3 6l37 69h118v-75h-152zM165 191v75h381v-75h-381zM165 0v75h381v-75h-381zM734 97q0 26 -14.5 47.5t-39.5 34t-57 12.5h-150v11l8 64h142q51 0 93.5 -22t67.5 -60t25 -87h-75zM358 0l-3 6l37 69h118v-75h-152zM392 0v75h251
q25 0 49.5 -1.5t40.5 -3.5l16 -2v-68h-357zM441 191l-3 6l37 69h118v-75h-152zM743 0q-2 13 -5.5 36t-3.5 61h75q0 -33 3 -52t5 -31l-15 -14h-59zM400 362q-20 0 -34 14t-14 34t14 34t34 14t34 -14t14 -34t-14 -34t-34 -14zM510 362q-20 0 -34 14t-14 34t14 34t34 14t34 -14
t14 -34t-14 -34t-34 -14z" />
    <glyph glyph-name="uni088B" unicode="&#x88b;" horiz-adv-x="872" 
d="M120 0v746l72 9l3 -8v-747h-75zM43 0l-3 6l37 69h118v-75h-152zM165 191v75h381v-75h-381zM165 0v75h381v-75h-381zM734 97q0 26 -14.5 47.5t-39.5 34t-57 12.5h-150v11l8 64h142q51 0 93.5 -22t67.5 -60t25 -87h-75zM358 0l-3 6l37 69h118v-75h-152zM392 0v75h251
q25 0 49.5 -1.5t40.5 -3.5l16 -2v-68h-357zM441 191l-3 6l37 69h118v-75h-152zM743 0q-2 13 -5.5 36t-3.5 61h75q0 -33 3 -52t5 -31l-15 -14h-59zM465 -196q-20 0 -34 14t-14 34t14 34t34 14t34 -14t14 -34t-14 -34t-34 -14z" />
    <glyph glyph-name="uni088C" unicode="&#x88c;" horiz-adv-x="872" 
d="M120 0v746l72 9l3 -8v-747h-75zM43 0l-3 6l37 69h118v-75h-152zM165 191v75h381v-75h-381zM165 0v75h381v-75h-381zM734 97q0 26 -14.5 47.5t-39.5 34t-57 12.5h-150v11l8 64h142q51 0 93.5 -22t67.5 -60t25 -87h-75zM358 0l-3 6l37 69h118v-75h-152zM392 0v75h251
q25 0 49.5 -1.5t40.5 -3.5l16 -2v-68h-357zM441 191l-3 6l37 69h118v-75h-152zM743 0q-2 13 -5.5 36t-3.5 61h75q0 -33 3 -52t5 -31l-15 -14h-59zM410 -196q-20 0 -34 14t-14 34t14 34t34 14t34 -14t14 -34t-14 -34t-34 -14zM520 -196q-20 0 -34 14t-14 34t14 34t34 14
t34 -14t14 -34t-14 -34t-34 -14zM465 -291q-20 0 -34 14t-14 34t14 34t34 14t34 -14t14 -34t-14 -34t-34 -14z" />
    <glyph glyph-name="uni063A" unicode="&#x63a;" horiz-adv-x="535" 
d="M157 40q-32 49 -32 94q0 38 20 70t52 60t69.5 52t72.5 46h7l37 -61q-56 -34 -92 -61t-56.5 -49t-29 -39t-8.5 -30q0 -19 12 -33t32 -14zM192 0v75h278v-7l-21 -68h-257zM282 -200q-77 0 -131 20t-82.5 53.5t-28.5 74.5q0 64 65.5 95.5t173.5 31.5v-75q-78 0 -123.5 -14.5
t-53.5 -39.5q8 -31 58 -51t120 -20q21 0 49 1.5t56 3.5l13 -63v-10q-20 -2 -41.5 -4t-40.5 -2.5t-34 -0.5zM259 465q-20 0 -34 14t-14 34t14 34t34 14t34 -14t14 -34t-14 -34t-34 -14z" />
    <glyph glyph-name="uni06A0" unicode="&#x6a0;" horiz-adv-x="535" 
d="M157 40q-32 49 -32 94q0 38 20 70t52 60t69.5 52t72.5 46h7l37 -61q-56 -34 -92 -61t-56.5 -49t-29 -39t-8.5 -30q0 -19 12 -33t32 -14zM192 0v75h278v-7l-21 -68h-257zM282 -200q-77 0 -131 20t-82.5 53.5t-28.5 74.5q0 64 65.5 95.5t173.5 31.5v-75q-78 0 -123.5 -14.5
t-53.5 -39.5q8 -31 58 -51t120 -20q21 0 49 1.5t56 3.5l13 -63v-10q-20 -2 -41.5 -4t-40.5 -2.5t-34 -0.5zM204 465q-20 0 -34 14t-14 34t14 34t34 14t34 -14t14 -34t-14 -34t-34 -14zM314 465q-20 0 -34 14t-14 34t14 34t34 14t34 -14t14 -34t-14 -34t-34 -14zM259 560
q-20 0 -34 14t-14 34t14 34t34 14t34 -14t14 -34t-14 -34t-34 -14z" />
    <glyph glyph-name="uni06FC" unicode="&#x6fc;" horiz-adv-x="535" 
d="M157 40q-32 49 -32 94q0 38 20 70t52 60t69.5 52t72.5 46h7l37 -61q-56 -34 -92 -61t-56.5 -49t-29 -39t-8.5 -30q0 -19 12 -33t32 -14zM192 0v75h278v-7l-21 -68h-257zM282 -200q-77 0 -131 20t-82.5 53.5t-28.5 74.5q0 64 65.5 95.5t173.5 31.5v-75q-78 0 -123.5 -14.5
t-53.5 -39.5q8 -31 58 -51t120 -20q21 0 49 1.5t56 3.5l13 -63v-10q-20 -2 -41.5 -4t-40.5 -2.5t-34 -0.5zM259 465q-20 0 -34 14t-14 34t14 34t34 14t34 -14t14 -34t-14 -34t-34 -14zM273 -392q-20 0 -34 14t-14 34t14 34t34 14t34 -14t14 -34t-14 -34t-34 -14z" />
    <glyph glyph-name="uni075D" unicode="&#x75d;" horiz-adv-x="535" 
d="M157 40q-32 49 -32 94q0 38 20 70t52 60t69.5 52t72.5 46h7l37 -61q-56 -34 -92 -61t-56.5 -49t-29 -39t-8.5 -30q0 -19 12 -33t32 -14zM192 0v75h278v-7l-21 -68h-257zM282 -200q-77 0 -131 20t-82.5 53.5t-28.5 74.5q0 64 65.5 95.5t173.5 31.5v-75q-78 0 -123.5 -14.5
t-53.5 -39.5q8 -31 58 -51t120 -20q21 0 49 1.5t56 3.5l13 -63v-10q-20 -2 -41.5 -4t-40.5 -2.5t-34 -0.5zM204 465q-20 0 -34 14t-14 34t14 34t34 14t34 -14t14 -34t-14 -34t-34 -14zM314 465q-20 0 -34 14t-14 34t14 34t34 14t34 -14t14 -34t-14 -34t-34 -14z" />
    <glyph glyph-name="uni075E" unicode="&#x75e;" horiz-adv-x="535" 
d="M157 40q-32 49 -32 94q0 38 20 70t52 60t69.5 52t72.5 46h7l37 -61q-56 -34 -92 -61t-56.5 -49t-29 -39t-8.5 -30q0 -19 12 -33t32 -14zM192 0v75h278v-7l-21 -68h-257zM282 -200q-77 0 -131 20t-82.5 53.5t-28.5 74.5q0 64 65.5 95.5t173.5 31.5v-75q-78 0 -123.5 -14.5
t-53.5 -39.5q8 -31 58 -51t120 -20q21 0 49 1.5t56 3.5l13 -63v-10q-20 -2 -41.5 -4t-40.5 -2.5t-34 -0.5zM204 560q-20 0 -34 14t-14 34t14 34t34 14t34 -14t14 -34t-14 -34t-34 -14zM314 560q-20 0 -34 14t-14 34t14 34t34 14t34 -14t14 -34t-14 -34t-34 -14zM259 465
q-20 0 -34 14t-14 34t14 34t34 14t34 -14t14 -34t-14 -34t-34 -14z" />
    <glyph glyph-name="uni075F" unicode="&#x75f;" horiz-adv-x="535" 
d="M157 40q-32 49 -32 94q0 38 20 70t52 60t69.5 52t72.5 46h7l37 -61q-56 -34 -92 -61t-56.5 -49t-29 -39t-8.5 -30q0 -19 12 -33t32 -14zM192 0v75h278v-7l-21 -68h-257zM282 -200q-77 0 -131 20t-82.5 53.5t-28.5 74.5q0 64 65.5 95.5t173.5 31.5v-75q-78 0 -123.5 -14.5
t-53.5 -39.5q8 -31 58 -51t120 -20q21 0 49 1.5t56 3.5l13 -63v-10q-20 -2 -41.5 -4t-40.5 -2.5t-34 -0.5zM306 513q0 -20 -14 -34t-34 -14t-34 14t-14 34t14 34t34 14t34 -14t14 -34zM306 623q0 -20 -14 -34t-34 -14t-34 14t-14 34t14 34t34 14t34 -14t14 -34z" />
    <glyph glyph-name="uni08B3" unicode="&#x8b3;" horiz-adv-x="535" 
d="M157 40q-32 49 -32 94q0 38 20 70t52 60t69.5 52t72.5 46h7l37 -61q-56 -34 -92 -61t-56.5 -49t-29 -39t-8.5 -30q0 -19 12 -33t32 -14zM192 0v75h278v-7l-21 -68h-257zM282 -200q-77 0 -131 20t-82.5 53.5t-28.5 74.5q0 64 65.5 95.5t173.5 31.5v-75q-78 0 -123.5 -14.5
t-53.5 -39.5q8 -31 58 -51t120 -20q21 0 49 1.5t56 3.5l13 -63v-10q-20 -2 -41.5 -4t-40.5 -2.5t-34 -0.5zM218 -392q-20 0 -34 14t-14 34t14 34t34 14t34 -14t14 -34t-14 -34t-34 -14zM328 -392q-20 0 -34 14t-14 34t14 34t34 14t34 -14t14 -34t-14 -34t-34 -14zM273 -487
q-20 0 -34 14t-14 34t14 34t34 14t34 -14t14 -34t-14 -34t-34 -14z" />
    <glyph glyph-name="uni08C3" unicode="&#x8c3;" horiz-adv-x="535" 
d="M157 40q-32 49 -32 94q0 38 20 70t52 60t69.5 52t72.5 46h7l37 -61q-56 -34 -92 -61t-56.5 -49t-29 -39t-8.5 -30q0 -19 12 -33t32 -14zM192 0v75h278v-7l-21 -68h-257zM282 -200q-77 0 -131 20t-82.5 53.5t-28.5 74.5q0 64 65.5 95.5t173.5 31.5v-75q-78 0 -123.5 -14.5
t-53.5 -39.5q8 -31 58 -51t120 -20q21 0 49 1.5t56 3.5l13 -63v-10q-20 -2 -41.5 -4t-40.5 -2.5t-34 -0.5zM259 465q-20 0 -34 14t-14 34t14 34t34 14t34 -14t14 -34t-14 -34t-34 -14zM226 581q-12 0 -20.5 8t-8.5 21q0 12 8.5 20t20.5 8t20.5 -8t8.5 -20q0 -13 -8.5 -21
t-20.5 -8zM292 581q-12 0 -20.5 8t-8.5 21q0 12 8.5 20t20.5 8t20.5 -8t8.5 -20q0 -13 -8.5 -21t-20.5 -8zM259 638q-12 0 -20.5 8t-8.5 21q0 12 8.5 20t20.5 8t20.5 -8t8.5 -20q0 -13 -8.5 -21t-20.5 -8z" />
    <glyph glyph-name="uni0641" unicode="&#x641;" horiz-adv-x="961" 
d="M468 0q-75 0 -151.5 5.5t-144.5 21.5t-117 47l36 59h11q50 -30 139 -44t227 -14h274q25 0 49.5 -1.5t40.5 -3.5l16 -2h-20v8v8q-1 106 -31.5 164t-84.5 58q-27 0 -50.5 -14.5t-37.5 -41.5t-14 -64q0 -52 32.5 -81.5t97.5 -29.5v-56q-75 0 -120 25t-65 65t-20 84
q0 55 24.5 97t65.5 66.5t89 24.5q62 0 104 -39t63.5 -106t21.5 -152q0 -19 1 -39t2 -35l-7 -10h-431zM714 477q-20 0 -34 14t-14 34t14 34t34 14t34 -14t14 -34t-14 -34t-34 -14z" />
    <glyph glyph-name="uni06A2" unicode="&#x6a2;" horiz-adv-x="961" 
d="M468 0q-75 0 -151.5 5.5t-144.5 21.5t-117 47l36 59h11q50 -30 139 -44t227 -14h274q25 0 49.5 -1.5t40.5 -3.5l16 -2h-20v8v8q-1 106 -31.5 164t-84.5 58q-27 0 -50.5 -14.5t-37.5 -41.5t-14 -64q0 -52 32.5 -81.5t97.5 -29.5v-56q-75 0 -120 25t-65 65t-20 84
q0 55 24.5 97t65.5 66.5t89 24.5q62 0 104 -39t63.5 -106t21.5 -152q0 -19 1 -39t2 -35l-7 -10h-431zM714 -192q-20 0 -34 14t-14 34t14 34t34 14t34 -14t14 -34t-14 -34t-34 -14z" />
    <glyph glyph-name="uni06A3" unicode="&#x6a3;" horiz-adv-x="961" 
d="M468 0q-75 0 -151.5 5.5t-144.5 21.5t-117 47l36 59h11q50 -30 139 -44t227 -14h274q25 0 49.5 -1.5t40.5 -3.5l16 -2h-20v8v8q-1 106 -31.5 164t-84.5 58q-27 0 -50.5 -14.5t-37.5 -41.5t-14 -64q0 -52 32.5 -81.5t97.5 -29.5v-56q-75 0 -120 25t-65 65t-20 84
q0 55 24.5 97t65.5 66.5t89 24.5q62 0 104 -39t63.5 -106t21.5 -152q0 -19 1 -39t2 -35l-7 -10h-431zM714 477q-20 0 -34 14t-14 34t14 34t34 14t34 -14t14 -34t-14 -34t-34 -14zM714 -192q-20 0 -34 14t-14 34t14 34t34 14t34 -14t14 -34t-14 -34t-34 -14z" />
    <glyph glyph-name="uni06A4" unicode="&#x6a4;" horiz-adv-x="961" 
d="M468 0q-75 0 -151.5 5.5t-144.5 21.5t-117 47l36 59h11q50 -30 139 -44t227 -14h274q25 0 49.5 -1.5t40.5 -3.5l16 -2h-20v8v8q-1 106 -31.5 164t-84.5 58q-27 0 -50.5 -14.5t-37.5 -41.5t-14 -64q0 -52 32.5 -81.5t97.5 -29.5v-56q-75 0 -120 25t-65 65t-20 84
q0 55 24.5 97t65.5 66.5t89 24.5q62 0 104 -39t63.5 -106t21.5 -152q0 -19 1 -39t2 -35l-7 -10h-431zM659 477q-20 0 -34 14t-14 34t14 34t34 14t34 -14t14 -34t-14 -34t-34 -14zM769 477q-20 0 -34 14t-14 34t14 34t34 14t34 -14t14 -34t-14 -34t-34 -14zM714 572
q-20 0 -34 14t-14 34t14 34t34 14t34 -14t14 -34t-14 -34t-34 -14z" />
    <glyph glyph-name="uni06A5" unicode="&#x6a5;" horiz-adv-x="961" 
d="M468 0q-75 0 -151.5 5.5t-144.5 21.5t-117 47l36 59h11q50 -30 139 -44t227 -14h274q25 0 49.5 -1.5t40.5 -3.5l16 -2h-20v8v8q-1 106 -31.5 164t-84.5 58q-27 0 -50.5 -14.5t-37.5 -41.5t-14 -64q0 -52 32.5 -81.5t97.5 -29.5v-56q-75 0 -120 25t-65 65t-20 84
q0 55 24.5 97t65.5 66.5t89 24.5q62 0 104 -39t63.5 -106t21.5 -152q0 -19 1 -39t2 -35l-7 -10h-431zM659 -192q-20 0 -34 14t-14 34t14 34t34 14t34 -14t14 -34t-14 -34t-34 -14zM769 -192q-20 0 -34 14t-14 34t14 34t34 14t34 -14t14 -34t-14 -34t-34 -14zM714 -287
q-20 0 -34 14t-14 34t14 34t34 14t34 -14t14 -34t-14 -34t-34 -14z" />
    <glyph glyph-name="uni06A6" unicode="&#x6a6;" horiz-adv-x="961" 
d="M468 0q-75 0 -151.5 5.5t-144.5 21.5t-117 47l36 59h11q50 -30 139 -44t227 -14h274q25 0 49.5 -1.5t40.5 -3.5l16 -2h-20v8v8q-1 106 -31.5 164t-84.5 58q-27 0 -50.5 -14.5t-37.5 -41.5t-14 -64q0 -52 32.5 -81.5t97.5 -29.5v-56q-75 0 -120 25t-65 65t-20 84
q0 55 24.5 97t65.5 66.5t89 24.5q62 0 104 -39t63.5 -106t21.5 -152q0 -19 1 -39t2 -35l-7 -10h-431zM659 477q-20 0 -34 14t-14 34t14 34t34 14t34 -14t14 -34t-14 -34t-34 -14zM659 587q-20 0 -34 14t-14 34t14 34t34 14t34 -14t14 -34t-14 -34t-34 -14zM769 477
q-20 0 -34 14t-14 34t14 34t34 14t34 -14t14 -34t-14 -34t-34 -14zM769 587q-20 0 -34 14t-14 34t14 34t34 14t34 -14t14 -34t-14 -34t-34 -14z" />
    <glyph glyph-name="uni0760" unicode="&#x760;" horiz-adv-x="961" 
d="M468 0q-75 0 -151.5 5.5t-144.5 21.5t-117 47l36 59h11q50 -30 139 -44t227 -14h274q25 0 49.5 -1.5t40.5 -3.5l16 -2h-20v8v8q-1 106 -31.5 164t-84.5 58q-27 0 -50.5 -14.5t-37.5 -41.5t-14 -64q0 -52 32.5 -81.5t97.5 -29.5v-56q-75 0 -120 25t-65 65t-20 84
q0 55 24.5 97t65.5 66.5t89 24.5q62 0 104 -39t63.5 -106t21.5 -152q0 -19 1 -39t2 -35l-7 -10h-431zM659 -192q-20 0 -34 14t-14 34t14 34t34 14t34 -14t14 -34t-14 -34t-34 -14zM769 -192q-20 0 -34 14t-14 34t14 34t34 14t34 -14t14 -34t-14 -34t-34 -14z" />
    <glyph glyph-name="uni0761" unicode="&#x761;" horiz-adv-x="961" 
d="M468 0q-75 0 -151.5 5.5t-144.5 21.5t-117 47l36 59h11q50 -30 139 -44t227 -14h274q25 0 49.5 -1.5t40.5 -3.5l16 -2h-20v8v8q-1 106 -31.5 164t-84.5 58q-27 0 -50.5 -14.5t-37.5 -41.5t-14 -64q0 -52 32.5 -81.5t97.5 -29.5v-56q-75 0 -120 25t-65 65t-20 84
q0 55 24.5 97t65.5 66.5t89 24.5q62 0 104 -39t63.5 -106t21.5 -152q0 -19 1 -39t2 -35l-7 -10h-431zM659 -287q-20 0 -34 14t-14 34t14 34t34 14t34 -14t14 -34t-14 -34t-34 -14zM769 -287q-20 0 -34 14t-14 34t14 34t34 14t34 -14t14 -34t-14 -34t-34 -14zM714 -192
q-20 0 -34 14t-14 34t14 34t34 14t34 -14t14 -34t-14 -34t-34 -14z" />
    <glyph glyph-name="uni08A4" unicode="&#x8a4;" horiz-adv-x="961" 
d="M468 0q-75 0 -151.5 5.5t-144.5 21.5t-117 47l36 59h11q50 -30 139 -44t227 -14h274q25 0 49.5 -1.5t40.5 -3.5l16 -2h-20v8v8q-1 106 -31.5 164t-84.5 58q-27 0 -50.5 -14.5t-37.5 -41.5t-14 -64q0 -52 32.5 -81.5t97.5 -29.5v-56q-75 0 -120 25t-65 65t-20 84
q0 55 24.5 97t65.5 66.5t89 24.5q62 0 104 -39t63.5 -106t21.5 -152q0 -19 1 -39t2 -35l-7 -10h-431zM714 -192q-20 0 -34 14t-14 34t14 34t34 14t34 -14t14 -34t-14 -34t-34 -14zM659 477q-20 0 -34 14t-14 34t14 34t34 14t34 -14t14 -34t-14 -34t-34 -14zM769 477
q-20 0 -34 14t-14 34t14 34t34 14t34 -14t14 -34t-14 -34t-34 -14zM714 572q-20 0 -34 14t-14 34t14 34t34 14t34 -14t14 -34t-14 -34t-34 -14z" />
    <glyph glyph-name="uni08BB" unicode="&#x8bb;" horiz-adv-x="961" 
d="M468 0q-75 0 -151.5 5.5t-144.5 21.5t-117 47l36 59h11q50 -30 139 -44t227 -14h274q25 0 49.5 -1.5t40.5 -3.5l16 -2h-20v8v8q-1 106 -31.5 164t-84.5 58q-27 0 -50.5 -14.5t-37.5 -41.5t-14 -64q0 -52 32.5 -81.5t97.5 -29.5v-56q-75 0 -120 25t-65 65t-20 84
q0 55 24.5 97t65.5 66.5t89 24.5q62 0 104 -39t63.5 -106t21.5 -152q0 -19 1 -39t2 -35l-7 -10h-431z" />
    <glyph glyph-name="uni0642" unicode="&#x642;" horiz-adv-x="615" 
d="M301 -231q-121 0 -188.5 69t-67.5 191h75q0 -91 46 -138t135 -47q63 0 104 25t60.5 78.5t19.5 136.5h75q0 -51 -10 -106t-37 -102.5t-78 -77t-134 -29.5zM45 29v55l72 10l3 -8v-57h-75zM386 0q-70 0 -113 28t-62 71.5t-19 89.5q0 57 24.5 100.5t65.5 67.5t89 24
q62 0 104 -39t63.5 -106t21.5 -152h-75q0 105 -31.5 163.5t-85.5 58.5q-27 0 -50 -14.5t-37 -41.5t-14 -64q0 -52 32.5 -81.5t97.5 -29.5q38 0 64.5 9.5t42.5 27.5l20 -59q-20 -22 -53 -37.5t-85 -15.5zM316 477q-20 0 -34 14t-14 34t14 34t34 14t34 -14t14 -34t-14 -34
t-34 -14zM426 477q-20 0 -34 14t-14 34t14 34t34 14t34 -14t14 -34t-14 -34t-34 -14z" />
    <glyph glyph-name="uni06A7" unicode="&#x6a7;" horiz-adv-x="615" 
d="M301 -231q-121 0 -188.5 69t-67.5 191h75q0 -91 46 -138t135 -47q63 0 104 25t60.5 78.5t19.5 136.5h75q0 -51 -10 -106t-37 -102.5t-78 -77t-134 -29.5zM45 29v55l72 10l3 -8v-57h-75zM386 0q-70 0 -113 28t-62 71.5t-19 89.5q0 57 24.5 100.5t65.5 67.5t89 24
q62 0 104 -39t63.5 -106t21.5 -152h-75q0 105 -31.5 163.5t-85.5 58.5q-27 0 -50 -14.5t-37 -41.5t-14 -64q0 -52 32.5 -81.5t97.5 -29.5q38 0 64.5 9.5t42.5 27.5l20 -59q-20 -22 -53 -37.5t-85 -15.5zM371 477q-20 0 -34 14t-14 34t14 34t34 14t34 -14t14 -34t-14 -34
t-34 -14z" />
    <glyph glyph-name="uni06A8" unicode="&#x6a8;" horiz-adv-x="615" 
d="M301 -231q-121 0 -188.5 69t-67.5 191h75q0 -91 46 -138t135 -47q63 0 104 25t60.5 78.5t19.5 136.5h75q0 -51 -10 -106t-37 -102.5t-78 -77t-134 -29.5zM45 29v55l72 10l3 -8v-57h-75zM386 0q-70 0 -113 28t-62 71.5t-19 89.5q0 57 24.5 100.5t65.5 67.5t89 24
q62 0 104 -39t63.5 -106t21.5 -152h-75q0 105 -31.5 163.5t-85.5 58.5q-27 0 -50 -14.5t-37 -41.5t-14 -64q0 -52 32.5 -81.5t97.5 -29.5q38 0 64.5 9.5t42.5 27.5l20 -59q-20 -22 -53 -37.5t-85 -15.5zM316 477q-20 0 -34 14t-14 34t14 34t34 14t34 -14t14 -34t-14 -34
t-34 -14zM426 477q-20 0 -34 14t-14 34t14 34t34 14t34 -14t14 -34t-14 -34t-34 -14zM371 572q-20 0 -34 14t-14 34t14 34t34 14t34 -14t14 -34t-14 -34t-34 -14z" />
    <glyph glyph-name="uni08A5" unicode="&#x8a5;" horiz-adv-x="615" 
d="M301 -231q-121 0 -188.5 69t-67.5 191h75q0 -91 46 -138t135 -47q63 0 104 25t60.5 78.5t19.5 136.5h75q0 -51 -10 -106t-37 -102.5t-78 -77t-134 -29.5zM45 29v55l72 10l3 -8v-57h-75zM386 0q-70 0 -113 28t-62 71.5t-19 89.5q0 57 24.5 100.5t65.5 67.5t89 24
q62 0 104 -39t63.5 -106t21.5 -152h-75q0 105 -31.5 163.5t-85.5 58.5q-27 0 -50 -14.5t-37 -41.5t-14 -64q0 -52 32.5 -81.5t97.5 -29.5q38 0 64.5 9.5t42.5 27.5l20 -59q-20 -22 -53 -37.5t-85 -15.5zM316 477q-20 0 -34 14t-14 34t14 34t34 14t34 -14t14 -34t-14 -34
t-34 -14zM426 477q-20 0 -34 14t-14 34t14 34t34 14t34 -14t14 -34t-14 -34t-34 -14zM295 -413q-20 0 -34 14t-14 34t14 34t34 14t34 -14t14 -34t-14 -34t-34 -14z" />
    <glyph glyph-name="uni08BC" unicode="&#x8bc;" horiz-adv-x="615" 
d="M301 -231q-121 0 -188.5 69t-67.5 191h75q0 -91 46 -138t135 -47q63 0 104 25t60.5 78.5t19.5 136.5h75q0 -51 -10 -106t-37 -102.5t-78 -77t-134 -29.5zM45 29v55l72 10l3 -8v-57h-75zM386 0q-70 0 -113 28t-62 71.5t-19 89.5q0 57 24.5 100.5t65.5 67.5t89 24
q62 0 104 -39t63.5 -106t21.5 -152h-75q0 105 -31.5 163.5t-85.5 58.5q-27 0 -50 -14.5t-37 -41.5t-14 -64q0 -52 32.5 -81.5t97.5 -29.5q38 0 64.5 9.5t42.5 27.5l20 -59q-20 -22 -53 -37.5t-85 -15.5z" />
    <glyph glyph-name="uni08C4" unicode="&#x8c4;" horiz-adv-x="615" 
d="M301 -231q-121 0 -188.5 69t-67.5 191h75q0 -91 46 -138t135 -47q63 0 104 25t60.5 78.5t19.5 136.5h75q0 -51 -10 -106t-37 -102.5t-78 -77t-134 -29.5zM45 29v55l72 10l3 -8v-57h-75zM386 0q-70 0 -113 28t-62 71.5t-19 89.5q0 57 24.5 100.5t65.5 67.5t89 24
q62 0 104 -39t63.5 -106t21.5 -152h-75q0 105 -31.5 163.5t-85.5 58.5q-27 0 -50 -14.5t-37 -41.5t-14 -64q0 -52 32.5 -81.5t97.5 -29.5q38 0 64.5 9.5t42.5 27.5l20 -59q-20 -22 -53 -37.5t-85 -15.5z" />
    <glyph glyph-name="uni08B5" unicode="&#x8b5;" horiz-adv-x="615" 
d="M301 -231q-121 0 -188.5 69t-67.5 191h75q0 -91 46 -138t135 -47q63 0 104 25t60.5 78.5t19.5 136.5h75q0 -51 -10 -106t-37 -102.5t-78 -77t-134 -29.5zM45 29v55l72 10l3 -8v-57h-75zM386 0q-70 0 -113 28t-62 71.5t-19 89.5q0 57 24.5 100.5t65.5 67.5t89 24
q62 0 104 -39t63.5 -106t21.5 -152h-75q0 105 -31.5 163.5t-85.5 58.5q-27 0 -50 -14.5t-37 -41.5t-14 -64q0 -52 32.5 -81.5t97.5 -29.5q38 0 64.5 9.5t42.5 27.5l20 -59q-20 -22 -53 -37.5t-85 -15.5zM295 -413q-20 0 -34 14t-14 34t14 34t34 14t34 -14t14 -34t-14 -34
t-34 -14z" />
    <glyph glyph-name="uni0643" unicode="&#x643;" horiz-adv-x="821" 
d="M468 0q-75 0 -151.5 5.5t-144.5 21.5t-117 47l36 59h11q50 -30 139 -44t227 -14h218v-75h-218zM676 305v441l72 9l3 -8v-442h-75zM685 0l3 42l-3 32.5t-6 83.5t-3 107v88l72 9l3 -8v-107q0 -41 2.5 -82t5 -75.5t5 -55l2.5 -20.5l-15 -14h-66zM590 0v75h106v-75h-106z
M590 0q-11 0 -15.5 11t-4.5 27q0 17 4.5 27t15.5 10v-75zM340 382l-38 22l115 108h5l33 -31zM426 273q-38 0 -82.5 4.5t-72.5 17.5l28 42h1q22 -10 53.5 -13.5t72.5 -3.5v-47zM331 358l-29 47h116v-47h-87zM426 273v47q15 0 28 -1.5l13 -1.5v-44h-41zM466 273q-2 14 -3 26.5
t-1 22.5h51q0 -10 2 -22t3 -22l-6 -5h-46zM462 322q0 15 -12.5 25.5t-31.5 10.5h-76v5l5 42h71q39 0 67 -23t28 -60h-51z" />
    <glyph glyph-name="uni06AC" unicode="&#x6ac;" horiz-adv-x="821" 
d="M468 0q-75 0 -151.5 5.5t-144.5 21.5t-117 47l36 59h11q50 -30 139 -44t227 -14h218v-75h-218zM676 305v441l72 9l3 -8v-442h-75zM685 0l3 42l-3 32.5t-6 83.5t-3 107v88l72 9l3 -8v-107q0 -41 2.5 -82t5 -75.5t5 -55l2.5 -20.5l-15 -14h-66zM590 0v75h106v-75h-106z
M590 0q-11 0 -15.5 11t-4.5 27q0 17 4.5 27t15.5 10v-75zM340 382l-38 22l115 108h5l33 -31zM426 273q-38 0 -82.5 4.5t-72.5 17.5l28 42h1q22 -10 53.5 -13.5t72.5 -3.5v-47zM331 358l-29 47h116v-47h-87zM426 273v47q15 0 28 -1.5l13 -1.5v-44h-41zM466 273q-2 14 -3 26.5
t-1 22.5h51q0 -10 2 -22t3 -22l-6 -5h-46zM462 322q0 15 -12.5 25.5t-31.5 10.5h-76v5l5 42h71q39 0 67 -23t28 -60h-51zM394 577q-20 0 -34 14t-14 34t14 34t34 14t34 -14t14 -34t-14 -34t-34 -14z" />
    <glyph glyph-name="uni06AD" unicode="&#x6ad;" horiz-adv-x="821" 
d="M468 0q-75 0 -151.5 5.5t-144.5 21.5t-117 47l36 59h11q50 -30 139 -44t227 -14h218v-75h-218zM676 305v441l72 9l3 -8v-442h-75zM685 0l3 42l-3 32.5t-6 83.5t-3 107v88l72 9l3 -8v-107q0 -41 2.5 -82t5 -75.5t5 -55l2.5 -20.5l-15 -14h-66zM590 0v75h106v-75h-106z
M590 0q-11 0 -15.5 11t-4.5 27q0 17 4.5 27t15.5 10v-75zM340 382l-38 22l115 108h5l33 -31zM426 273q-38 0 -82.5 4.5t-72.5 17.5l28 42h1q22 -10 53.5 -13.5t72.5 -3.5v-47zM331 358l-29 47h116v-47h-87zM426 273v47q15 0 28 -1.5l13 -1.5v-44h-41zM466 273q-2 14 -3 26.5
t-1 22.5h51q0 -10 2 -22t3 -22l-6 -5h-46zM462 322q0 15 -12.5 25.5t-31.5 10.5h-76v5l5 42h71q39 0 67 -23t28 -60h-51zM339 577q-20 0 -34 14t-14 34t14 34t34 14t34 -14t14 -34t-14 -34t-34 -14zM449 577q-20 0 -34 14t-14 34t14 34t34 14t34 -14t14 -34t-14 -34t-34 -14
zM394 672q-20 0 -34 14t-14 34t14 34t34 14t34 -14t14 -34t-14 -34t-34 -14z" />
    </font>
</defs>
</svg>
