<?xml version="1.0" standalone="no"?>
<!DOCTYPE svg PUBLIC "-//W3C//DTD SVG 1.1//EN" "http://www.w3.org/Graphics/SVG/1.1/DTD/svg11.dtd" >
<svg xmlns="http://www.w3.org/2000/svg" xmlns:xlink="http://www.w3.org/1999/xlink" version="1.1">
<metadata>
Created by FontForge 20190801 at Sat May 25 20:24:13 2024
 By root
Copyright 2022 The Fustat Project Authors (https://github.com/Kief-Type-Foundry/Fustat)
</metadata>
<defs>
<font id="Fustat-Bold" horiz-adv-x="350" >
  <font-face 
    font-family="Fustat"
    font-weight="700"
    font-stretch="normal"
    units-per-em="1000"
    panose-1="0 0 0 0 0 0 0 0 0 0"
    ascent="800"
    descent="-200"
    x-height="505"
    cap-height="700"
    bbox="-183 -549 1299 1021"
    underline-thickness="50"
    underline-position="-125"
    unicode-range="U+0020-FDF2"
  />
<missing-glyph horiz-adv-x="647" 
d="M73 0v700h500v-700h-500zM153 80h340v540h-340v-540zM503 0l-430 657v43h71l429 -657v-43h-70zM73 0v43l430 657h70v-43l-429 -657h-71z" />
    <glyph glyph-name="uniFDF2" unicode="&#xfdf2;" horiz-adv-x="1314" arabic-form="isolated" 
d="M1137 0v745l112 14l3 -8v-504q0 -41 2.5 -82t5 -75.5t5 -55l2.5 -20.5l-15 -14h-115zM879 0v541l112 14l3 -8v-533l-15 -14h-100zM522 0v104h434v-104h-434zM608 0v541l112 14l3 -8v-533l-15 -14h-100zM234 25q-58 0 -101 25t-67 69.5t-24 101.5q0 48 17 89l7 6
q84 25 154 52.5t127 58.5l57 -91q-53 -30 -123.5 -58t-156.5 -55l35 22q0 -3 -1 -10t-1 -19q0 -21 7 -41t24.5 -33t46.5 -13q23 0 48 7t59 23l38 -76q-29 -27 -67 -42.5t-79 -15.5zM321 0v104h201v-104h-201zM321 0v443l112 14l3 -8v-449h-115zM522 0v104q12 0 16 -13.5
t4 -37.5q0 -22 -4 -37.5t-16 -15.5zM717 639q-37 0 -56.5 23.5t-19.5 63.5v60h52l2 -2v-59q0 -44 19 -44t19 44q0 11 -1.5 24.5t-3.5 34.5l2 2h52q3 -21 4.5 -35t1.5 -25q0 -41 -18.5 -64t-52.5 -23zM614 639q-34 0 -52.5 23t-18.5 64q0 11 1.5 25t4.5 35h52l2 -2
q-3 -21 -4.5 -34.5t-1.5 -24.5q0 -44 22 -44q7 0 14 4.5t13 11.5l30 -27q-22 -31 -62 -31zM636 847v167l52 7l2 -4v-88q0 -27 2.5 -52.5l2.5 -25.5l-5 -4h-54z" />
    <glyph glyph-name=".notdef" horiz-adv-x="647" 
d="M73 0v700h500v-700h-500zM153 80h340v540h-340v-540zM503 0l-430 657v43h71l429 -657v-43h-70zM73 0v43l430 657h70v-43l-429 -657h-71z" />
    <glyph glyph-name="A" unicode="A" horiz-adv-x="650" 
d="M527 0l-253 679l-6 21h115l266 -692v-8h-122zM2 0v8l266 692h115l-9 -21l-253 -679h-119zM120 166l30 110h361l30 -110h-421z" />
    <glyph glyph-name="Aacute" unicode="&#xc1;" horiz-adv-x="650" 
d="M527 0l-253 679l-6 21h115l266 -692v-8h-122zM2 0v8l266 692h115l-9 -21l-253 -679h-119zM120 166l30 110h361l30 -110h-421zM281 766l66 145h143v-8l-96 -137h-113z" />
    <glyph glyph-name="Abreve" unicode="&#x102;" horiz-adv-x="650" 
d="M527 0l-253 679l-6 21h115l266 -692v-8h-122zM2 0v8l266 692h115l-9 -21l-253 -679h-119zM120 166l30 110h361l30 -110h-421zM326 763q-43 0 -77.5 18.5t-54.5 52t-20 76.5h99q0 -21 14 -39.5t39 -18.5q26 0 39 18.5t14 39.5h99q0 -43 -20 -76.5t-54.5 -52t-77.5 -18.5z
" />
    <glyph glyph-name="Acircumflex" unicode="&#xc2;" horiz-adv-x="650" 
d="M527 0l-253 679l-6 21h115l266 -692v-8h-122zM2 0v8l266 692h115l-9 -21l-253 -679h-119zM120 166l30 110h361l30 -110h-421zM166 766l89 145h139l90 -145h-103l-57 72l-56 -72h-102z" />
    <glyph glyph-name="Adieresis" unicode="&#xc4;" horiz-adv-x="650" 
d="M527 0l-253 679l-6 21h115l266 -692v-8h-122zM2 0v8l266 692h115l-9 -21l-253 -679h-119zM120 166l30 110h361l30 -110h-421zM430 771q-30 0 -51 21t-21 52q0 29 21 50.5t52 21.5q29 0 50.5 -21.5t21.5 -51.5t-21.5 -51t-51.5 -21zM227 771q-30 0 -51 21t-21 52
q0 29 21 50.5t52 21.5q29 0 50.5 -21.5t21.5 -51.5t-21.5 -51t-51.5 -21z" />
    <glyph glyph-name="Agrave" unicode="&#xc0;" horiz-adv-x="650" 
d="M527 0l-253 679l-6 21h115l266 -692v-8h-122zM2 0v8l266 692h115l-9 -21l-253 -679h-119zM120 166l30 110h361l30 -110h-421zM375 766h-113l-96 137v8h143z" />
    <glyph glyph-name="Amacron" unicode="&#x100;" horiz-adv-x="650" 
d="M527 0l-253 679l-6 21h115l266 -692v-8h-122zM2 0v8l266 692h115l-9 -21l-253 -679h-119zM120 166l30 110h361l30 -110h-421zM159 782v110h333v-110h-333z" />
    <glyph glyph-name="Aogonek" unicode="&#x104;" horiz-adv-x="650" 
d="M527 0l-253 679l-6 21h115l266 -692v-8h-122zM2 0v8l266 692h115l-9 -21l-253 -679h-119zM120 166l30 110h361l30 -110h-421zM595 -220q-54 0 -87 31.5t-33 82.5q0 46 27 83.5t80 69.5l66 -47q-38 -19 -59.5 -41t-21.5 -44q0 -18 13.5 -31.5t35.5 -13.5q13 0 27 4l5 -11
v-78q-15 -2 -27.5 -3.5t-25.5 -1.5z" />
    <glyph glyph-name="Aring" unicode="&#xc5;" horiz-adv-x="650" 
d="M527 0l-253 679l-6 21h115l266 -692v-8h-122zM2 0v8l266 692h115l-9 -21l-253 -679h-119zM120 166l30 110h361l30 -110h-421zM326 686q-38 0 -68 16.5t-47 46.5t-17 65q0 37 17 66t47 46t68 17t67 -17t46.5 -46t17.5 -66q0 -35 -17.5 -65t-46.5 -46.5t-67 -16.5zM326 769
q19 0 32 13t13 32t-13 32.5t-32 13.5q-20 0 -33 -13.5t-13 -32.5t13 -32t33 -13z" />
    <glyph glyph-name="Atilde" unicode="&#xc3;" horiz-adv-x="650" 
d="M527 0l-253 679l-6 21h115l266 -692v-8h-122zM2 0v8l266 692h115l-9 -21l-253 -679h-119zM120 166l30 110h361l30 -110h-421zM400 763q-23 0 -41.5 8t-34.5 18.5t-31.5 18.5t-30.5 8q-18 0 -29 -14.5t-11 -37.5h-93q0 66 33.5 107t88.5 41q23 0 41.5 -8t35 -18.5
t31.5 -18.5t30 -8q19 0 29.5 14.5t10.5 37.5h93q0 -65 -33.5 -106.5t-88.5 -41.5z" />
    <glyph glyph-name="AE" unicode="&#xc6;" horiz-adv-x="946" 
d="M-17 0l1 8l395 692h115l-4 -21l-380 -679h-127zM136 166l34 110h336v-110h-370zM440 0v700h115v-700h-115zM499 0v110h404v-110h-404zM499 300v110h377v-110h-377zM499 590v110h404v-110h-404z" />
    <glyph glyph-name="B" unicode="B" horiz-adv-x="606" 
d="M132 0v104h210q57 0 87 29t30 81q0 50 -31.5 78t-85.5 28h-210v101h196q31 0 53.5 11t35.5 31t13 46q0 39 -27.5 63t-74.5 24h-196v104h196q99 0 155.5 -52t56.5 -132q0 -38 -17.5 -70t-47.5 -53.5t-66 -27.5v24q45 -3 82.5 -28t59.5 -65t22 -89q0 -94 -59 -150.5
t-163 -56.5h-219zM73 0v700h112v-700h-112z" />
    <glyph glyph-name="C" unicode="C" horiz-adv-x="703" 
d="M374 -15q-98 0 -173 46t-116.5 128t-41.5 191q0 110 41.5 191.5t116.5 127.5t173 46q103 0 182 -54t114 -150l-101 -29l-11 2q-23 58 -72 89.5t-111 31.5q-65 0 -113.5 -31.5t-75.5 -88.5t-27 -135t27 -135t75.5 -88.5t113.5 -31.5q62 0 111 32t72 89l11 2l101 -29
q-35 -96 -114 -150t-182 -54z" />
    <glyph glyph-name="Cacute" unicode="&#x106;" horiz-adv-x="703" 
d="M374 -15q-98 0 -173 46t-116.5 128t-41.5 191q0 110 41.5 191.5t116.5 127.5t173 46q103 0 182 -54t114 -150l-101 -29l-11 2q-23 58 -72 89.5t-111 31.5q-65 0 -113.5 -31.5t-75.5 -88.5t-27 -135t27 -135t75.5 -88.5t113.5 -31.5q62 0 111 32t72 89l11 2l101 -29
q-35 -96 -114 -150t-182 -54zM317 766l66 145h143v-8l-96 -137h-113z" />
    <glyph glyph-name="Ccaron" unicode="&#x10c;" horiz-adv-x="703" 
d="M374 -15q-98 0 -173 46t-116.5 128t-41.5 191q0 110 41.5 191.5t116.5 127.5t173 46q103 0 182 -54t114 -150l-101 -29l-11 2q-23 58 -72 89.5t-111 31.5q-65 0 -113.5 -31.5t-75.5 -88.5t-27 -135t27 -135t75.5 -88.5t113.5 -31.5q62 0 111 32t72 89l11 2l101 -29
q-35 -96 -114 -150t-182 -54zM209 880h102l56 -72l57 72h103l-90 -145h-139z" />
    <glyph glyph-name="Ccedilla" unicode="&#xc7;" horiz-adv-x="703" 
d="M374 -15q-98 0 -173 46t-116.5 128t-41.5 191q0 110 41.5 191.5t116.5 127.5t173 46q103 0 182 -54t114 -150l-101 -29l-11 2q-23 58 -72 89.5t-111 31.5q-65 0 -113.5 -31.5t-75.5 -88.5t-27 -135t27 -135t75.5 -88.5t113.5 -31.5q62 0 111 32t72 89l11 2l101 -29
q-35 -96 -114 -150t-182 -54zM347 -220q-14 0 -30 4t-35 15l23 65l9 2q8 -5 15.5 -7t13.5 -2q13 0 20 6.5t7 16.5q0 8 -7 15.5t-20 7.5q-15 0 -23 -8l-38 48l49 70h88l-67 -90l-15 46q5 1 10 1.5t11 0.5q39 0 65.5 -26t26.5 -64q0 -47 -30.5 -74t-72.5 -27z" />
    <glyph glyph-name="Cdotaccent" unicode="&#x10a;" horiz-adv-x="703" 
d="M374 -15q-98 0 -173 46t-116.5 128t-41.5 191q0 110 41.5 191.5t116.5 127.5t173 46q103 0 182 -54t114 -150l-101 -29l-11 2q-23 58 -72 89.5t-111 31.5q-65 0 -113.5 -31.5t-75.5 -88.5t-27 -135t27 -135t75.5 -88.5t113.5 -31.5q62 0 111 32t72 89l11 2l101 -29
q-35 -96 -114 -150t-182 -54zM368 772q-30 0 -51 21t-21 52q0 29 21 50.5t52 21.5q29 0 50.5 -21.5t21.5 -51.5t-21.5 -51t-51.5 -21z" />
    <glyph glyph-name="D" unicode="D" horiz-adv-x="693" 
d="M143 0v110h182q65 0 112 30.5t72 84.5t25 125q0 72 -25 126t-72 84t-112 30h-182v110h182q100 0 173 -44.5t112 -123.5t39 -182t-39 -182t-112 -123.5t-173 -44.5h-182zM73 0v700h115v-700h-115z" />
    <glyph glyph-name="Dcaron" unicode="&#x10e;" horiz-adv-x="693" 
d="M143 0v110h182q65 0 112 30.5t72 84.5t25 125q0 72 -25 126t-72 84t-112 30h-182v110h182q100 0 173 -44.5t112 -123.5t39 -182t-39 -182t-112 -123.5t-173 -44.5h-182zM73 0v700h115v-700h-115zM162 880h102l56 -72l57 72h103l-90 -145h-139z" />
    <glyph glyph-name="Dcroat" unicode="&#x110;" horiz-adv-x="693" 
d="M143 0v110h182q65 0 112 30.5t72 84.5t25 125q0 72 -25 126t-72 84t-112 30h-182v110h182q100 0 173 -44.5t112 -123.5t39 -182t-39 -182t-112 -123.5t-173 -44.5h-182zM73 0v700h115v-700h-115zM3 290v120h324v-120h-324z" />
    <glyph glyph-name="Eth" unicode="&#xd0;" horiz-adv-x="693" 
d="M143 0v110h182q65 0 112 30.5t72 84.5t25 125q0 72 -25 126t-72 84t-112 30h-182v110h182q100 0 173 -44.5t112 -123.5t39 -182t-39 -182t-112 -123.5t-173 -44.5h-182zM73 0v700h115v-700h-115zM3 290v120h324v-120h-324z" />
    <glyph glyph-name="E" unicode="E" horiz-adv-x="580" 
d="M73 0v700h115v-700h-115zM132 0v110h404v-110h-404zM132 300v110h378v-110h-378zM132 590v110h404v-110h-404z" />
    <glyph glyph-name="Eacute" unicode="&#xc9;" horiz-adv-x="580" 
d="M73 0v700h115v-700h-115zM132 0v110h404v-110h-404zM132 300v110h378v-110h-378zM132 590v110h404v-110h-404zM243 766l66 145h143v-8l-96 -137h-113z" />
    <glyph glyph-name="Ecaron" unicode="&#x11a;" horiz-adv-x="580" 
d="M73 0v700h115v-700h-115zM132 0v110h404v-110h-404zM132 300v110h378v-110h-378zM132 590v110h404v-110h-404zM135 880h102l56 -72l57 72h103l-90 -145h-139z" />
    <glyph glyph-name="Ecircumflex" unicode="&#xca;" horiz-adv-x="580" 
d="M73 0v700h115v-700h-115zM132 0v110h404v-110h-404zM132 300v110h378v-110h-378zM132 590v110h404v-110h-404zM135 766l89 145h139l90 -145h-103l-57 72l-56 -72h-102z" />
    <glyph glyph-name="Edieresis" unicode="&#xcb;" horiz-adv-x="580" 
d="M73 0v700h115v-700h-115zM132 0v110h404v-110h-404zM132 300v110h378v-110h-378zM132 590v110h404v-110h-404zM398 771q-30 0 -51 21t-21 52q0 29 21 50.5t52 21.5q29 0 50.5 -21.5t21.5 -51.5t-21.5 -51t-51.5 -21zM196 771q-30 0 -51 21t-21 52q0 29 21 50.5t52 21.5
q29 0 50.5 -21.5t21.5 -51.5t-21.5 -51t-51.5 -21z" />
    <glyph glyph-name="Edotaccent" unicode="&#x116;" horiz-adv-x="580" 
d="M73 0v700h115v-700h-115zM132 0v110h404v-110h-404zM132 300v110h378v-110h-378zM132 590v110h404v-110h-404zM293 772q-30 0 -51 21t-21 52q0 29 21 50.5t52 21.5q29 0 50.5 -21.5t21.5 -51.5t-21.5 -51t-51.5 -21z" />
    <glyph glyph-name="Egrave" unicode="&#xc8;" horiz-adv-x="580" 
d="M73 0v700h115v-700h-115zM132 0v110h404v-110h-404zM132 300v110h378v-110h-378zM132 590v110h404v-110h-404zM343 766h-113l-96 137v8h143z" />
    <glyph glyph-name="Emacron" unicode="&#x112;" horiz-adv-x="580" 
d="M73 0v700h115v-700h-115zM132 0v110h404v-110h-404zM132 300v110h378v-110h-378zM132 590v110h404v-110h-404zM128 782v110h333v-110h-333z" />
    <glyph glyph-name="Eogonek" unicode="&#x118;" horiz-adv-x="580" 
d="M73 0v700h115v-700h-115zM132 0v110h404v-110h-404zM132 300v110h378v-110h-378zM132 590v110h404v-110h-404zM483 -220q-54 0 -87 31.5t-33 82.5q0 46 27 83.5t80 69.5l66 -47q-38 -19 -59.5 -41t-21.5 -44q0 -18 13.5 -31.5t35.5 -13.5q13 0 27 4l5 -11v-78
q-15 -2 -27.5 -3.5t-25.5 -1.5z" />
    <glyph glyph-name="F" unicode="F" horiz-adv-x="553" 
d="M73 0v700h115v-700h-115zM132 295v110h358v-110h-358zM132 590v110h388v-110h-388z" />
    <glyph glyph-name="G" unicode="G" horiz-adv-x="754" 
d="M372 -15q-96 0 -170.5 45.5t-116.5 128t-42 191.5q0 110 42.5 192t118 127.5t173.5 45.5q102 0 179 -52t114 -143l-100 -29l-11 2q-27 54 -74 83t-107 29q-63 0 -113 -31t-78 -88t-28 -135t29 -135.5t80 -89t116 -31.5q50 0 95.5 23.5t73.5 67t28 101.5v19l40 -23h-232
v109h288l14 -14v-378h-105v150h39q-26 -56 -65.5 -93t-88 -54.5t-99.5 -17.5z" />
    <glyph glyph-name="Gbreve" unicode="&#x11e;" horiz-adv-x="754" 
d="M372 -15q-96 0 -170.5 45.5t-116.5 128t-42 191.5q0 110 42.5 192t118 127.5t173.5 45.5q102 0 179 -52t114 -143l-100 -29l-11 2q-27 54 -74 83t-107 29q-63 0 -113 -31t-78 -88t-28 -135t29 -135.5t80 -89t116 -31.5q50 0 95.5 23.5t73.5 67t28 101.5v19l40 -23h-232
v109h288l14 -14v-378h-105v150h39q-26 -56 -65.5 -93t-88 -54.5t-99.5 -17.5zM379 763q-43 0 -77.5 18.5t-54.5 52t-20 76.5h99q0 -21 14 -39.5t39 -18.5q26 0 39 18.5t14 39.5h99q0 -43 -20 -76.5t-54.5 -52t-77.5 -18.5z" />
    <glyph glyph-name="uni0122" unicode="&#x122;" horiz-adv-x="754" 
d="M372 -15q-96 0 -170.5 45.5t-116.5 128t-42 191.5q0 110 42.5 192t118 127.5t173.5 45.5q102 0 179 -52t114 -143l-100 -29l-11 2q-27 54 -74 83t-107 29q-63 0 -113 -31t-78 -88t-28 -135t29 -135.5t80 -89t116 -31.5q50 0 95.5 23.5t73.5 67t28 101.5v19l40 -23h-232
v109h288l14 -14v-378h-105v150h39q-26 -56 -65.5 -93t-88 -54.5t-99.5 -17.5zM329 -258v61q25 6 39 21t14 35q0 18 -5 30l42 21q3 -12 3 -23q0 -18 -9 -26.5t-20 -11.5t-15 -3q-26 0 -43.5 17.5t-17.5 41.5q0 26 17 43.5t44 17.5q32 0 51 -28t19 -63q0 -25 -11.5 -53.5
t-38 -51t-69.5 -28.5z" />
    <glyph glyph-name="Gdotaccent" unicode="&#x120;" horiz-adv-x="754" 
d="M372 -15q-96 0 -170.5 45.5t-116.5 128t-42 191.5q0 110 42.5 192t118 127.5t173.5 45.5q102 0 179 -52t114 -143l-100 -29l-11 2q-27 54 -74 83t-107 29q-63 0 -113 -31t-78 -88t-28 -135t29 -135.5t80 -89t116 -31.5q50 0 95.5 23.5t73.5 67t28 101.5v19l40 -23h-232
v109h288l14 -14v-378h-105v150h39q-26 -56 -65.5 -93t-88 -54.5t-99.5 -17.5zM378 772q-30 0 -51 21t-21 52q0 29 21 50.5t52 21.5q29 0 50.5 -21.5t21.5 -51.5t-21.5 -51t-51.5 -21z" />
    <glyph glyph-name="H" unicode="H" horiz-adv-x="711" 
d="M522 0v700h115v-700h-115zM73 0v700h115v-700h-115zM132 305v110h455v-110h-455z" />
    <glyph glyph-name="Hbar" unicode="&#x126;" horiz-adv-x="711" 
d="M522 0v700h115v-700h-115zM73 0v700h115v-700h-115zM132 305v110h455v-110h-455zM4 492v109h703v-109h-703z" />
    <glyph glyph-name="I" unicode="I" horiz-adv-x="262" 
d="M73 0v700h115v-700h-115z" />
    <glyph glyph-name="Iacute" unicode="&#xcd;" horiz-adv-x="262" 
d="M73 0v700h115v-700h-115zM80 766l66 145h143v-8l-96 -137h-113z" />
    <glyph glyph-name="Icircumflex" unicode="&#xce;" horiz-adv-x="262" 
d="M73 0v700h115v-700h-115zM-28 766l89 145h139l90 -145h-103l-57 72l-56 -72h-102z" />
    <glyph glyph-name="Idieresis" unicode="&#xcf;" horiz-adv-x="262" 
d="M73 0v700h115v-700h-115zM236 771q-30 0 -51 21t-21 52q0 29 21 50.5t52 21.5q29 0 50.5 -21.5t21.5 -51.5t-21.5 -51t-51.5 -21zM33 771q-30 0 -51 21t-21 52q0 29 21 50.5t52 21.5q29 0 50.5 -21.5t21.5 -51.5t-21.5 -51t-51.5 -21z" />
    <glyph glyph-name="Idotaccent" unicode="&#x130;" horiz-adv-x="262" 
d="M73 0v700h115v-700h-115zM131 772q-30 0 -51 21t-21 52q0 29 21 50.5t52 21.5q29 0 50.5 -21.5t21.5 -51.5t-21.5 -51t-51.5 -21z" />
    <glyph glyph-name="Igrave" unicode="&#xcc;" horiz-adv-x="262" 
d="M73 0v700h115v-700h-115zM180 766h-113l-96 137v8h143z" />
    <glyph glyph-name="Imacron" unicode="&#x12a;" horiz-adv-x="262" 
d="M73 0v700h115v-700h-115zM-35 782v110h333v-110h-333z" />
    <glyph glyph-name="Iogonek" unicode="&#x12e;" horiz-adv-x="262" 
d="M73 0v700h115v-700h-115zM135 -220q-54 0 -87 31.5t-33 82.5q0 46 27 83.5t80 69.5l66 -47q-38 -19 -59.5 -41t-21.5 -44q0 -18 13.5 -31.5t35.5 -13.5q13 0 27 4l5 -11v-78q-15 -2 -27.5 -3.5t-25.5 -1.5z" />
    <glyph glyph-name="J" unicode="J" horiz-adv-x="531" 
d="M256 -15q-64 0 -111.5 25.5t-74.5 70t-27 104.5v45h104l11 -5v-40q0 -40 27.5 -65t70.5 -25t70 25.5t27 67.5v512h115v-510q0 -61 -26 -107.5t-74 -72t-112 -25.5z" />
    <glyph glyph-name="K" unicode="K" horiz-adv-x="616" 
d="M132 150v160l341 390h141v-8zM73 0v700h115v-700h-115zM497 0l-245 352l85 76l291 -420v-8h-131z" />
    <glyph glyph-name="uni0136" unicode="&#x136;" horiz-adv-x="616" 
d="M132 150v160l341 390h141v-8zM73 0v700h115v-700h-115zM497 0l-245 352l85 76l291 -420v-8h-131zM285 -258v61q25 6 39 21t14 35q0 18 -5 30l42 21q3 -12 3 -23q0 -18 -9 -26.5t-20 -11.5t-15 -3q-26 0 -43.5 17.5t-17.5 41.5q0 26 17 43.5t44 17.5q32 0 51 -28t19 -63
q0 -25 -11.5 -53.5t-38 -51t-69.5 -28.5z" />
    <glyph glyph-name="L" unicode="L" horiz-adv-x="543" 
d="M73 0v700h115v-700h-115zM132 0v110h394v-110h-394z" />
    <glyph glyph-name="Lacute" unicode="&#x139;" horiz-adv-x="543" 
d="M73 0v700h115v-700h-115zM132 0v110h394v-110h-394zM79 766l66 145h143v-8l-96 -137h-113z" />
    <glyph glyph-name="Lcaron" unicode="&#x13d;" horiz-adv-x="543" 
d="M73 0v700h115v-700h-115zM132 0v110h394v-110h-394zM244 536l20 184h108l-41 -184h-87z" />
    <glyph glyph-name="uni013B" unicode="&#x13b;" horiz-adv-x="543" 
d="M73 0v700h115v-700h-115zM132 0v110h394v-110h-394zM254 -258v61q25 6 39 21t14 35q0 18 -5 30l42 21q3 -12 3 -23q0 -18 -9 -26.5t-20 -11.5t-15 -3q-26 0 -43.5 17.5t-17.5 41.5q0 26 17 43.5t44 17.5q32 0 51 -28t19 -63q0 -25 -11.5 -53.5t-38 -51t-69.5 -28.5z" />
    <glyph glyph-name="Ldot" unicode="&#x13f;" horiz-adv-x="543" 
d="M73 0v700h115v-700h-115zM132 0v110h394v-110h-394zM402 292q-30 0 -51 21t-21 52q0 29 21 50.5t52 21.5q29 0 50.5 -21.5t21.5 -51.5t-21.5 -51t-51.5 -21z" />
    <glyph glyph-name="Lslash" unicode="&#x141;" horiz-adv-x="543" 
d="M73 0v700h115v-700h-115zM132 0v110h394v-110h-394zM3 231v114l357 124v-114z" />
    <glyph glyph-name="M" unicode="M" horiz-adv-x="891" 
d="M389 0l1 21l290 679h111v-21l-290 -679h-112zM73 0v700h115v-700h-115zM390 0l-291 679v21h112l290 -679v-21h-111zM702 0v700h115v-700h-115z" />
    <glyph glyph-name="N" unicode="N" horiz-adv-x="721" 
d="M532 0l-459 669v31h115l459 -669v-31h-115zM73 0v700h115v-700h-115zM532 0v700h115v-700h-115z" />
    <glyph glyph-name="Nacute" unicode="&#x143;" horiz-adv-x="721" 
d="M532 0l-459 669v31h115l459 -669v-31h-115zM73 0v700h115v-700h-115zM532 0v700h115v-700h-115zM314 766l66 145h143v-8l-96 -137h-113z" />
    <glyph glyph-name="Ncaron" unicode="&#x147;" horiz-adv-x="721" 
d="M532 0l-459 669v31h115l459 -669v-31h-115zM73 0v700h115v-700h-115zM532 0v700h115v-700h-115zM206 880h102l56 -72l57 72h103l-90 -145h-139z" />
    <glyph glyph-name="uni0145" unicode="&#x145;" horiz-adv-x="721" 
d="M532 0l-459 669v31h115l459 -669v-31h-115zM73 0v700h115v-700h-115zM532 0v700h115v-700h-115zM312 -258v61q25 6 39 21t14 35q0 18 -5 30l42 21q3 -12 3 -23q0 -18 -9 -26.5t-20 -11.5t-15 -3q-26 0 -43.5 17.5t-17.5 41.5q0 26 17 43.5t44 17.5q32 0 51 -28t19 -63
q0 -25 -11.5 -53.5t-38 -51t-69.5 -28.5z" />
    <glyph glyph-name="Ntilde" unicode="&#xd1;" horiz-adv-x="721" 
d="M532 0l-459 669v31h115l459 -669v-31h-115zM73 0v700h115v-700h-115zM532 0v700h115v-700h-115zM440 763q-23 0 -41.5 8t-34.5 18.5t-31.5 18.5t-30.5 8q-18 0 -29 -14.5t-11 -37.5h-93q0 66 33.5 107t88.5 41q23 0 41.5 -8t35 -18.5t31.5 -18.5t30 -8q19 0 29.5 14.5
t10.5 37.5h93q0 -65 -33.5 -106.5t-88.5 -41.5z" />
    <glyph glyph-name="Eng" unicode="&#x14a;" horiz-adv-x="721" 
d="M417 -200v93l5 11h29q42 0 61.5 19t19.5 62v124h115v-130q0 -82 -46 -130.5t-123 -48.5h-61zM532 0l-459 669v31h115l459 -669v-31h-115zM73 0v700h115v-700h-115zM532 0v700h115v-700h-115z" />
    <glyph glyph-name="O" unicode="O" horiz-adv-x="760" 
d="M380 -15q-98 0 -174.5 45.5t-119.5 128t-43 191.5t43 191.5t119.5 128t174.5 45.5q99 0 175 -45.5t119 -128t43 -191.5t-43 -191.5t-119 -128t-175 -45.5zM380 95q64 0 114 31.5t78.5 88.5t28.5 135q0 79 -28.5 136t-78.5 88t-114 31t-114 -31t-78.5 -88t-28.5 -136
q0 -78 28.5 -135t78.5 -88.5t114 -31.5z" />
    <glyph glyph-name="Oacute" unicode="&#xd3;" horiz-adv-x="760" 
d="M380 -15q-98 0 -174.5 45.5t-119.5 128t-43 191.5t43 191.5t119.5 128t174.5 45.5q99 0 175 -45.5t119 -128t43 -191.5t-43 -191.5t-119 -128t-175 -45.5zM380 95q64 0 114 31.5t78.5 88.5t28.5 135q0 79 -28.5 136t-78.5 88t-114 31t-114 -31t-78.5 -88t-28.5 -136
q0 -78 28.5 -135t78.5 -88.5t114 -31.5zM329 766l66 145h143v-8l-96 -137h-113z" />
    <glyph glyph-name="Ocircumflex" unicode="&#xd4;" horiz-adv-x="760" 
d="M380 -15q-98 0 -174.5 45.5t-119.5 128t-43 191.5t43 191.5t119.5 128t174.5 45.5q99 0 175 -45.5t119 -128t43 -191.5t-43 -191.5t-119 -128t-175 -45.5zM380 95q64 0 114 31.5t78.5 88.5t28.5 135q0 79 -28.5 136t-78.5 88t-114 31t-114 -31t-78.5 -88t-28.5 -136
q0 -78 28.5 -135t78.5 -88.5t114 -31.5zM221 766l89 145h139l90 -145h-103l-57 72l-56 -72h-102z" />
    <glyph glyph-name="Odieresis" unicode="&#xd6;" horiz-adv-x="760" 
d="M380 -15q-98 0 -174.5 45.5t-119.5 128t-43 191.5t43 191.5t119.5 128t174.5 45.5q99 0 175 -45.5t119 -128t43 -191.5t-43 -191.5t-119 -128t-175 -45.5zM380 95q64 0 114 31.5t78.5 88.5t28.5 135q0 79 -28.5 136t-78.5 88t-114 31t-114 -31t-78.5 -88t-28.5 -136
q0 -78 28.5 -135t78.5 -88.5t114 -31.5zM484 771q-30 0 -51 21t-21 52q0 29 21 50.5t52 21.5q29 0 50.5 -21.5t21.5 -51.5t-21.5 -51t-51.5 -21zM282 771q-30 0 -51 21t-21 52q0 29 21 50.5t52 21.5q29 0 50.5 -21.5t21.5 -51.5t-21.5 -51t-51.5 -21z" />
    <glyph glyph-name="Ograve" unicode="&#xd2;" horiz-adv-x="760" 
d="M380 -15q-98 0 -174.5 45.5t-119.5 128t-43 191.5t43 191.5t119.5 128t174.5 45.5q99 0 175 -45.5t119 -128t43 -191.5t-43 -191.5t-119 -128t-175 -45.5zM380 95q64 0 114 31.5t78.5 88.5t28.5 135q0 79 -28.5 136t-78.5 88t-114 31t-114 -31t-78.5 -88t-28.5 -136
q0 -78 28.5 -135t78.5 -88.5t114 -31.5zM429 766h-113l-96 137v8h143z" />
    <glyph glyph-name="Ohungarumlaut" unicode="&#x150;" horiz-adv-x="760" 
d="M380 -15q-98 0 -174.5 45.5t-119.5 128t-43 191.5t43 191.5t119.5 128t174.5 45.5q99 0 175 -45.5t119 -128t43 -191.5t-43 -191.5t-119 -128t-175 -45.5zM380 95q64 0 114 31.5t78.5 88.5t28.5 135q0 79 -28.5 136t-78.5 88t-114 31t-114 -31t-78.5 -88t-28.5 -136
q0 -78 28.5 -135t78.5 -88.5t114 -31.5zM412 765l54 145h130v-8l-84 -137h-100zM250 765l54 145h130v-8l-84 -137h-100z" />
    <glyph glyph-name="Omacron" unicode="&#x14c;" horiz-adv-x="760" 
d="M380 -15q-98 0 -174.5 45.5t-119.5 128t-43 191.5t43 191.5t119.5 128t174.5 45.5q99 0 175 -45.5t119 -128t43 -191.5t-43 -191.5t-119 -128t-175 -45.5zM380 95q64 0 114 31.5t78.5 88.5t28.5 135q0 79 -28.5 136t-78.5 88t-114 31t-114 -31t-78.5 -88t-28.5 -136
q0 -78 28.5 -135t78.5 -88.5t114 -31.5zM214 782v110h333v-110h-333z" />
    <glyph glyph-name="Oslash" unicode="&#xd8;" horiz-adv-x="760" 
d="M380 -15q-98 0 -174.5 45.5t-119.5 128t-43 191.5t43 191.5t119.5 128t174.5 45.5q99 0 175 -45.5t119 -128t43 -191.5t-43 -191.5t-119 -128t-175 -45.5zM380 95q64 0 114 31.5t78.5 88.5t28.5 135q0 79 -28.5 136t-78.5 88t-114 31t-114 -31t-78.5 -88t-28.5 -136
q0 -78 28.5 -135t78.5 -88.5t114 -31.5zM162 -107l-89 52l524 862l90 -51z" />
    <glyph glyph-name="Otilde" unicode="&#xd5;" horiz-adv-x="760" 
d="M380 -15q-98 0 -174.5 45.5t-119.5 128t-43 191.5t43 191.5t119.5 128t174.5 45.5q99 0 175 -45.5t119 -128t43 -191.5t-43 -191.5t-119 -128t-175 -45.5zM380 95q64 0 114 31.5t78.5 88.5t28.5 135q0 79 -28.5 136t-78.5 88t-114 31t-114 -31t-78.5 -88t-28.5 -136
q0 -78 28.5 -135t78.5 -88.5t114 -31.5zM454 763q-23 0 -41.5 8t-34.5 18.5t-31.5 18.5t-30.5 8q-18 0 -29 -14.5t-11 -37.5h-93q0 66 33.5 107t88.5 41q23 0 41.5 -8t35 -18.5t31.5 -18.5t30 -8q19 0 29.5 14.5t10.5 37.5h93q0 -65 -33.5 -106.5t-88.5 -41.5z" />
    <glyph glyph-name="OE" unicode="&#x152;" horiz-adv-x="1108" 
d="M380 -15q-98 0 -174.5 45.5t-119.5 128t-43 191.5t43 191.5t119.5 128t174.5 45.5q99 0 175 -45.5t119 -128t43 -191.5t-43 -191.5t-119 -128t-175 -45.5zM380 95q64 0 114 31.5t78.5 88.5t28.5 135q0 79 -28.5 136t-78.5 88t-114 31t-114 -31t-78.5 -88t-28.5 -136
q0 -78 28.5 -135t78.5 -88.5t114 -31.5zM601 0v700h115v-700h-115zM660 0v110h404v-110h-404zM660 300v110h378v-110h-378zM660 590v110h404v-110h-404z" />
    <glyph glyph-name="P" unicode="P" horiz-adv-x="611" 
d="M454 486q0 52 -30.5 81t-86.5 29h-205v104h214q103 0 162.5 -58t59.5 -156h-114zM73 0v700h112v-700h-112zM132 273v104h205q56 0 86.5 29t30.5 80h114q0 -97 -59.5 -155t-162.5 -58h-214z" />
    <glyph glyph-name="Thorn" unicode="&#xde;" horiz-adv-x="611" 
d="M454 350q0 51 -30.5 80.5t-86.5 29.5h-205v104h214q103 0 162.5 -58t59.5 -156h-114zM73 0v700h112v-700h-112zM132 136v104h205q56 0 86.5 29.5t30.5 80.5h114q0 -97 -59.5 -155.5t-162.5 -58.5h-214z" />
    <glyph glyph-name="Q" unicode="Q" horiz-adv-x="760" 
d="M599 0l-235 265l81 76l296 -333v-8h-142zM380 -15q-98 0 -174.5 45.5t-119.5 128t-43 191.5t43 191.5t119.5 128t174.5 45.5q99 0 175 -45.5t119 -128t43 -191.5t-43 -191.5t-119 -128t-175 -45.5zM380 95q64 0 114 31.5t78.5 88.5t28.5 135q0 79 -28.5 136t-78.5 88
t-114 31t-114 -31t-78.5 -88t-28.5 -136q0 -78 28.5 -135t78.5 -88.5t114 -31.5z" />
    <glyph glyph-name="R" unicode="R" horiz-adv-x="616" 
d="M73 0v700h112v-700h-112zM132 273v105h215q56 0 86.5 29t30.5 79h117q0 -97 -60.5 -155t-164.5 -58h-224zM464 486q0 51 -30.5 80t-86.5 29h-215v105h224q104 0 164.5 -58t60.5 -156h-117zM459 0l-160 304l110 32l174 -328v-8h-124z" />
    <glyph glyph-name="Racute" unicode="&#x154;" horiz-adv-x="616" 
d="M73 0v700h112v-700h-112zM132 273v105h215q56 0 86.5 29t30.5 79h117q0 -97 -60.5 -155t-164.5 -58h-224zM464 486q0 51 -30.5 80t-86.5 29h-215v105h224q104 0 164.5 -58t60.5 -156h-117zM459 0l-160 304l110 32l174 -328v-8h-124zM242 766l66 145h143v-8l-96 -137h-113
z" />
    <glyph glyph-name="Rcaron" unicode="&#x158;" horiz-adv-x="616" 
d="M73 0v700h112v-700h-112zM132 273v105h215q56 0 86.5 29t30.5 79h117q0 -97 -60.5 -155t-164.5 -58h-224zM464 486q0 51 -30.5 80t-86.5 29h-215v105h224q104 0 164.5 -58t60.5 -156h-117zM459 0l-160 304l110 32l174 -328v-8h-124zM133 880h102l56 -72l57 72h103
l-90 -145h-139z" />
    <glyph glyph-name="uni0156" unicode="&#x156;" horiz-adv-x="616" 
d="M73 0v700h112v-700h-112zM132 273v105h215q56 0 86.5 29t30.5 79h117q0 -97 -60.5 -155t-164.5 -58h-224zM464 486q0 51 -30.5 80t-86.5 29h-215v105h224q104 0 164.5 -58t60.5 -156h-117zM459 0l-160 304l110 32l174 -328v-8h-124zM265 -258v61q25 6 39 21t14 35
q0 18 -5 30l42 21q3 -12 3 -23q0 -18 -9 -26.5t-20 -11.5t-15 -3q-26 0 -43.5 17.5t-17.5 41.5q0 26 17 43.5t44 17.5q32 0 51 -28t19 -63q0 -25 -11.5 -53.5t-38 -51t-69.5 -28.5z" />
    <glyph glyph-name="S" unicode="S" horiz-adv-x="618" 
d="M316 -15q-73 0 -131.5 26t-97.5 73.5t-52 109.5l105 27l11 -2q13 -37 37.5 -65.5t58.5 -44.5t73 -16q40 0 70 12.5t47.5 35t17.5 51.5q0 36 -22.5 57.5t-66.5 33.5l-126 33q-89 24 -135.5 77t-46.5 123q0 59 30 103.5t84 70t125 25.5q68 0 122.5 -24.5t90.5 -68.5
t47 -105l-99 -22l-11 2q-12 52 -52 81t-99 29q-54 0 -86 -25.5t-32 -65.5q0 -33 23.5 -56t69.5 -35l126 -33q87 -23 132.5 -72.5t45.5 -122.5q0 -64 -32 -111.5t-90.5 -74t-136.5 -26.5z" />
    <glyph glyph-name="Sacute" unicode="&#x15a;" horiz-adv-x="618" 
d="M316 -15q-73 0 -131.5 26t-97.5 73.5t-52 109.5l105 27l11 -2q13 -37 37.5 -65.5t58.5 -44.5t73 -16q40 0 70 12.5t47.5 35t17.5 51.5q0 36 -22.5 57.5t-66.5 33.5l-126 33q-89 24 -135.5 77t-46.5 123q0 59 30 103.5t84 70t125 25.5q68 0 122.5 -24.5t90.5 -68.5
t47 -105l-99 -22l-11 2q-12 52 -52 81t-99 29q-54 0 -86 -25.5t-32 -65.5q0 -33 23.5 -56t69.5 -35l126 -33q87 -23 132.5 -72.5t45.5 -122.5q0 -64 -32 -111.5t-90.5 -74t-136.5 -26.5zM258 766l66 145h143v-8l-96 -137h-113z" />
    <glyph glyph-name="Scaron" unicode="&#x160;" horiz-adv-x="618" 
d="M316 -15q-73 0 -131.5 26t-97.5 73.5t-52 109.5l105 27l11 -2q13 -37 37.5 -65.5t58.5 -44.5t73 -16q40 0 70 12.5t47.5 35t17.5 51.5q0 36 -22.5 57.5t-66.5 33.5l-126 33q-89 24 -135.5 77t-46.5 123q0 59 30 103.5t84 70t125 25.5q68 0 122.5 -24.5t90.5 -68.5
t47 -105l-99 -22l-11 2q-12 52 -52 81t-99 29q-54 0 -86 -25.5t-32 -65.5q0 -33 23.5 -56t69.5 -35l126 -33q87 -23 132.5 -72.5t45.5 -122.5q0 -64 -32 -111.5t-90.5 -74t-136.5 -26.5zM149 880h102l56 -72l57 72h103l-90 -145h-139z" />
    <glyph glyph-name="Scedilla" unicode="&#x15e;" horiz-adv-x="618" 
d="M316 -15q-73 0 -131.5 26t-97.5 73.5t-52 109.5l105 27l11 -2q13 -37 37.5 -65.5t58.5 -44.5t73 -16q40 0 70 12.5t47.5 35t17.5 51.5q0 36 -22.5 57.5t-66.5 33.5l-126 33q-89 24 -135.5 77t-46.5 123q0 59 30 103.5t84 70t125 25.5q68 0 122.5 -24.5t90.5 -68.5
t47 -105l-99 -22l-11 2q-12 52 -52 81t-99 29q-54 0 -86 -25.5t-32 -65.5q0 -33 23.5 -56t69.5 -35l126 -33q87 -23 132.5 -72.5t45.5 -122.5q0 -64 -32 -111.5t-90.5 -74t-136.5 -26.5zM303 -220q-14 0 -30 4t-35 15l23 65l9 2q8 -5 15.5 -7t13.5 -2q13 0 20 6.5t7 16.5
q0 8 -7 15.5t-20 7.5q-15 0 -23 -8l-38 48l49 70h88l-67 -90l-15 46q5 1 10 1.5t11 0.5q39 0 65.5 -26t26.5 -64q0 -47 -30.5 -74t-72.5 -27z" />
    <glyph glyph-name="uni0218" unicode="&#x218;" horiz-adv-x="618" 
d="M316 -15q-73 0 -131.5 26t-97.5 73.5t-52 109.5l105 27l11 -2q13 -37 37.5 -65.5t58.5 -44.5t73 -16q40 0 70 12.5t47.5 35t17.5 51.5q0 36 -22.5 57.5t-66.5 33.5l-126 33q-89 24 -135.5 77t-46.5 123q0 59 30 103.5t84 70t125 25.5q68 0 122.5 -24.5t90.5 -68.5
t47 -105l-99 -22l-11 2q-12 52 -52 81t-99 29q-54 0 -86 -25.5t-32 -65.5q0 -33 23.5 -56t69.5 -35l126 -33q87 -23 132.5 -72.5t45.5 -122.5q0 -64 -32 -111.5t-90.5 -74t-136.5 -26.5zM269 -258v61q25 6 39 21t14 35q0 18 -5 30l42 21q3 -12 3 -23q0 -18 -9 -26.5
t-20 -11.5t-15 -3q-26 0 -43.5 17.5t-17.5 41.5q0 26 17 43.5t44 17.5q32 0 51 -28t19 -63q0 -25 -11.5 -53.5t-38 -51t-69.5 -28.5z" />
    <glyph glyph-name="uni1E9E" unicode="&#x1e9e;" horiz-adv-x="720" 
d="M459 -15q-64 0 -113 26.5t-77.5 76.5t-32.5 121l105 22l11 -2q0 -42 14 -72t39.5 -46t57.5 -16q28 0 51.5 14t37.5 39.5t14 60.5q0 59 -38.5 89t-105.5 30h-107v96l226 241l3 -73h-251q-51 0 -80.5 -28.5t-29.5 -80.5v-483h-115v493q0 65 24.5 111.5t71 71t111.5 24.5
h341v-104l-202 -215l-39 47h58q75 0 130.5 -29t87 -80.5t31.5 -117.5q0 -62 -30 -111t-80.5 -77t-112.5 -28z" />
    <glyph glyph-name="T" unicode="T" horiz-adv-x="577" 
d="M231 0v700h115v-700h-115zM22 590v110h533v-110h-533z" />
    <glyph glyph-name="Tcaron" unicode="&#x164;" horiz-adv-x="577" 
d="M231 0v700h115v-700h-115zM22 590v110h533v-110h-533zM129 880h102l56 -72l57 72h103l-90 -145h-139z" />
    <glyph glyph-name="uni021A" unicode="&#x21a;" horiz-adv-x="577" 
d="M231 0v700h115v-700h-115zM22 590v110h533v-110h-533zM235 -258v61q25 6 39 21t14 35q0 18 -5 30l42 21q3 -12 3 -23q0 -18 -9 -26.5t-20 -11.5t-15 -3q-26 0 -43.5 17.5t-17.5 41.5q0 26 17 43.5t44 17.5q32 0 51 -28t19 -63q0 -25 -11.5 -53.5t-38 -51t-69.5 -28.5z
" />
    <glyph glyph-name="U" unicode="U" horiz-adv-x="661" 
d="M331 -15q-83 0 -143 33t-92.5 93.5t-32.5 143.5v445h115v-447q0 -76 39.5 -117t113.5 -41t113 41t39 117v447h115v-445q0 -83 -32.5 -143.5t-92.5 -93.5t-142 -33z" />
    <glyph glyph-name="Uacute" unicode="&#xda;" horiz-adv-x="661" 
d="M331 -15q-83 0 -143 33t-92.5 93.5t-32.5 143.5v445h115v-447q0 -76 39.5 -117t113.5 -41t113 41t39 117v447h115v-445q0 -83 -32.5 -143.5t-92.5 -93.5t-142 -33zM280 766l66 145h143v-8l-96 -137h-113z" />
    <glyph glyph-name="Ubreve" unicode="&#x16c;" horiz-adv-x="661" 
d="M331 -15q-83 0 -143 33t-92.5 93.5t-32.5 143.5v445h115v-447q0 -76 39.5 -117t113.5 -41t113 41t39 117v447h115v-445q0 -83 -32.5 -143.5t-92.5 -93.5t-142 -33zM331 763q-43 0 -77.5 18.5t-54.5 52t-20 76.5h99q0 -21 14 -39.5t39 -18.5q26 0 39 18.5t14 39.5h99
q0 -43 -20 -76.5t-54.5 -52t-77.5 -18.5z" />
    <glyph glyph-name="Ucircumflex" unicode="&#xdb;" horiz-adv-x="661" 
d="M331 -15q-83 0 -143 33t-92.5 93.5t-32.5 143.5v445h115v-447q0 -76 39.5 -117t113.5 -41t113 41t39 117v447h115v-445q0 -83 -32.5 -143.5t-92.5 -93.5t-142 -33zM171 766l89 145h139l90 -145h-103l-57 72l-56 -72h-102z" />
    <glyph glyph-name="Udieresis" unicode="&#xdc;" horiz-adv-x="661" 
d="M331 -15q-83 0 -143 33t-92.5 93.5t-32.5 143.5v445h115v-447q0 -76 39.5 -117t113.5 -41t113 41t39 117v447h115v-445q0 -83 -32.5 -143.5t-92.5 -93.5t-142 -33zM435 771q-30 0 -51 21t-21 52q0 29 21 50.5t52 21.5q29 0 50.5 -21.5t21.5 -51.5t-21.5 -51t-51.5 -21z
M232 771q-30 0 -51 21t-21 52q0 29 21 50.5t52 21.5q29 0 50.5 -21.5t21.5 -51.5t-21.5 -51t-51.5 -21z" />
    <glyph glyph-name="Ugrave" unicode="&#xd9;" horiz-adv-x="661" 
d="M331 -15q-83 0 -143 33t-92.5 93.5t-32.5 143.5v445h115v-447q0 -76 39.5 -117t113.5 -41t113 41t39 117v447h115v-445q0 -83 -32.5 -143.5t-92.5 -93.5t-142 -33zM380 766h-113l-96 137v8h143z" />
    <glyph glyph-name="Uhungarumlaut" unicode="&#x170;" horiz-adv-x="661" 
d="M331 -15q-83 0 -143 33t-92.5 93.5t-32.5 143.5v445h115v-447q0 -76 39.5 -117t113.5 -41t113 41t39 117v447h115v-445q0 -83 -32.5 -143.5t-92.5 -93.5t-142 -33zM363 765l54 145h130v-8l-84 -137h-100zM201 765l54 145h130v-8l-84 -137h-100z" />
    <glyph glyph-name="Umacron" unicode="&#x16a;" horiz-adv-x="661" 
d="M331 -15q-83 0 -143 33t-92.5 93.5t-32.5 143.5v445h115v-447q0 -76 39.5 -117t113.5 -41t113 41t39 117v447h115v-445q0 -83 -32.5 -143.5t-92.5 -93.5t-142 -33zM164 782v110h333v-110h-333z" />
    <glyph glyph-name="Uogonek" unicode="&#x172;" horiz-adv-x="661" 
d="M331 -15q-83 0 -143 33t-92.5 93.5t-32.5 143.5v445h115v-447q0 -76 39.5 -117t113.5 -41t113 41t39 117v447h115v-445q0 -83 -32.5 -143.5t-92.5 -93.5t-142 -33zM377 -220q-54 0 -87 31.5t-33 82.5q0 46 27 83.5t80 69.5l66 -47q-38 -19 -59.5 -41t-21.5 -44
q0 -18 13.5 -31.5t35.5 -13.5q13 0 27 4l5 -11v-78q-15 -2 -27.5 -3.5t-25.5 -1.5z" />
    <glyph glyph-name="Uring" unicode="&#x16e;" horiz-adv-x="661" 
d="M331 -15q-83 0 -143 33t-92.5 93.5t-32.5 143.5v445h115v-447q0 -76 39.5 -117t113.5 -41t113 41t39 117v447h115v-445q0 -83 -32.5 -143.5t-92.5 -93.5t-142 -33zM331 686q-38 0 -68 16.5t-47 46.5t-17 65q0 37 17 66t47 46t68 17t67 -17t46.5 -46t17.5 -66
q0 -35 -17.5 -65t-46.5 -46.5t-67 -16.5zM331 769q19 0 32 13t13 32t-13 32.5t-32 13.5q-20 0 -33 -13.5t-13 -32.5t13 -32t33 -13z" />
    <glyph glyph-name="V" unicode="V" horiz-adv-x="680" 
d="M283 0l7 21l258 679h121v-8l-271 -692h-115zM283 0l-271 692v8h121l258 -679l7 -21h-115z" />
    <glyph glyph-name="W" unicode="W" horiz-adv-x="989" 
d="M651 0l-215 700h117l203 -679l9 -21h-114zM651 0l5 21l199 679h117v-8l-207 -692h-114zM224 0l-207 692v8h117l199 -679l5 -21h-114zM224 0l9 21l203 679h117l-215 -700h-114z" />
    <glyph glyph-name="Wacute" unicode="&#x1e82;" horiz-adv-x="989" 
d="M651 0l-215 700h117l203 -679l9 -21h-114zM651 0l5 21l199 679h117v-8l-207 -692h-114zM224 0l-207 692v8h117l199 -679l5 -21h-114zM224 0l9 21l203 679h117l-215 -700h-114zM437 766l66 145h143v-8l-96 -137h-113z" />
    <glyph glyph-name="Wcircumflex" unicode="&#x174;" horiz-adv-x="989" 
d="M651 0l-215 700h117l203 -679l9 -21h-114zM651 0l5 21l199 679h117v-8l-207 -692h-114zM224 0l-207 692v8h117l199 -679l5 -21h-114zM224 0l9 21l203 679h117l-215 -700h-114zM335 766l89 145h139l90 -145h-103l-57 72l-56 -72h-102z" />
    <glyph glyph-name="Wdieresis" unicode="&#x1e84;" horiz-adv-x="989" 
d="M651 0l-215 700h117l203 -679l9 -21h-114zM651 0l5 21l199 679h117v-8l-207 -692h-114zM224 0l-207 692v8h117l199 -679l5 -21h-114zM224 0l9 21l203 679h117l-215 -700h-114zM599 771q-30 0 -51 21t-21 52q0 29 21 50.5t52 21.5q29 0 50.5 -21.5t21.5 -51.5t-21.5 -51
t-51.5 -21zM396 771q-30 0 -51 21t-21 52q0 29 21 50.5t52 21.5q29 0 50.5 -21.5t21.5 -51.5t-21.5 -51t-51.5 -21z" />
    <glyph glyph-name="Wgrave" unicode="&#x1e80;" horiz-adv-x="989" 
d="M651 0l-215 700h117l203 -679l9 -21h-114zM651 0l5 21l199 679h117v-8l-207 -692h-114zM224 0l-207 692v8h117l199 -679l5 -21h-114zM224 0l9 21l203 679h117l-215 -700h-114zM540 766h-113l-96 137v8h143z" />
    <glyph glyph-name="X" unicode="X" horiz-adv-x="566" 
d="M439 0l-429 692v8h130l429 -692v-8h-130zM-3 0v8l243 392l68 -101l-184 -299h-127zM319 296l-67 101l177 303h127v-8z" />
    <glyph glyph-name="Y" unicode="Y" horiz-adv-x="566" 
d="M226 0v273l-229 419v8h126l190 -363h-57l190 363h124v-8l-229 -419v-273h-115z" />
    <glyph glyph-name="Yacute" unicode="&#xdd;" horiz-adv-x="566" 
d="M226 0v273l-229 419v8h126l190 -363h-57l190 363h124v-8l-229 -419v-273h-115zM235 766l66 145h143v-8l-96 -137h-113z" />
    <glyph glyph-name="Ycircumflex" unicode="&#x176;" horiz-adv-x="566" 
d="M226 0v273l-229 419v8h126l190 -363h-57l190 363h124v-8l-229 -419v-273h-115zM124 766l89 145h139l90 -145h-103l-57 72l-56 -72h-102z" />
    <glyph glyph-name="Ydieresis" unicode="&#x178;" horiz-adv-x="566" 
d="M226 0v273l-229 419v8h126l190 -363h-57l190 363h124v-8l-229 -419v-273h-115zM388 771q-30 0 -51 21t-21 52q0 29 21 50.5t52 21.5q29 0 50.5 -21.5t21.5 -51.5t-21.5 -51t-51.5 -21zM185 771q-30 0 -51 21t-21 52q0 29 21 50.5t52 21.5q29 0 50.5 -21.5t21.5 -51.5
t-21.5 -51t-51.5 -21z" />
    <glyph glyph-name="Ygrave" unicode="&#x1ef2;" horiz-adv-x="566" 
d="M226 0v273l-229 419v8h126l190 -363h-57l190 363h124v-8l-229 -419v-273h-115zM337 766h-113l-96 137v8h143z" />
    <glyph glyph-name="Z" unicode="Z" horiz-adv-x="595" 
d="M38 0v102l426 563l22 -75h-439v110h505v-102l-426 -563l-22 75h453v-110h-519z" />
    <glyph glyph-name="Zacute" unicode="&#x179;" horiz-adv-x="595" 
d="M38 0v102l426 563l22 -75h-439v110h505v-102l-426 -563l-22 75h453v-110h-519zM247 766l66 145h143v-8l-96 -137h-113z" />
    <glyph glyph-name="Zcaron" unicode="&#x17d;" horiz-adv-x="595" 
d="M38 0v102l426 563l22 -75h-439v110h505v-102l-426 -563l-22 75h453v-110h-519zM138 880h102l56 -72l57 72h103l-90 -145h-139z" />
    <glyph glyph-name="Zdotaccent" unicode="&#x17b;" horiz-adv-x="595" 
d="M38 0v102l426 563l22 -75h-439v110h505v-102l-426 -563l-22 75h453v-110h-519zM297 772q-30 0 -51 21t-21 52q0 29 21 50.5t52 21.5q29 0 50.5 -21.5t21.5 -51.5t-21.5 -51t-51.5 -21z" />
    <glyph glyph-name="a" unicode="a" horiz-adv-x="553" 
d="M219 -15q-52 0 -92.5 20t-63.5 56t-23 82q0 71 49 113.5t141 49.5l196 16v-95l-179 -15q-48 -4 -69 -20t-21 -43t24 -44t61 -17q39 0 70.5 19.5t50.5 50.5t19 67v83q0 48 -32 79.5t-84 31.5q-44 0 -72.5 -21.5t-36.5 -53.5h-11l-98 24q18 68 75.5 110t143.5 42
q107 0 167 -61.5t60 -173.5v-285h-102v147l41 -6q-12 -43 -43 -78.5t-74.5 -56.5t-96.5 -21z" />
    <glyph glyph-name="aacute" unicode="&#xe1;" horiz-adv-x="553" 
d="M219 -15q-52 0 -92.5 20t-63.5 56t-23 82q0 71 49 113.5t141 49.5l196 16v-95l-179 -15q-48 -4 -69 -20t-21 -43t24 -44t61 -17q39 0 70.5 19.5t50.5 50.5t19 67v83q0 48 -32 79.5t-84 31.5q-44 0 -72.5 -21.5t-36.5 -53.5h-11l-98 24q18 68 75.5 110t143.5 42
q107 0 167 -61.5t60 -173.5v-285h-102v147l41 -6q-12 -43 -43 -78.5t-74.5 -56.5t-96.5 -21zM214 575l66 145h143v-8l-96 -137h-113z" />
    <glyph glyph-name="abreve" unicode="&#x103;" horiz-adv-x="553" 
d="M219 -15q-52 0 -92.5 20t-63.5 56t-23 82q0 71 49 113.5t141 49.5l196 16v-95l-179 -15q-48 -4 -69 -20t-21 -43t24 -44t61 -17q39 0 70.5 19.5t50.5 50.5t19 67v83q0 48 -32 79.5t-84 31.5q-44 0 -72.5 -21.5t-36.5 -53.5h-11l-98 24q18 68 75.5 110t143.5 42
q107 0 167 -61.5t60 -173.5v-285h-102v147l41 -6q-12 -43 -43 -78.5t-74.5 -56.5t-96.5 -21zM275 573q-43 0 -77.5 18.5t-54.5 52t-20 76.5h99q0 -21 14 -39.5t39 -18.5q26 0 39 18.5t14 39.5h99q0 -43 -20 -76.5t-54.5 -52t-77.5 -18.5z" />
    <glyph glyph-name="acircumflex" unicode="&#xe2;" horiz-adv-x="553" 
d="M219 -15q-52 0 -92.5 20t-63.5 56t-23 82q0 71 49 113.5t141 49.5l196 16v-95l-179 -15q-48 -4 -69 -20t-21 -43t24 -44t61 -17q39 0 70.5 19.5t50.5 50.5t19 67v83q0 48 -32 79.5t-84 31.5q-44 0 -72.5 -21.5t-36.5 -53.5h-11l-98 24q18 68 75.5 110t143.5 42
q107 0 167 -61.5t60 -173.5v-285h-102v147l41 -6q-12 -43 -43 -78.5t-74.5 -56.5t-96.5 -21zM116 575l89 145h139l90 -145h-103l-57 72l-56 -72h-102z" />
    <glyph glyph-name="adieresis" unicode="&#xe4;" horiz-adv-x="553" 
d="M219 -15q-52 0 -92.5 20t-63.5 56t-23 82q0 71 49 113.5t141 49.5l196 16v-95l-179 -15q-48 -4 -69 -20t-21 -43t24 -44t61 -17q39 0 70.5 19.5t50.5 50.5t19 67v83q0 48 -32 79.5t-84 31.5q-44 0 -72.5 -21.5t-36.5 -53.5h-11l-98 24q18 68 75.5 110t143.5 42
q107 0 167 -61.5t60 -173.5v-285h-102v147l41 -6q-12 -43 -43 -78.5t-74.5 -56.5t-96.5 -21zM376 581q-30 0 -51 21t-21 52q0 29 21 50.5t52 21.5q29 0 50.5 -21.5t21.5 -51.5t-21.5 -51t-51.5 -21zM174 581q-30 0 -51 21t-21 52q0 29 21 50.5t52 21.5q29 0 50.5 -21.5
t21.5 -51.5t-21.5 -51t-51.5 -21z" />
    <glyph glyph-name="agrave" unicode="&#xe0;" horiz-adv-x="553" 
d="M219 -15q-52 0 -92.5 20t-63.5 56t-23 82q0 71 49 113.5t141 49.5l196 16v-95l-179 -15q-48 -4 -69 -20t-21 -43t24 -44t61 -17q39 0 70.5 19.5t50.5 50.5t19 67v83q0 48 -32 79.5t-84 31.5q-44 0 -72.5 -21.5t-36.5 -53.5h-11l-98 24q18 68 75.5 110t143.5 42
q107 0 167 -61.5t60 -173.5v-285h-102v147l41 -6q-12 -43 -43 -78.5t-74.5 -56.5t-96.5 -21zM336 575h-113l-96 137v8h143z" />
    <glyph glyph-name="amacron" unicode="&#x101;" horiz-adv-x="553" 
d="M219 -15q-52 0 -92.5 20t-63.5 56t-23 82q0 71 49 113.5t141 49.5l196 16v-95l-179 -15q-48 -4 -69 -20t-21 -43t24 -44t61 -17q39 0 70.5 19.5t50.5 50.5t19 67v83q0 48 -32 79.5t-84 31.5q-44 0 -72.5 -21.5t-36.5 -53.5h-11l-98 24q18 68 75.5 110t143.5 42
q107 0 167 -61.5t60 -173.5v-285h-102v147l41 -6q-12 -43 -43 -78.5t-74.5 -56.5t-96.5 -21zM109 592v110h333v-110h-333z" />
    <glyph glyph-name="aogonek" unicode="&#x105;" horiz-adv-x="553" 
d="M219 -15q-52 0 -92.5 20t-63.5 56t-23 82q0 71 49 113.5t141 49.5l196 16v-95l-179 -15q-48 -4 -69 -20t-21 -43t24 -44t61 -17q39 0 70.5 19.5t50.5 50.5t19 67v83q0 48 -32 79.5t-84 31.5q-44 0 -72.5 -21.5t-36.5 -53.5h-11l-98 24q18 68 75.5 110t143.5 42
q107 0 167 -61.5t60 -173.5v-285h-102v147l41 -6q-12 -43 -43 -78.5t-74.5 -56.5t-96.5 -21zM441 -220q-54 0 -87 31.5t-33 82.5q0 46 27 83.5t80 69.5l66 -47q-38 -19 -59.5 -41t-21.5 -44q0 -18 13.5 -31.5t35.5 -13.5q13 0 27 4l5 -11v-78q-15 -2 -27.5 -3.5t-25.5 -1.5z
" />
    <glyph glyph-name="aring" unicode="&#xe5;" horiz-adv-x="553" 
d="M219 -15q-52 0 -92.5 20t-63.5 56t-23 82q0 71 49 113.5t141 49.5l196 16v-95l-179 -15q-48 -4 -69 -20t-21 -43t24 -44t61 -17q39 0 70.5 19.5t50.5 50.5t19 67v83q0 48 -32 79.5t-84 31.5q-44 0 -72.5 -21.5t-36.5 -53.5h-11l-98 24q18 68 75.5 110t143.5 42
q107 0 167 -61.5t60 -173.5v-285h-102v147l41 -6q-12 -43 -43 -78.5t-74.5 -56.5t-96.5 -21zM276 541q-38 0 -68 16.5t-47 46.5t-17 65q0 37 17 66t47 46t68 17t67 -17t46.5 -46t17.5 -66q0 -35 -17.5 -65t-46.5 -46.5t-67 -16.5zM276 624q19 0 32 13t13 32t-13 32.5
t-32 13.5q-20 0 -33 -13.5t-13 -32.5t13 -32t33 -13z" />
    <glyph glyph-name="atilde" unicode="&#xe3;" horiz-adv-x="553" 
d="M219 -15q-52 0 -92.5 20t-63.5 56t-23 82q0 71 49 113.5t141 49.5l196 16v-95l-179 -15q-48 -4 -69 -20t-21 -43t24 -44t61 -17q39 0 70.5 19.5t50.5 50.5t19 67v83q0 48 -32 79.5t-84 31.5q-44 0 -72.5 -21.5t-36.5 -53.5h-11l-98 24q18 68 75.5 110t143.5 42
q107 0 167 -61.5t60 -173.5v-285h-102v147l41 -6q-12 -43 -43 -78.5t-74.5 -56.5t-96.5 -21zM350 573q-23 0 -41.5 8t-34.5 18.5t-31.5 18.5t-30.5 8q-18 0 -29 -14.5t-11 -37.5h-93q0 66 33.5 107t88.5 41q23 0 41.5 -8t35 -18.5t31.5 -18.5t30 -8q19 0 29.5 14.5
t10.5 37.5h93q0 -65 -33.5 -106.5t-88.5 -41.5z" />
    <glyph glyph-name="ae" unicode="&#xe6;" horiz-adv-x="921" 
d="M641 -15q-77 0 -135.5 34t-91.5 94t-33 140q0 79 32 139.5t90 94t133 33.5t130.5 -34t87 -96t31.5 -145v-19l-15 -14h-435v95h398l-61 -22q-1 41 -19.5 71t-48 46.5t-66.5 16.5q-40 0 -73 -18.5t-51 -51t-18 -75.5v-40q0 -41 19.5 -74.5t52.5 -53.5t73 -20
q38 0 69.5 20.5t49.5 55.5h12l93 -40q-30 -65 -88.5 -101t-135.5 -36zM219 -15q-52 0 -92.5 20t-63.5 56t-23 82q0 48 22.5 84.5t65.5 58t104 21.5h203v-95h-188q-48 0 -69 -18t-21 -45t24 -44t61 -17q39 0 71 19.5t51 50.5t19 67v83q0 48 -32.5 79.5t-84.5 31.5
q-44 0 -72.5 -21.5t-36.5 -53.5h-11l-98 24q18 68 75.5 110t143.5 42q107 0 167.5 -61.5t60.5 -173.5v-162h-102l46 22q-13 -44 -45 -80.5t-76.5 -58t-98.5 -21.5z" />
    <glyph glyph-name="b" unicode="b" horiz-adv-x="624" 
d="M345 -15q-56 0 -100 22.5t-73.5 59.5t-41.5 79v212q12 43 41.5 79.5t73.5 59.5t100 23q69 0 123.5 -34.5t87 -94.5t32.5 -139q0 -78 -32.5 -138t-87 -94.5t-123.5 -34.5zM68 0v720l112 14l3 -8v-377l-31 -96l24 -97v-156h-108zM328 90q43 0 75.5 20.5t51 57.5t18.5 85
t-18.5 84.5t-51 57.5t-75.5 21t-76.5 -21t-52 -57.5t-18.5 -84.5t18.5 -85t52 -57.5t76.5 -20.5z" />
    <glyph glyph-name="c" unicode="c" horiz-adv-x="574" 
d="M299 -15q-78 0 -137 34t-92 94t-33 140q0 79 33 139.5t92 94t137 33.5q60 0 107.5 -20t80.5 -59t50 -96l-96 -27h-12q-14 45 -50 71.5t-80 26.5q-45 0 -78 -20t-51 -56.5t-18 -86.5q0 -49 18 -86t51 -57.5t78 -20.5q32 0 58.5 12t46.5 34t30 53h12l96 -27
q-18 -58 -52 -97.5t-81.5 -59t-109.5 -19.5z" />
    <glyph glyph-name="cacute" unicode="&#x107;" horiz-adv-x="574" 
d="M299 -15q-78 0 -137 34t-92 94t-33 140q0 79 33 139.5t92 94t137 33.5q60 0 107.5 -20t80.5 -59t50 -96l-96 -27h-12q-14 45 -50 71.5t-80 26.5q-45 0 -78 -20t-51 -56.5t-18 -86.5q0 -49 18 -86t51 -57.5t78 -20.5q32 0 58.5 12t46.5 34t30 53h12l96 -27
q-18 -58 -52 -97.5t-81.5 -59t-109.5 -19.5zM238 575l66 145h143v-8l-96 -137h-113z" />
    <glyph glyph-name="ccaron" unicode="&#x10d;" horiz-adv-x="574" 
d="M299 -15q-78 0 -137 34t-92 94t-33 140q0 79 33 139.5t92 94t137 33.5q60 0 107.5 -20t80.5 -59t50 -96l-96 -27h-12q-14 45 -50 71.5t-80 26.5q-45 0 -78 -20t-51 -56.5t-18 -86.5q0 -49 18 -86t51 -57.5t78 -20.5q32 0 58.5 12t46.5 34t30 53h12l96 -27
q-18 -58 -52 -97.5t-81.5 -59t-109.5 -19.5zM140 707h102l56 -72l57 72h103l-90 -145h-139z" />
    <glyph glyph-name="ccedilla" unicode="&#xe7;" horiz-adv-x="574" 
d="M299 -15q-78 0 -137 34t-92 94t-33 140q0 79 33 139.5t92 94t137 33.5q60 0 107.5 -20t80.5 -59t50 -96l-96 -27h-12q-14 45 -50 71.5t-80 26.5q-45 0 -78 -20t-51 -56.5t-18 -86.5q0 -49 18 -86t51 -57.5t78 -20.5q32 0 58.5 12t46.5 34t30 53h12l96 -27
q-18 -58 -52 -97.5t-81.5 -59t-109.5 -19.5zM275 -220q-14 0 -30 4t-35 15l23 65l9 2q8 -5 15.5 -7t13.5 -2q13 0 20 6.5t7 16.5q0 8 -7 15.5t-20 7.5q-15 0 -23 -8l-38 48l49 70h88l-67 -90l-15 46q5 1 10 1.5t11 0.5q39 0 65.5 -26t26.5 -64q0 -47 -30.5 -74t-72.5 -27z
" />
    <glyph glyph-name="cdotaccent" unicode="&#x10b;" horiz-adv-x="574" 
d="M299 -15q-78 0 -137 34t-92 94t-33 140q0 79 33 139.5t92 94t137 33.5q60 0 107.5 -20t80.5 -59t50 -96l-96 -27h-12q-14 45 -50 71.5t-80 26.5q-45 0 -78 -20t-51 -56.5t-18 -86.5q0 -49 18 -86t51 -57.5t78 -20.5q32 0 58.5 12t46.5 34t30 53h12l96 -27
q-18 -58 -52 -97.5t-81.5 -59t-109.5 -19.5zM298 581q-30 0 -51 21t-21 52q0 29 21 50.5t52 21.5q29 0 50.5 -21.5t21.5 -51.5t-21.5 -51t-51.5 -21z" />
    <glyph glyph-name="d" unicode="d" horiz-adv-x="624" 
d="M279 -15q-68 0 -123 34.5t-87 94.5t-32 138q0 79 32 139t87 94.5t123 34.5q56 0 100.5 -23t74 -59.5t41.5 -79.5v-212q-12 -42 -41.5 -79t-74 -59.5t-100.5 -22.5zM296 90q44 0 77 20.5t52 57.5t19 85t-19 84.5t-52 57.5t-77 21q-42 0 -75 -21t-51 -57.5t-18 -84.5
t18 -85t51 -57.5t75 -20.5zM448 0v156l24 97l-31 96v371l112 14l3 -8v-726h-108z" />
    <glyph glyph-name="dcaron" unicode="&#x10f;" horiz-adv-x="624" 
d="M279 -15q-68 0 -123 34.5t-87 94.5t-32 138q0 79 32 139t87 94.5t123 34.5q56 0 100.5 -23t74 -59.5t41.5 -79.5v-212q-12 -42 -41.5 -79t-74 -59.5t-100.5 -22.5zM296 90q44 0 77 20.5t52 57.5t19 85t-19 84.5t-52 57.5t-77 21q-42 0 -75 -21t-51 -57.5t-18 -84.5
t18 -85t51 -57.5t75 -20.5zM448 0v156l24 97l-31 96v371l112 14l3 -8v-726h-108zM591 541l20 184h108l-41 -184h-87z" />
    <glyph glyph-name="dcroat" unicode="&#x111;" horiz-adv-x="624" 
d="M279 -15q-68 0 -123 34.5t-87 94.5t-32 138q0 79 32 139t87 94.5t123 34.5q56 0 100.5 -23t74 -59.5t41.5 -79.5v-212q-12 -42 -41.5 -79t-74 -59.5t-100.5 -22.5zM296 90q44 0 77 20.5t52 57.5t19 85t-19 84.5t-52 57.5t-77 21q-42 0 -75 -21t-51 -57.5t-18 -84.5
t18 -85t51 -57.5t75 -20.5zM448 0v156l24 97l-31 96v371l112 14l3 -8v-726h-108zM293 550v111h326v-111h-326z" />
    <glyph glyph-name="eth" unicode="&#xf0;" horiz-adv-x="565" 
d="M279 -15q-70 0 -125 31.5t-86 87t-31 127.5q0 70 31 125t85 86.5t123 31.5q25 0 54 -7.5t56 -22t48.5 -35.5t31.5 -49l-53 -55q-4 58 -29 111t-65.5 97t-93.5 76.5t-111 50.5l42 96q86 -30 154 -75t115.5 -103.5t72.5 -127.5t25 -146q0 -89 -31 -156.5t-86 -105
t-127 -37.5zM279 91q38 0 66.5 18t44.5 50t16 74q0 41 -16.5 72t-45.5 49.5t-67 18.5q-36 0 -64.5 -18.5t-44.5 -49.5t-16 -72q0 -42 16 -74t45 -50t66 -18zM154 480l-40 90l316 142l39 -91z" />
    <glyph glyph-name="e" unicode="e" horiz-adv-x="577" 
d="M297 -15q-77 0 -135.5 34t-91.5 94t-33 140q0 79 32.5 139.5t90 94t132.5 33.5t130.5 -34.5t87 -96.5t31.5 -145v-19l-15 -15h-435v96h398l-61 -23q-1 42 -19.5 72.5t-48 47t-66.5 16.5q-40 0 -73 -18.5t-51 -51t-18 -75.5v-40q0 -41 19.5 -74.5t52.5 -53.5t73 -20
q38 0 69.5 20.5t49.5 55.5h12l93 -40q-30 -65 -88.5 -101t-135.5 -36z" />
    <glyph glyph-name="eacute" unicode="&#xe9;" horiz-adv-x="577" 
d="M297 -15q-77 0 -135.5 34t-91.5 94t-33 140q0 79 32.5 139.5t90 94t132.5 33.5t130.5 -34.5t87 -96.5t31.5 -145v-19l-15 -15h-435v96h398l-61 -23q-1 42 -19.5 72.5t-48 47t-66.5 16.5q-40 0 -73 -18.5t-51 -51t-18 -75.5v-40q0 -41 19.5 -74.5t52.5 -53.5t73 -20
q38 0 69.5 20.5t49.5 55.5h12l93 -40q-30 -65 -88.5 -101t-135.5 -36zM231 575l66 145h143v-8l-96 -137h-113z" />
    <glyph glyph-name="ecaron" unicode="&#x11b;" horiz-adv-x="577" 
d="M297 -15q-77 0 -135.5 34t-91.5 94t-33 140q0 79 32.5 139.5t90 94t132.5 33.5t130.5 -34.5t87 -96.5t31.5 -145v-19l-15 -15h-435v96h398l-61 -23q-1 42 -19.5 72.5t-48 47t-66.5 16.5q-40 0 -73 -18.5t-51 -51t-18 -75.5v-40q0 -41 19.5 -74.5t52.5 -53.5t73 -20
q38 0 69.5 20.5t49.5 55.5h12l93 -40q-30 -65 -88.5 -101t-135.5 -36zM133 707h102l56 -72l57 72h103l-90 -145h-139z" />
    <glyph glyph-name="ecircumflex" unicode="&#xea;" horiz-adv-x="577" 
d="M297 -15q-77 0 -135.5 34t-91.5 94t-33 140q0 79 32.5 139.5t90 94t132.5 33.5t130.5 -34.5t87 -96.5t31.5 -145v-19l-15 -15h-435v96h398l-61 -23q-1 42 -19.5 72.5t-48 47t-66.5 16.5q-40 0 -73 -18.5t-51 -51t-18 -75.5v-40q0 -41 19.5 -74.5t52.5 -53.5t73 -20
q38 0 69.5 20.5t49.5 55.5h12l93 -40q-30 -65 -88.5 -101t-135.5 -36zM133 575l89 145h139l90 -145h-103l-57 72l-56 -72h-102z" />
    <glyph glyph-name="edieresis" unicode="&#xeb;" horiz-adv-x="577" 
d="M297 -15q-77 0 -135.5 34t-91.5 94t-33 140q0 79 32.5 139.5t90 94t132.5 33.5t130.5 -34.5t87 -96.5t31.5 -145v-19l-15 -15h-435v96h398l-61 -23q-1 42 -19.5 72.5t-48 47t-66.5 16.5q-40 0 -73 -18.5t-51 -51t-18 -75.5v-40q0 -41 19.5 -74.5t52.5 -53.5t73 -20
q38 0 69.5 20.5t49.5 55.5h12l93 -40q-30 -65 -88.5 -101t-135.5 -36zM393 581q-30 0 -51 21t-21 52q0 29 21 50.5t52 21.5q29 0 50.5 -21.5t21.5 -51.5t-21.5 -51t-51.5 -21zM191 581q-30 0 -51 21t-21 52q0 29 21 50.5t52 21.5q29 0 50.5 -21.5t21.5 -51.5t-21.5 -51
t-51.5 -21z" />
    <glyph glyph-name="edotaccent" unicode="&#x117;" horiz-adv-x="577" 
d="M297 -15q-77 0 -135.5 34t-91.5 94t-33 140q0 79 32.5 139.5t90 94t132.5 33.5t130.5 -34.5t87 -96.5t31.5 -145v-19l-15 -15h-435v96h398l-61 -23q-1 42 -19.5 72.5t-48 47t-66.5 16.5q-40 0 -73 -18.5t-51 -51t-18 -75.5v-40q0 -41 19.5 -74.5t52.5 -53.5t73 -20
q38 0 69.5 20.5t49.5 55.5h12l93 -40q-30 -65 -88.5 -101t-135.5 -36zM292 581q-30 0 -51 21t-21 52q0 29 21 50.5t52 21.5q29 0 50.5 -21.5t21.5 -51.5t-21.5 -51t-51.5 -21z" />
    <glyph glyph-name="egrave" unicode="&#xe8;" horiz-adv-x="577" 
d="M297 -15q-77 0 -135.5 34t-91.5 94t-33 140q0 79 32.5 139.5t90 94t132.5 33.5t130.5 -34.5t87 -96.5t31.5 -145v-19l-15 -15h-435v96h398l-61 -23q-1 42 -19.5 72.5t-48 47t-66.5 16.5q-40 0 -73 -18.5t-51 -51t-18 -75.5v-40q0 -41 19.5 -74.5t52.5 -53.5t73 -20
q38 0 69.5 20.5t49.5 55.5h12l93 -40q-30 -65 -88.5 -101t-135.5 -36zM353 575h-113l-96 137v8h143z" />
    <glyph glyph-name="emacron" unicode="&#x113;" horiz-adv-x="577" 
d="M297 -15q-77 0 -135.5 34t-91.5 94t-33 140q0 79 32.5 139.5t90 94t132.5 33.5t130.5 -34.5t87 -96.5t31.5 -145v-19l-15 -15h-435v96h398l-61 -23q-1 42 -19.5 72.5t-48 47t-66.5 16.5q-40 0 -73 -18.5t-51 -51t-18 -75.5v-40q0 -41 19.5 -74.5t52.5 -53.5t73 -20
q38 0 69.5 20.5t49.5 55.5h12l93 -40q-30 -65 -88.5 -101t-135.5 -36zM126 592v110h333v-110h-333z" />
    <glyph glyph-name="eogonek" unicode="&#x119;" horiz-adv-x="577" 
d="M297 -15q-77 0 -135.5 34t-91.5 94t-33 140q0 79 32.5 139.5t90 94t132.5 33.5t130.5 -34.5t87 -96.5t31.5 -145v-19l-15 -15h-435v96h398l-61 -23q-1 42 -19.5 72.5t-48 47t-66.5 16.5q-40 0 -73 -18.5t-51 -51t-18 -75.5v-40q0 -41 19.5 -74.5t52.5 -53.5t73 -20
q38 0 69.5 20.5t49.5 55.5h12l93 -40q-30 -65 -88.5 -101t-135.5 -36zM334 -220q-54 0 -87 31.5t-33 82.5q0 46 27 83.5t80 69.5l66 -47q-38 -19 -59.5 -41t-21.5 -44q0 -18 13.5 -31.5t35.5 -13.5q13 0 27 4l5 -11v-78q-15 -2 -27.5 -3.5t-25.5 -1.5z" />
    <glyph glyph-name="f" unicode="f" horiz-adv-x="352" 
d="M108 0v548q0 79 44 125.5t118 46.5h65v-93l-5 -11h-33q-39 0 -56.5 -17t-17.5 -57v-542h-115zM22 402v103h313v-103h-313z" />
    <glyph glyph-name="g" unicode="g" horiz-adv-x="527" 
d="M241 -200q-102 0 -160 39.5t-58 109.5q0 45 24.5 79t70.5 53l56 -48q-21 -9 -32.5 -27t-11.5 -39q0 -29 22.5 -51t73.5 -22h70q54 0 81 15.5t27 45.5q0 24 -19.5 37t-53.5 13h-125q-44 0 -78.5 15t-54.5 41.5t-20 60.5q0 38 23.5 67.5t67.5 47.5l62 -50q-24 -2 -37 -16.5
t-13 -30.5q0 -20 16 -31.5t49 -11.5h122q76 0 121.5 -38t45.5 -101q0 -72 -58 -115t-157 -43h-54zM271 161q-62 0 -109 23t-73.5 63.5t-26.5 93.5t26.5 93t73.5 63t109 23t108.5 -23t73 -63t26.5 -93t-26.5 -93.5t-73 -63.5t-108.5 -23zM271 253q45 0 73 24.5t28 63.5
t-28 63t-73 24q-46 0 -73.5 -24t-27.5 -63t27.5 -63.5t73.5 -24.5zM417 431l-72 35q0 44 17 78t46.5 53.5t66.5 19.5q11 0 21 -0.5t15 -2.5v-97l-5 -10q-10 3 -25 3q-32 0 -48 -22t-16 -57z" />
    <glyph glyph-name="gbreve" unicode="&#x11f;" horiz-adv-x="527" 
d="M241 -200q-102 0 -160 39.5t-58 109.5q0 45 24.5 79t70.5 53l56 -48q-21 -9 -32.5 -27t-11.5 -39q0 -29 22.5 -51t73.5 -22h70q54 0 81 15.5t27 45.5q0 24 -19.5 37t-53.5 13h-125q-44 0 -78.5 15t-54.5 41.5t-20 60.5q0 38 23.5 67.5t67.5 47.5l62 -50q-24 -2 -37 -16.5
t-13 -30.5q0 -20 16 -31.5t49 -11.5h122q76 0 121.5 -38t45.5 -101q0 -72 -58 -115t-157 -43h-54zM271 161q-62 0 -109 23t-73.5 63.5t-26.5 93.5t26.5 93t73.5 63t109 23t108.5 -23t73 -63t26.5 -93t-26.5 -93.5t-73 -63.5t-108.5 -23zM271 253q45 0 73 24.5t28 63.5
t-28 63t-73 24q-46 0 -73.5 -24t-27.5 -63t27.5 -63.5t73.5 -24.5zM417 431l-72 35q0 44 17 78t46.5 53.5t66.5 19.5q11 0 21 -0.5t15 -2.5v-97l-5 -10q-10 3 -25 3q-32 0 -48 -22t-16 -57zM266 573q-43 0 -77.5 18.5t-54.5 52t-20 76.5h99q0 -21 14 -39.5t39 -18.5
q26 0 39 18.5t14 39.5h99q0 -43 -20 -76.5t-54.5 -52t-77.5 -18.5z" />
    <glyph glyph-name="uni0123" unicode="&#x123;" horiz-adv-x="527" 
d="M241 -200q-102 0 -160 39.5t-58 109.5q0 45 24.5 79t70.5 53l56 -48q-21 -9 -32.5 -27t-11.5 -39q0 -29 22.5 -51t73.5 -22h70q54 0 81 15.5t27 45.5q0 24 -19.5 37t-53.5 13h-125q-44 0 -78.5 15t-54.5 41.5t-20 60.5q0 38 23.5 67.5t67.5 47.5l62 -50q-24 -2 -37 -16.5
t-13 -30.5q0 -20 16 -31.5t49 -11.5h122q76 0 121.5 -38t45.5 -101q0 -72 -58 -115t-157 -43h-54zM271 161q-62 0 -109 23t-73.5 63.5t-26.5 93.5t26.5 93t73.5 63t109 23t108.5 -23t73 -63t26.5 -93t-26.5 -93.5t-73 -63.5t-108.5 -23zM271 253q45 0 73 24.5t28 63.5
t-28 63t-73 24q-46 0 -73.5 -24t-27.5 -63t27.5 -63.5t73.5 -24.5zM417 431l-72 35q0 44 17 78t46.5 53.5t66.5 19.5q11 0 21 -0.5t15 -2.5v-97l-5 -10q-10 3 -25 3q-32 0 -48 -22t-16 -57zM319 787v-62q-25 -5 -39 -20.5t-14 -35.5q0 -17 5 -29l-42 -22q-3 12 -3 24
q0 17 9 26t20 11.5t15 2.5q26 0 43.5 -17.5t17.5 -41.5q0 -25 -17 -43t-44 -18q-32 0 -51 28.5t-19 63.5q0 25 11.5 53t38 51t69.5 29z" />
    <glyph glyph-name="gdotaccent" unicode="&#x121;" horiz-adv-x="527" 
d="M241 -200q-102 0 -160 39.5t-58 109.5q0 45 24.5 79t70.5 53l56 -48q-21 -9 -32.5 -27t-11.5 -39q0 -29 22.5 -51t73.5 -22h70q54 0 81 15.5t27 45.5q0 24 -19.5 37t-53.5 13h-125q-44 0 -78.5 15t-54.5 41.5t-20 60.5q0 38 23.5 67.5t67.5 47.5l62 -50q-24 -2 -37 -16.5
t-13 -30.5q0 -20 16 -31.5t49 -11.5h122q76 0 121.5 -38t45.5 -101q0 -72 -58 -115t-157 -43h-54zM271 161q-62 0 -109 23t-73.5 63.5t-26.5 93.5t26.5 93t73.5 63t109 23t108.5 -23t73 -63t26.5 -93t-26.5 -93.5t-73 -63.5t-108.5 -23zM271 253q45 0 73 24.5t28 63.5
t-28 63t-73 24q-46 0 -73.5 -24t-27.5 -63t27.5 -63.5t73.5 -24.5zM417 431l-72 35q0 44 17 78t46.5 53.5t66.5 19.5q11 0 21 -0.5t15 -2.5v-97l-5 -10q-10 3 -25 3q-32 0 -48 -22t-16 -57zM265 581q-30 0 -51 21t-21 52q0 29 21 50.5t52 21.5q29 0 50.5 -21.5t21.5 -51.5
t-21.5 -51t-51.5 -21z" />
    <glyph glyph-name="h" unicode="h" horiz-adv-x="601" 
d="M68 0v720l112 14l3 -8v-350l-36 2q16 44 46 75.5t70 49t87 17.5q54 0 97.5 -23.5t69 -69t25.5 -113.5v-314h-115v279q0 48 -13 78t-37.5 44t-56.5 14q-30 0 -61.5 -15t-53.5 -50t-22 -95v-255h-115z" />
    <glyph glyph-name="hbar" unicode="&#x127;" horiz-adv-x="601" 
d="M68 0v720l112 14l3 -8v-350l-36 2q16 44 46 75.5t70 49t87 17.5q54 0 97.5 -23.5t69 -69t25.5 -113.5v-314h-115v279q0 48 -13 78t-37.5 44t-56.5 14q-30 0 -61.5 -15t-53.5 -50t-22 -95v-255h-115zM1 550v111h326v-111h-326z" />
    <glyph glyph-name="i" unicode="i" horiz-adv-x="242" 
d="M63 0v505h115v-505h-115zM121 581q-30 0 -51 21t-21 52q0 29 21 50.5t52 21.5q29 0 50.5 -21.5t21.5 -51.5t-21.5 -51t-51.5 -21z" />
    <glyph glyph-name="dotlessi" unicode="&#x131;" horiz-adv-x="242" 
d="M63 0v505h115v-505h-115z" />
    <glyph glyph-name="iacute" unicode="&#xed;" horiz-adv-x="242" 
d="M63 0v505h115v-505h-115zM65 575l66 145h143v-8l-96 -137h-113z" />
    <glyph glyph-name="icircumflex" unicode="&#xee;" horiz-adv-x="242" 
d="M63 0v505h115v-505h-115zM-38 575l89 145h139l90 -145h-103l-57 72l-56 -72h-102z" />
    <glyph glyph-name="idieresis" unicode="&#xef;" horiz-adv-x="242" 
d="M63 0v505h115v-505h-115zM206 581q-30 0 -51 21t-21 52q0 29 21 50.5t52 21.5q29 0 50.5 -21.5t21.5 -51.5t-21.5 -51t-51.5 -21zM35 581q-30 0 -51 21t-21 52q0 29 21 50.5t52 21.5q29 0 50.5 -21.5t21.5 -51.5t-21.5 -51t-51.5 -21z" />
    <glyph glyph-name="igrave" unicode="&#xec;" horiz-adv-x="242" 
d="M63 0v505h115v-505h-115zM174 575h-113l-96 137v8h143z" />
    <glyph glyph-name="imacron" unicode="&#x12b;" horiz-adv-x="242" 
d="M63 0v505h115v-505h-115zM-45 592v110h333v-110h-333z" />
    <glyph glyph-name="iogonek" unicode="&#x12f;" horiz-adv-x="242" 
d="M63 0v505h115v-505h-115zM121 581q-30 0 -51 21t-21 52q0 29 21 50.5t52 21.5q29 0 50.5 -21.5t21.5 -51.5t-21.5 -51t-51.5 -21zM125 -220q-54 0 -87 31.5t-33 82.5q0 46 27 83.5t80 69.5l66 -47q-38 -19 -59.5 -41t-21.5 -44q0 -18 13.5 -31.5t35.5 -13.5q13 0 27 4
l5 -11v-78q-15 -2 -27.5 -3.5t-25.5 -1.5z" />
    <glyph glyph-name="j" unicode="j" horiz-adv-x="242" 
d="M-52 -200v93l5 11h29q43 0 62 19t19 62v520h115v-526q0 -82 -46 -130.5t-123 -48.5h-61zM121 581q-30 0 -51 21t-21 52q0 29 21 50.5t52 21.5q29 0 50.5 -21.5t21.5 -51.5t-21.5 -51t-51.5 -21z" />
    <glyph glyph-name="uni0237" unicode="&#x237;" horiz-adv-x="242" 
d="M-52 -200v93l5 11h29q43 0 62 19t19 62v520h115v-526q0 -82 -46 -130.5t-123 -48.5h-61z" />
    <glyph glyph-name="k" unicode="k" horiz-adv-x="523" 
d="M136 88v153l256 264h142v-8zM68 0v720l112 14l3 -8v-726h-115zM408 0l-174 254l80 72l222 -318v-8h-128z" />
    <glyph glyph-name="uni0137" unicode="&#x137;" horiz-adv-x="523" 
d="M136 88v153l256 264h142v-8zM68 0v720l112 14l3 -8v-726h-115zM408 0l-174 254l80 72l222 -318v-8h-128zM240 -258v61q25 6 39 21t14 35q0 18 -5 30l42 21q3 -12 3 -23q0 -18 -9 -26.5t-20 -11.5t-15 -3q-26 0 -43.5 17.5t-17.5 41.5q0 26 17 43.5t44 17.5q32 0 51 -28
t19 -63q0 -25 -11.5 -53.5t-38 -51t-69.5 -28.5z" />
    <glyph glyph-name="l" unicode="l" horiz-adv-x="252" 
d="M68 0v720l112 14l3 -8v-726h-115z" />
    <glyph glyph-name="lacute" unicode="&#x13a;" horiz-adv-x="252" 
d="M68 0v720l112 14l3 -8v-726h-115zM69 765l66 145h143v-8l-96 -137h-113z" />
    <glyph glyph-name="lcaron" unicode="&#x13e;" horiz-adv-x="252" 
d="M68 0v720l112 14l3 -8v-726h-115zM225 541l20 184h108l-41 -184h-87z" />
    <glyph glyph-name="uni013C" unicode="&#x13c;" horiz-adv-x="252" 
d="M68 0v720l112 14l3 -8v-726h-115zM73 -258v61q25 6 39 21t14 35q0 18 -5 30l42 21q3 -12 3 -23q0 -18 -9 -26.5t-20 -11.5t-15 -3q-26 0 -43.5 17.5t-17.5 41.5q0 26 17 43.5t44 17.5q32 0 51 -28t19 -63q0 -25 -11.5 -53.5t-38 -51t-69.5 -28.5z" />
    <glyph glyph-name="ldot" unicode="&#x140;" horiz-adv-x="330" 
d="M68 0v720l112 14l3 -8v-726h-115zM291 292q-30 0 -51 21t-21 52q0 29 21 50.5t52 21.5q29 0 50.5 -21.5t21.5 -51.5t-21.5 -51t-51.5 -21z" />
    <glyph glyph-name="lslash" unicode="&#x142;" horiz-adv-x="282" 
d="M12 210v120l257 160v-120zM83 0v720l112 14l3 -8v-726h-115z" />
    <glyph glyph-name="m" unicode="m" horiz-adv-x="935" 
d="M63 0v505h108v-123l-19 19q17 38 44 64t63 40.5t81 14.5q63 0 112 -35t66 -103l-37 2q17 43 48 73t72.5 46.5t87.5 16.5q51 0 93.5 -23.5t68 -69t25.5 -113.5v-314h-115v286q0 45 -13 73.5t-36 42t-53 13.5q-28 0 -58.5 -15t-52 -49.5t-21.5 -95.5v-255h-115v286
q0 45 -13 73.5t-36 42t-53 13.5q-28 0 -58.5 -15t-52 -50t-21.5 -95v-255h-115z" />
    <glyph glyph-name="n" unicode="n" horiz-adv-x="596" 
d="M63 0v505h108v-129l-29 2q16 44 46 75.5t70 49t87 17.5q54 0 97.5 -23.5t69 -69t25.5 -113.5v-314h-115v279q0 48 -13 78t-37.5 44t-56.5 14q-30 0 -61.5 -15t-53.5 -50t-22 -95v-255h-115z" />
    <glyph glyph-name="nacute" unicode="&#x144;" horiz-adv-x="596" 
d="M63 0v505h108v-129l-29 2q16 44 46 75.5t70 49t87 17.5q54 0 97.5 -23.5t69 -69t25.5 -113.5v-314h-115v279q0 48 -13 78t-37.5 44t-56.5 14q-30 0 -61.5 -15t-53.5 -50t-22 -95v-255h-115zM234 575l66 145h143v-8l-96 -137h-113z" />
    <glyph glyph-name="ncaron" unicode="&#x148;" horiz-adv-x="596" 
d="M63 0v505h108v-129l-29 2q16 44 46 75.5t70 49t87 17.5q54 0 97.5 -23.5t69 -69t25.5 -113.5v-314h-115v279q0 48 -13 78t-37.5 44t-56.5 14q-30 0 -61.5 -15t-53.5 -50t-22 -95v-255h-115zM136 707h102l56 -72l57 72h103l-90 -145h-139z" />
    <glyph glyph-name="uni0146" unicode="&#x146;" horiz-adv-x="596" 
d="M63 0v505h108v-129l-29 2q16 44 46 75.5t70 49t87 17.5q54 0 97.5 -23.5t69 -69t25.5 -113.5v-314h-115v279q0 48 -13 78t-37.5 44t-56.5 14q-30 0 -61.5 -15t-53.5 -50t-22 -95v-255h-115zM242 -258v61q25 6 39 21t14 35q0 18 -5 30l42 21q3 -12 3 -23q0 -18 -9 -26.5
t-20 -11.5t-15 -3q-26 0 -43.5 17.5t-17.5 41.5q0 26 17 43.5t44 17.5q32 0 51 -28t19 -63q0 -25 -11.5 -53.5t-38 -51t-69.5 -28.5z" />
    <glyph glyph-name="ntilde" unicode="&#xf1;" horiz-adv-x="596" 
d="M63 0v505h108v-129l-29 2q16 44 46 75.5t70 49t87 17.5q54 0 97.5 -23.5t69 -69t25.5 -113.5v-314h-115v279q0 48 -13 78t-37.5 44t-56.5 14q-30 0 -61.5 -15t-53.5 -50t-22 -95v-255h-115zM370 573q-23 0 -41.5 8t-34.5 18.5t-31.5 18.5t-30.5 8q-18 0 -29 -14.5
t-11 -37.5h-93q0 66 33.5 107t88.5 41q23 0 41.5 -8t35 -18.5t31.5 -18.5t30 -8q19 0 29.5 14.5t10.5 37.5h93q0 -65 -33.5 -106.5t-88.5 -41.5z" />
    <glyph glyph-name="eng" unicode="&#x14b;" horiz-adv-x="596" 
d="M307 -200v93l5 11h29q43 0 62 19t19 62v294q0 48 -13 78t-37.5 44t-56.5 14q-30 0 -61.5 -15t-53.5 -50t-22 -95v-255h-115v505h108v-129l-29 2q16 44 46 75.5t70 49t87 17.5q54 0 97.5 -23.5t69 -69t25.5 -113.5v-335q0 -82 -46 -130.5t-123 -48.5h-61z" />
    <glyph glyph-name="o" unicode="o" horiz-adv-x="591" 
d="M295 -15q-76 0 -134 34t-91 94.5t-33 139.5q0 78 33 138.5t91 94.5t134 34q77 0 135 -34t91 -94.5t33 -138.5q0 -79 -33 -139.5t-91 -94.5t-135 -34zM295 89q44 0 76 20t50 57t18 86q0 51 -18 87.5t-50 56.5t-76 20q-43 0 -75 -20t-50 -56.5t-18 -86.5t18 -87t50 -57
t75 -20z" />
    <glyph glyph-name="oacute" unicode="&#xf3;" horiz-adv-x="591" 
d="M295 -15q-76 0 -134 34t-91 94.5t-33 139.5q0 78 33 138.5t91 94.5t134 34q77 0 135 -34t91 -94.5t33 -138.5q0 -79 -33 -139.5t-91 -94.5t-135 -34zM295 89q44 0 76 20t50 57t18 86q0 51 -18 87.5t-50 56.5t-76 20q-43 0 -75 -20t-50 -56.5t-18 -86.5t18 -87t50 -57
t75 -20zM234 575l66 145h143v-8l-96 -137h-113z" />
    <glyph glyph-name="ocircumflex" unicode="&#xf4;" horiz-adv-x="591" 
d="M295 -15q-76 0 -134 34t-91 94.5t-33 139.5q0 78 33 138.5t91 94.5t134 34q77 0 135 -34t91 -94.5t33 -138.5q0 -79 -33 -139.5t-91 -94.5t-135 -34zM295 89q44 0 76 20t50 57t18 86q0 51 -18 87.5t-50 56.5t-76 20q-43 0 -75 -20t-50 -56.5t-18 -86.5t18 -87t50 -57
t75 -20zM136 575l89 145h139l90 -145h-103l-57 72l-56 -72h-102z" />
    <glyph glyph-name="odieresis" unicode="&#xf6;" horiz-adv-x="591" 
d="M295 -15q-76 0 -134 34t-91 94.5t-33 139.5q0 78 33 138.5t91 94.5t134 34q77 0 135 -34t91 -94.5t33 -138.5q0 -79 -33 -139.5t-91 -94.5t-135 -34zM295 89q44 0 76 20t50 57t18 86q0 51 -18 87.5t-50 56.5t-76 20q-43 0 -75 -20t-50 -56.5t-18 -86.5t18 -87t50 -57
t75 -20zM396 581q-30 0 -51 21t-21 52q0 29 21 50.5t52 21.5q29 0 50.5 -21.5t21.5 -51.5t-21.5 -51t-51.5 -21zM194 581q-30 0 -51 21t-21 52q0 29 21 50.5t52 21.5q29 0 50.5 -21.5t21.5 -51.5t-21.5 -51t-51.5 -21z" />
    <glyph glyph-name="ograve" unicode="&#xf2;" horiz-adv-x="591" 
d="M295 -15q-76 0 -134 34t-91 94.5t-33 139.5q0 78 33 138.5t91 94.5t134 34q77 0 135 -34t91 -94.5t33 -138.5q0 -79 -33 -139.5t-91 -94.5t-135 -34zM295 89q44 0 76 20t50 57t18 86q0 51 -18 87.5t-50 56.5t-76 20q-43 0 -75 -20t-50 -56.5t-18 -86.5t18 -87t50 -57
t75 -20zM356 575h-113l-96 137v8h143z" />
    <glyph glyph-name="ohungarumlaut" unicode="&#x151;" horiz-adv-x="591" 
d="M295 -15q-76 0 -134 34t-91 94.5t-33 139.5q0 78 33 138.5t91 94.5t134 34q77 0 135 -34t91 -94.5t33 -138.5q0 -79 -33 -139.5t-91 -94.5t-135 -34zM295 89q44 0 76 20t50 57t18 86q0 51 -18 87.5t-50 56.5t-76 20q-43 0 -75 -20t-50 -56.5t-18 -86.5t18 -87t50 -57
t75 -20zM311 575l54 145h130v-8l-84 -137h-100zM149 575l54 145h130v-8l-84 -137h-100z" />
    <glyph glyph-name="omacron" unicode="&#x14d;" horiz-adv-x="591" 
d="M295 -15q-76 0 -134 34t-91 94.5t-33 139.5q0 78 33 138.5t91 94.5t134 34q77 0 135 -34t91 -94.5t33 -138.5q0 -79 -33 -139.5t-91 -94.5t-135 -34zM295 89q44 0 76 20t50 57t18 86q0 51 -18 87.5t-50 56.5t-76 20q-43 0 -75 -20t-50 -56.5t-18 -86.5t18 -87t50 -57
t75 -20zM129 592v110h333v-110h-333z" />
    <glyph glyph-name="oslash" unicode="&#xf8;" horiz-adv-x="591" 
d="M153 -89l-87 49l366 634l87 -50zM295 -15q-76 0 -134 34t-91 94.5t-33 139.5q0 78 33 138.5t91 94.5t134 34q77 0 135 -34t91 -94.5t33 -138.5q0 -79 -33 -139.5t-91 -94.5t-135 -34zM295 89q44 0 76 20t50 57t18 86q0 51 -18 87.5t-50 56.5t-76 20q-43 0 -75 -20
t-50 -56.5t-18 -86.5t18 -87t50 -57t75 -20z" />
    <glyph glyph-name="otilde" unicode="&#xf5;" horiz-adv-x="591" 
d="M295 -15q-76 0 -134 34t-91 94.5t-33 139.5q0 78 33 138.5t91 94.5t134 34q77 0 135 -34t91 -94.5t33 -138.5q0 -79 -33 -139.5t-91 -94.5t-135 -34zM295 89q44 0 76 20t50 57t18 86q0 51 -18 87.5t-50 56.5t-76 20q-43 0 -75 -20t-50 -56.5t-18 -86.5t18 -87t50 -57
t75 -20zM370 573q-23 0 -41.5 8t-34.5 18.5t-31.5 18.5t-30.5 8q-18 0 -29 -14.5t-11 -37.5h-93q0 66 33.5 107t88.5 41q23 0 41.5 -8t35 -18.5t31.5 -18.5t30 -8q19 0 29.5 14.5t10.5 37.5h93q0 -65 -33.5 -106.5t-88.5 -41.5z" />
    <glyph glyph-name="oe" unicode="&#x153;" horiz-adv-x="980" 
d="M295 -15q-76 0 -134 34t-91 94.5t-33 139.5q0 78 33 138.5t91 94.5t134 34q77 0 135 -34t91 -94.5t33 -138.5q0 -79 -33 -139.5t-91 -94.5t-135 -34zM295 89q44 0 76 20t50 57t18 86q0 51 -18 87.5t-50 56.5t-76 20q-43 0 -75 -20t-50 -56.5t-18 -86.5t18 -87t50 -57
t75 -20zM699 -15q-77 0 -135.5 34t-91.5 94t-33 140q0 79 32.5 139.5t90 94t132.5 33.5t130.5 -34.5t87 -96.5t31.5 -145v-19l-15 -15h-435v96h398l-61 -23q-1 42 -19.5 72.5t-48 47t-66.5 16.5q-40 0 -73 -18.5t-51 -51t-18 -75.5v-40q0 -41 19.5 -74.5t52.5 -53.5t73 -20
q38 0 69.5 20.5t49.5 55.5h12l93 -40q-30 -65 -88.5 -101t-135.5 -36z" />
    <glyph glyph-name="p" unicode="p" horiz-adv-x="619" 
d="M340 -15q-56 0 -100 23t-73.5 60t-41.5 79v212q12 43 41.5 79.5t73.5 59t100 22.5q69 0 123.5 -34.5t87 -94.5t32.5 -138t-32.5 -138.5t-87 -95t-123.5 -34.5zM63 -200v705h108v-156l-24 -96l31 -97v-356h-115zM323 90q43 0 75.5 20.5t51 57.5t18.5 85t-18.5 84.5
t-51 57.5t-75.5 21t-76.5 -21t-52 -57.5t-18.5 -84.5t18.5 -85t52 -57.5t76.5 -20.5z" />
    <glyph glyph-name="thorn" unicode="&#xfe;" horiz-adv-x="619" 
d="M340 -15q-56 0 -100 23t-73.5 60t-41.5 79v212q12 43 41.5 79.5t73.5 59t100 22.5q69 0 123.5 -34.5t87 -94.5t32.5 -138t-32.5 -138.5t-87 -95t-123.5 -34.5zM63 -200v920l112 14l3 -8v-341l-31 -132l31 -97v-356h-115zM323 90q43 0 75.5 20.5t51 57.5t18.5 85
t-18.5 84.5t-51 57.5t-75.5 21t-76.5 -21t-52 -57.5t-18.5 -84.5t18.5 -85t52 -57.5t76.5 -20.5z" />
    <glyph glyph-name="q" unicode="q" horiz-adv-x="619" 
d="M279 -15q-68 0 -123 34.5t-87 95t-32 138.5t32 138t87 94.5t123 34.5q56 0 100.5 -22.5t74 -59t41.5 -79.5v-212q-12 -42 -41.5 -79t-74 -60t-100.5 -23zM556 -200h-115v356l31 97l-24 96v156h108v-705zM296 90q44 0 77 20.5t52 57.5t19 85t-19 84.5t-52 57.5t-77 21
q-42 0 -75 -21t-51 -57.5t-18 -84.5t18 -85t51 -57.5t75 -20.5z" />
    <glyph glyph-name="r" unicode="r" horiz-adv-x="379" 
d="M63 0v505h108v-129l-29 2q21 59 70 93t112 34h49v-103h-66q-39 0 -68 -17.5t-45 -49.5t-16 -76v-259h-115z" />
    <glyph glyph-name="racute" unicode="&#x155;" horiz-adv-x="379" 
d="M63 0v505h108v-129l-29 2q21 59 70 93t112 34h49v-103h-66q-39 0 -68 -17.5t-45 -49.5t-16 -76v-259h-115zM135 575l66 145h143v-8l-96 -137h-113z" />
    <glyph glyph-name="rcaron" unicode="&#x159;" horiz-adv-x="379" 
d="M63 0v505h108v-129l-29 2q21 59 70 93t112 34h49v-103h-66q-39 0 -68 -17.5t-45 -49.5t-16 -76v-259h-115zM37 707h102l56 -72l57 72h103l-90 -145h-139z" />
    <glyph glyph-name="uni0157" unicode="&#x157;" horiz-adv-x="379" 
d="M63 0v505h108v-129l-29 2q21 59 70 93t112 34h49v-103h-66q-39 0 -68 -17.5t-45 -49.5t-16 -76v-259h-115zM67 -258v61q25 6 39 21t14 35q0 18 -5 30l42 21q3 -12 3 -23q0 -18 -9 -26.5t-20 -11.5t-15 -3q-26 0 -43.5 17.5t-17.5 41.5q0 26 17 43.5t44 17.5q32 0 51 -28
t19 -63q0 -25 -11.5 -53.5t-38 -51t-69.5 -28.5z" />
    <glyph glyph-name="s" unicode="s" horiz-adv-x="486" 
d="M244 -15q-82 0 -140 39t-77 107l105 26l11 -2q9 -32 38.5 -50.5t68.5 -18.5q38 0 64.5 16.5t26.5 42.5q0 22 -15.5 35.5t-47.5 20.5l-95 21q-70 16 -106.5 53.5t-36.5 90.5q0 46 25.5 80.5t70.5 54t103 19.5q79 0 134 -39t73 -109l-100 -21l-11 2q-8 30 -36.5 48
t-64.5 18q-34 0 -57.5 -13.5t-23.5 -36.5q0 -17 14 -30.5t44 -19.5l95 -22q74 -17 111.5 -51.5t37.5 -93.5q0 -51 -27.5 -88.5t-75 -58t-108.5 -20.5z" />
    <glyph glyph-name="sacute" unicode="&#x15b;" horiz-adv-x="486" 
d="M244 -15q-82 0 -140 39t-77 107l105 26l11 -2q9 -32 38.5 -50.5t68.5 -18.5q38 0 64.5 16.5t26.5 42.5q0 22 -15.5 35.5t-47.5 20.5l-95 21q-70 16 -106.5 53.5t-36.5 90.5q0 46 25.5 80.5t70.5 54t103 19.5q79 0 134 -39t73 -109l-100 -21l-11 2q-8 30 -36.5 48
t-64.5 18q-34 0 -57.5 -13.5t-23.5 -36.5q0 -17 14 -30.5t44 -19.5l95 -22q74 -17 111.5 -51.5t37.5 -93.5q0 -51 -27.5 -88.5t-75 -58t-108.5 -20.5zM183 575l66 145h143v-8l-96 -137h-113z" />
    <glyph glyph-name="scaron" unicode="&#x161;" horiz-adv-x="486" 
d="M244 -15q-82 0 -140 39t-77 107l105 26l11 -2q9 -32 38.5 -50.5t68.5 -18.5q38 0 64.5 16.5t26.5 42.5q0 22 -15.5 35.5t-47.5 20.5l-95 21q-70 16 -106.5 53.5t-36.5 90.5q0 46 25.5 80.5t70.5 54t103 19.5q79 0 134 -39t73 -109l-100 -21l-11 2q-8 30 -36.5 48
t-64.5 18q-34 0 -57.5 -13.5t-23.5 -36.5q0 -17 14 -30.5t44 -19.5l95 -22q74 -17 111.5 -51.5t37.5 -93.5q0 -51 -27.5 -88.5t-75 -58t-108.5 -20.5zM85 707h102l56 -72l57 72h103l-90 -145h-139z" />
    <glyph glyph-name="scedilla" unicode="&#x15f;" horiz-adv-x="486" 
d="M244 -15q-82 0 -140 39t-77 107l105 26l11 -2q9 -32 38.5 -50.5t68.5 -18.5q38 0 64.5 16.5t26.5 42.5q0 22 -15.5 35.5t-47.5 20.5l-95 21q-70 16 -106.5 53.5t-36.5 90.5q0 46 25.5 80.5t70.5 54t103 19.5q79 0 134 -39t73 -109l-100 -21l-11 2q-8 30 -36.5 48
t-64.5 18q-34 0 -57.5 -13.5t-23.5 -36.5q0 -17 14 -30.5t44 -19.5l95 -22q74 -17 111.5 -51.5t37.5 -93.5q0 -51 -27.5 -88.5t-75 -58t-108.5 -20.5zM230 -220q-14 0 -30 4t-35 15l23 65l9 2q8 -5 15.5 -7t13.5 -2q13 0 20 6.5t7 16.5q0 8 -7 15.5t-20 7.5q-15 0 -23 -8
l-38 48l49 70h88l-67 -90l-15 46q5 1 10 1.5t11 0.5q39 0 65.5 -26t26.5 -64q0 -47 -30.5 -74t-72.5 -27z" />
    <glyph glyph-name="uni0219" unicode="&#x219;" horiz-adv-x="486" 
d="M244 -15q-82 0 -140 39t-77 107l105 26l11 -2q9 -32 38.5 -50.5t68.5 -18.5q38 0 64.5 16.5t26.5 42.5q0 22 -15.5 35.5t-47.5 20.5l-95 21q-70 16 -106.5 53.5t-36.5 90.5q0 46 25.5 80.5t70.5 54t103 19.5q79 0 134 -39t73 -109l-100 -21l-11 2q-8 30 -36.5 48
t-64.5 18q-34 0 -57.5 -13.5t-23.5 -36.5q0 -17 14 -30.5t44 -19.5l95 -22q74 -17 111.5 -51.5t37.5 -93.5q0 -51 -27.5 -88.5t-75 -58t-108.5 -20.5zM189 -258v61q25 6 39 21t14 35q0 18 -5 30l42 21q3 -12 3 -23q0 -18 -9 -26.5t-20 -11.5t-15 -3q-26 0 -43.5 17.5
t-17.5 41.5q0 26 17 43.5t44 17.5q32 0 51 -28t19 -63q0 -25 -11.5 -53.5t-38 -51t-69.5 -28.5z" />
    <glyph glyph-name="germandbls" unicode="&#xdf;" horiz-adv-x="557" 
d="M58 0v466q0 82 31 137.5t84.5 83.5t118.5 28q56 0 104 -24t77.5 -67t29.5 -100q0 -69 -41 -113t-107 -52v21q54 0 92.5 -23t60 -62t21.5 -88q0 -58 -28 -105t-80 -74.5t-125 -27.5h-59v110h65q34 0 59 13t38.5 36.5t13.5 55.5q0 48 -30.5 74t-84.5 26h-61v101h59
q24 0 45 11.5t33.5 32.5t12.5 51q0 29 -14 50.5t-36.5 33.5t-47.5 12q-29 0 -55.5 -14t-43.5 -47.5t-17 -91.5v-454h-115z" />
    <glyph glyph-name="t" unicode="t" horiz-adv-x="402" 
d="M270 0q-74 0 -118 46.5t-44 125.5v464h115v-452q0 -40 20.5 -60t59.5 -20h52l5 -11v-93h-90zM22 402v103h338v-103h-338z" />
    <glyph glyph-name="tcaron" unicode="&#x165;" horiz-adv-x="402" 
d="M270 0q-74 0 -118 46.5t-44 125.5v464h115v-452q0 -40 20.5 -60t59.5 -20h52l5 -11v-93h-90zM22 402v103h338v-103h-338zM248 541l20 184h108l-41 -184h-87z" />
    <glyph glyph-name="uni021B" unicode="&#x21b;" horiz-adv-x="402" 
d="M270 0q-74 0 -118 46.5t-44 125.5v464h115v-452q0 -40 20.5 -60t59.5 -20h52l5 -11v-93h-90zM22 402v103h338v-103h-338zM190 -258v61q25 6 39 21t14 35q0 18 -5 30l42 21q3 -12 3 -23q0 -18 -9 -26.5t-20 -11.5t-15 -3q-26 0 -43.5 17.5t-17.5 41.5q0 26 17 43.5
t44 17.5q32 0 51 -28t19 -63q0 -25 -11.5 -53.5t-38 -51t-69.5 -28.5z" />
    <glyph glyph-name="u" unicode="u" horiz-adv-x="596" 
d="M532 505v-505h-107v129l29 -2q-16 -44 -46 -75.5t-70 -49t-87 -17.5q-54 0 -97.5 23.5t-69.5 69.5t-26 114v313h115v-279q0 -47 13.5 -77t38 -44.5t56.5 -14.5q30 0 61.5 15.5t53 50.5t21.5 95v254h115z" />
    <glyph glyph-name="uacute" unicode="&#xfa;" horiz-adv-x="596" 
d="M532 505v-505h-107v129l29 -2q-16 -44 -46 -75.5t-70 -49t-87 -17.5q-54 0 -97.5 23.5t-69.5 69.5t-26 114v313h115v-279q0 -47 13.5 -77t38 -44.5t56.5 -14.5q30 0 61.5 15.5t53 50.5t21.5 95v254h115zM234 575l66 145h143v-8l-96 -137h-113z" />
    <glyph glyph-name="ubreve" unicode="&#x16d;" horiz-adv-x="596" 
d="M532 505v-505h-107v129l29 -2q-16 -44 -46 -75.5t-70 -49t-87 -17.5q-54 0 -97.5 23.5t-69.5 69.5t-26 114v313h115v-279q0 -47 13.5 -77t38 -44.5t56.5 -14.5q30 0 61.5 15.5t53 50.5t21.5 95v254h115zM296 573q-43 0 -77.5 18.5t-54.5 52t-20 76.5h99q0 -21 14 -39.5
t39 -18.5q26 0 39 18.5t14 39.5h99q0 -43 -20 -76.5t-54.5 -52t-77.5 -18.5z" />
    <glyph glyph-name="ucircumflex" unicode="&#xfb;" horiz-adv-x="596" 
d="M532 505v-505h-107v129l29 -2q-16 -44 -46 -75.5t-70 -49t-87 -17.5q-54 0 -97.5 23.5t-69.5 69.5t-26 114v313h115v-279q0 -47 13.5 -77t38 -44.5t56.5 -14.5q30 0 61.5 15.5t53 50.5t21.5 95v254h115zM136 575l89 145h139l90 -145h-103l-57 72l-56 -72h-102z" />
    <glyph glyph-name="udieresis" unicode="&#xfc;" horiz-adv-x="596" 
d="M532 505v-505h-107v129l29 -2q-16 -44 -46 -75.5t-70 -49t-87 -17.5q-54 0 -97.5 23.5t-69.5 69.5t-26 114v313h115v-279q0 -47 13.5 -77t38 -44.5t56.5 -14.5q30 0 61.5 15.5t53 50.5t21.5 95v254h115zM397 581q-30 0 -51 21t-21 52q0 29 21 50.5t52 21.5
q29 0 50.5 -21.5t21.5 -51.5t-21.5 -51t-51.5 -21zM194 581q-30 0 -51 21t-21 52q0 29 21 50.5t52 21.5q29 0 50.5 -21.5t21.5 -51.5t-21.5 -51t-51.5 -21z" />
    <glyph glyph-name="ugrave" unicode="&#xf9;" horiz-adv-x="596" 
d="M532 505v-505h-107v129l29 -2q-16 -44 -46 -75.5t-70 -49t-87 -17.5q-54 0 -97.5 23.5t-69.5 69.5t-26 114v313h115v-279q0 -47 13.5 -77t38 -44.5t56.5 -14.5q30 0 61.5 15.5t53 50.5t21.5 95v254h115zM356 575h-113l-96 137v8h143z" />
    <glyph glyph-name="uhungarumlaut" unicode="&#x171;" horiz-adv-x="596" 
d="M532 505v-505h-107v129l29 -2q-16 -44 -46 -75.5t-70 -49t-87 -17.5q-54 0 -97.5 23.5t-69.5 69.5t-26 114v313h115v-279q0 -47 13.5 -77t38 -44.5t56.5 -14.5q30 0 61.5 15.5t53 50.5t21.5 95v254h115zM311 575l54 145h130v-8l-84 -137h-100zM149 575l54 145h130v-8
l-84 -137h-100z" />
    <glyph glyph-name="umacron" unicode="&#x16b;" horiz-adv-x="596" 
d="M532 505v-505h-107v129l29 -2q-16 -44 -46 -75.5t-70 -49t-87 -17.5q-54 0 -97.5 23.5t-69.5 69.5t-26 114v313h115v-279q0 -47 13.5 -77t38 -44.5t56.5 -14.5q30 0 61.5 15.5t53 50.5t21.5 95v254h115zM129 592v110h333v-110h-333z" />
    <glyph glyph-name="uogonek" unicode="&#x173;" horiz-adv-x="596" 
d="M532 505v-505h-107v129l29 -2q-16 -44 -46 -75.5t-70 -49t-87 -17.5q-54 0 -97.5 23.5t-69.5 69.5t-26 114v313h115v-279q0 -47 13.5 -77t38 -44.5t56.5 -14.5q30 0 61.5 15.5t53 50.5t21.5 95v254h115zM479 -220q-54 0 -87 31.5t-33 82.5q0 46 27 83.5t80 69.5l66 -47
q-38 -19 -59.5 -41t-21.5 -44q0 -18 13.5 -31.5t35.5 -13.5q13 0 27 4l5 -11v-78q-15 -2 -27.5 -3.5t-25.5 -1.5z" />
    <glyph glyph-name="uring" unicode="&#x16f;" horiz-adv-x="596" 
d="M532 505v-505h-107v129l29 -2q-16 -44 -46 -75.5t-70 -49t-87 -17.5q-54 0 -97.5 23.5t-69.5 69.5t-26 114v313h115v-279q0 -47 13.5 -77t38 -44.5t56.5 -14.5q30 0 61.5 15.5t53 50.5t21.5 95v254h115zM296 541q-38 0 -68 16.5t-47 46.5t-17 65q0 37 17 66t47 46t68 17
t67 -17t46.5 -46t17.5 -66q0 -35 -17.5 -65t-46.5 -46.5t-67 -16.5zM296 624q19 0 32 13t13 32t-13 32.5t-32 13.5q-20 0 -33 -13.5t-13 -32.5t13 -32t33 -13z" />
    <glyph glyph-name="v" unicode="v" horiz-adv-x="532" 
d="M218 0l11 51l179 454h118v-8l-203 -497h-105zM210 0l-203 497v8h118l178 -454l11 -51h-104z" />
    <glyph glyph-name="w" unicode="w" horiz-adv-x="810" 
d="M179 0l-167 497v8h115l146 -469l18 -36h-112zM179 0l20 36l149 469h114l-13 -8l-158 -497h-112zM519 0l-158 497l-13 8h114l149 -469l20 -36h-112zM519 0l18 36l146 469h115v-8l-167 -497h-112z" />
    <glyph glyph-name="wacute" unicode="&#x1e83;" horiz-adv-x="810" 
d="M179 0l-167 497v8h115l146 -469l18 -36h-112zM179 0l20 36l149 469h114l-13 -8l-158 -497h-112zM519 0l-158 497l-13 8h114l149 -469l20 -36h-112zM519 0l18 36l146 469h115v-8l-167 -497h-112zM350 575l66 145h143v-8l-96 -137h-113z" />
    <glyph glyph-name="wcircumflex" unicode="&#x175;" horiz-adv-x="810" 
d="M179 0l-167 497v8h115l146 -469l18 -36h-112zM179 0l20 36l149 469h114l-13 -8l-158 -497h-112zM519 0l-158 497l-13 8h114l149 -469l20 -36h-112zM519 0l18 36l146 469h115v-8l-167 -497h-112zM246 575l89 145h139l90 -145h-103l-57 72l-56 -72h-102z" />
    <glyph glyph-name="wdieresis" unicode="&#x1e85;" horiz-adv-x="810" 
d="M179 0l-167 497v8h115l146 -469l18 -36h-112zM179 0l20 36l149 469h114l-13 -8l-158 -497h-112zM519 0l-158 497l-13 8h114l149 -469l20 -36h-112zM519 0l18 36l146 469h115v-8l-167 -497h-112zM507 581q-30 0 -51 21t-21 52q0 29 21 50.5t52 21.5q29 0 50.5 -21.5
t21.5 -51.5t-21.5 -51t-51.5 -21zM304 581q-30 0 -51 21t-21 52q0 29 21 50.5t52 21.5q29 0 50.5 -21.5t21.5 -51.5t-21.5 -51t-51.5 -21z" />
    <glyph glyph-name="wgrave" unicode="&#x1e81;" horiz-adv-x="810" 
d="M179 0l-167 497v8h115l146 -469l18 -36h-112zM179 0l20 36l149 469h114l-13 -8l-158 -497h-112zM519 0l-158 497l-13 8h114l149 -469l20 -36h-112zM519 0l18 36l146 469h115v-8l-167 -497h-112zM458 575h-113l-96 137v8h143z" />
    <glyph glyph-name="x" unicode="x" horiz-adv-x="490" 
d="M359 0l-351 497v8h129l351 -497v-8h-129zM2 0v8l208 295l68 -90l-150 -213h-126zM282 209l-68 90l142 206h126v-8z" />
    <glyph glyph-name="y" unicode="y" horiz-adv-x="542" 
d="M125 -200v8l82 192l42 90l168 415h118v-8l-293 -697h-117zM207 0l-200 497v8h118l176 -454v-51h-94z" />
    <glyph glyph-name="yacute" unicode="&#xfd;" horiz-adv-x="542" 
d="M125 -200v8l82 192l42 90l168 415h118v-8l-293 -697h-117zM207 0l-200 497v8h118l176 -454v-51h-94zM210 575l66 145h143v-8l-96 -137h-113z" />
    <glyph glyph-name="ycircumflex" unicode="&#x177;" horiz-adv-x="542" 
d="M125 -200v8l82 192l42 90l168 415h118v-8l-293 -697h-117zM207 0l-200 497v8h118l176 -454v-51h-94zM112 575l89 145h139l90 -145h-103l-57 72l-56 -72h-102z" />
    <glyph glyph-name="ydieresis" unicode="&#xff;" horiz-adv-x="542" 
d="M125 -200v8l82 192l42 90l168 415h118v-8l-293 -697h-117zM207 0l-200 497v8h118l176 -454v-51h-94zM372 581q-30 0 -51 21t-21 52q0 29 21 50.5t52 21.5q29 0 50.5 -21.5t21.5 -51.5t-21.5 -51t-51.5 -21zM170 581q-30 0 -51 21t-21 52q0 29 21 50.5t52 21.5
q29 0 50.5 -21.5t21.5 -51.5t-21.5 -51t-51.5 -21z" />
    <glyph glyph-name="ygrave" unicode="&#x1ef3;" horiz-adv-x="542" 
d="M125 -200v8l82 192l42 90l168 415h118v-8l-293 -697h-117zM207 0l-200 497v8h118l176 -454v-51h-94zM332 575h-113l-96 137v8h143z" />
    <glyph glyph-name="z" unicode="z" horiz-adv-x="469" 
d="M22 0v96l348 375l-10 -69h-335v103h423v-95l-347 -377l7 71h340v-104h-426z" />
    <glyph glyph-name="zacute" unicode="&#x17a;" horiz-adv-x="469" 
d="M22 0v96l348 375l-10 -69h-335v103h423v-95l-347 -377l7 71h340v-104h-426zM173 575l66 145h143v-8l-96 -137h-113z" />
    <glyph glyph-name="zcaron" unicode="&#x17e;" horiz-adv-x="469" 
d="M22 0v96l348 375l-10 -69h-335v103h423v-95l-347 -377l7 71h340v-104h-426zM75 707h102l56 -72l57 72h103l-90 -145h-139z" />
    <glyph glyph-name="zdotaccent" unicode="&#x17c;" horiz-adv-x="469" 
d="M22 0v96l348 375l-10 -69h-335v103h423v-95l-347 -377l7 71h340v-104h-426zM234 581q-30 0 -51 21t-21 52q0 29 21 50.5t52 21.5q29 0 50.5 -21.5t21.5 -51.5t-21.5 -51t-51.5 -21z" />
    <glyph glyph-name="iogonek.dotless" horiz-adv-x="242" 
d="M63 0v505h115v-505h-115zM125 -220q-54 0 -87 31.5t-33 82.5q0 46 27 83.5t80 69.5l66 -47q-38 -19 -59.5 -41t-21.5 -44q0 -18 13.5 -31.5t35.5 -13.5q13 0 27 4l5 -11v-78q-15 -2 -27.5 -3.5t-25.5 -1.5z" />
    <glyph glyph-name="a.ss03" horiz-adv-x="619" 
d="M279 -15q-68 0 -123 34.5t-87 94.5t-32 138q0 79 32 139t87 94.5t123 34.5q56 0 100.5 -23t74 -59.5t41.5 -79.5v-212q-12 -42 -41.5 -79t-74 -59.5t-100.5 -22.5zM296 90q44 0 77 20.5t52 57.5t19 85t-19 84.5t-52 57.5t-77 21q-42 0 -75 -21t-51 -57.5t-18 -84.5
t18 -85t51 -57.5t75 -20.5zM448 0v156l24 97l-30 96v156h114v-505h-108z" />
    <glyph glyph-name="aacute.ss03" horiz-adv-x="619" 
d="M279 -15q-68 0 -123 34.5t-87 94.5t-32 138q0 79 32 139t87 94.5t123 34.5q56 0 100.5 -23t74 -59.5t41.5 -79.5v-212q-12 -42 -41.5 -79t-74 -59.5t-100.5 -22.5zM296 90q44 0 77 20.5t52 57.5t19 85t-19 84.5t-52 57.5t-77 21q-42 0 -75 -21t-51 -57.5t-18 -84.5
t18 -85t51 -57.5t75 -20.5zM448 0v156l24 97l-30 96v156h114v-505h-108zM245 575l66 145h143v-8l-96 -137h-113z" />
    <glyph glyph-name="abreve.ss03" horiz-adv-x="619" 
d="M279 -15q-68 0 -123 34.5t-87 94.5t-32 138q0 79 32 139t87 94.5t123 34.5q56 0 100.5 -23t74 -59.5t41.5 -79.5v-212q-12 -42 -41.5 -79t-74 -59.5t-100.5 -22.5zM296 90q44 0 77 20.5t52 57.5t19 85t-19 84.5t-52 57.5t-77 21q-42 0 -75 -21t-51 -57.5t-18 -84.5
t18 -85t51 -57.5t75 -20.5zM448 0v156l24 97l-30 96v156h114v-505h-108zM306 573q-43 0 -77.5 18.5t-54.5 52t-20 76.5h99q0 -21 14 -39.5t39 -18.5q26 0 39 18.5t14 39.5h99q0 -43 -20 -76.5t-54.5 -52t-77.5 -18.5z" />
    <glyph glyph-name="acircumflex.ss03" horiz-adv-x="619" 
d="M279 -15q-68 0 -123 34.5t-87 94.5t-32 138q0 79 32 139t87 94.5t123 34.5q56 0 100.5 -23t74 -59.5t41.5 -79.5v-212q-12 -42 -41.5 -79t-74 -59.5t-100.5 -22.5zM296 90q44 0 77 20.5t52 57.5t19 85t-19 84.5t-52 57.5t-77 21q-42 0 -75 -21t-51 -57.5t-18 -84.5
t18 -85t51 -57.5t75 -20.5zM448 0v156l24 97l-30 96v156h114v-505h-108zM147 575l89 145h139l90 -145h-103l-57 72l-56 -72h-102z" />
    <glyph glyph-name="adieresis.ss03" horiz-adv-x="619" 
d="M279 -15q-68 0 -123 34.5t-87 94.5t-32 138q0 79 32 139t87 94.5t123 34.5q56 0 100.5 -23t74 -59.5t41.5 -79.5v-212q-12 -42 -41.5 -79t-74 -59.5t-100.5 -22.5zM296 90q44 0 77 20.5t52 57.5t19 85t-19 84.5t-52 57.5t-77 21q-42 0 -75 -21t-51 -57.5t-18 -84.5
t18 -85t51 -57.5t75 -20.5zM448 0v156l24 97l-30 96v156h114v-505h-108zM407 581q-30 0 -51 21t-21 52q0 29 21 50.5t52 21.5q29 0 50.5 -21.5t21.5 -51.5t-21.5 -51t-51.5 -21zM205 581q-30 0 -51 21t-21 52q0 29 21 50.5t52 21.5q29 0 50.5 -21.5t21.5 -51.5t-21.5 -51
t-51.5 -21z" />
    <glyph glyph-name="agrave.ss03" horiz-adv-x="619" 
d="M279 -15q-68 0 -123 34.5t-87 94.5t-32 138q0 79 32 139t87 94.5t123 34.5q56 0 100.5 -23t74 -59.5t41.5 -79.5v-212q-12 -42 -41.5 -79t-74 -59.5t-100.5 -22.5zM296 90q44 0 77 20.5t52 57.5t19 85t-19 84.5t-52 57.5t-77 21q-42 0 -75 -21t-51 -57.5t-18 -84.5
t18 -85t51 -57.5t75 -20.5zM448 0v156l24 97l-30 96v156h114v-505h-108zM367 575h-113l-96 137v8h143z" />
    <glyph glyph-name="amacron.ss03" horiz-adv-x="619" 
d="M279 -15q-68 0 -123 34.5t-87 94.5t-32 138q0 79 32 139t87 94.5t123 34.5q56 0 100.5 -23t74 -59.5t41.5 -79.5v-212q-12 -42 -41.5 -79t-74 -59.5t-100.5 -22.5zM296 90q44 0 77 20.5t52 57.5t19 85t-19 84.5t-52 57.5t-77 21q-42 0 -75 -21t-51 -57.5t-18 -84.5
t18 -85t51 -57.5t75 -20.5zM448 0v156l24 97l-30 96v156h114v-505h-108zM140 592v110h333v-110h-333z" />
    <glyph glyph-name="aogonek.ss03" horiz-adv-x="619" 
d="M279 -15q-68 0 -123 34.5t-87 94.5t-32 138q0 79 32 139t87 94.5t123 34.5q56 0 100.5 -23t74 -59.5t41.5 -79.5v-212q-12 -42 -41.5 -79t-74 -59.5t-100.5 -22.5zM296 90q44 0 77 20.5t52 57.5t19 85t-19 84.5t-52 57.5t-77 21q-42 0 -75 -21t-51 -57.5t-18 -84.5
t18 -85t51 -57.5t75 -20.5zM448 0v156l24 97l-30 96v156h114v-505h-108zM503 -220q-54 0 -87 31.5t-33 82.5q0 46 27 83.5t80 69.5l66 -47q-38 -19 -59.5 -41t-21.5 -44q0 -18 13.5 -31.5t35.5 -13.5q13 0 27 4l5 -11v-78q-15 -2 -27.5 -3.5t-25.5 -1.5z" />
    <glyph glyph-name="aring.ss03" horiz-adv-x="619" 
d="M279 -15q-68 0 -123 34.5t-87 94.5t-32 138q0 79 32 139t87 94.5t123 34.5q56 0 100.5 -23t74 -59.5t41.5 -79.5v-212q-12 -42 -41.5 -79t-74 -59.5t-100.5 -22.5zM296 90q44 0 77 20.5t52 57.5t19 85t-19 84.5t-52 57.5t-77 21q-42 0 -75 -21t-51 -57.5t-18 -84.5
t18 -85t51 -57.5t75 -20.5zM448 0v156l24 97l-30 96v156h114v-505h-108zM307 541q-38 0 -68 16.5t-47 46.5t-17 65q0 37 17 66t47 46t68 17t67 -17t46.5 -46t17.5 -66q0 -35 -17.5 -65t-46.5 -46.5t-67 -16.5zM307 624q19 0 32 13t13 32t-13 32.5t-32 13.5q-20 0 -33 -13.5
t-13 -32.5t13 -32t33 -13z" />
    <glyph glyph-name="atilde.ss03" horiz-adv-x="619" 
d="M279 -15q-68 0 -123 34.5t-87 94.5t-32 138q0 79 32 139t87 94.5t123 34.5q56 0 100.5 -23t74 -59.5t41.5 -79.5v-212q-12 -42 -41.5 -79t-74 -59.5t-100.5 -22.5zM296 90q44 0 77 20.5t52 57.5t19 85t-19 84.5t-52 57.5t-77 21q-42 0 -75 -21t-51 -57.5t-18 -84.5
t18 -85t51 -57.5t75 -20.5zM448 0v156l24 97l-30 96v156h114v-505h-108zM381 573q-23 0 -41.5 8t-34.5 18.5t-31.5 18.5t-30.5 8q-18 0 -29 -14.5t-11 -37.5h-93q0 66 33.5 107t88.5 41q23 0 41.5 -8t35 -18.5t31.5 -18.5t30 -8q19 0 29.5 14.5t10.5 37.5h93
q0 -65 -33.5 -106.5t-88.5 -41.5z" />
    <glyph glyph-name="g.ss03" horiz-adv-x="619" 
d="M301 -215q-70 0 -120.5 22.5t-82 60t-43.5 81.5l106 24h11q8 -33 40 -58.5t89 -25.5q41 0 72.5 17t49.5 47.5t18 68.5v151l31 90l-24 89v153h108v-462q0 -78 -30.5 -136t-88 -90t-136.5 -32zM279 5q-66 0 -121.5 33.5t-88 92t-32.5 132.5t32 132t87 91.5t123 33.5
q56 0 100.5 -22t74 -58.5t41.5 -78.5v-196q-12 -43 -41.5 -79t-74 -58.5t-100.5 -22.5zM296 109q44 0 77 20t52 55t19 78q0 45 -19 79.5t-52 54.5t-77 20q-42 0 -75 -20t-51 -54.5t-18 -79.5q0 -43 18 -78t51 -55t75 -20z" />
    <glyph glyph-name="gbreve.ss03" horiz-adv-x="619" 
d="M301 -215q-70 0 -120.5 22.5t-82 60t-43.5 81.5l106 24h11q8 -33 40 -58.5t89 -25.5q41 0 72.5 17t49.5 47.5t18 68.5v151l31 90l-24 89v153h108v-462q0 -78 -30.5 -136t-88 -90t-136.5 -32zM279 5q-66 0 -121.5 33.5t-88 92t-32.5 132.5t32 132t87 91.5t123 33.5
q56 0 100.5 -22t74 -58.5t41.5 -78.5v-196q-12 -43 -41.5 -79t-74 -58.5t-100.5 -22.5zM296 109q44 0 77 20t52 55t19 78q0 45 -19 79.5t-52 54.5t-77 20q-42 0 -75 -20t-51 -54.5t-18 -79.5q0 -43 18 -78t51 -55t75 -20zM306 573q-43 0 -77.5 18.5t-54.5 52t-20 76.5h99
q0 -21 14 -39.5t39 -18.5q26 0 39 18.5t14 39.5h99q0 -43 -20 -76.5t-54.5 -52t-77.5 -18.5z" />
    <glyph glyph-name="uni0123.ss03" horiz-adv-x="619" 
d="M301 -215q-70 0 -120.5 22.5t-82 60t-43.5 81.5l106 24h11q8 -33 40 -58.5t89 -25.5q41 0 72.5 17t49.5 47.5t18 68.5v151l31 90l-24 89v153h108v-462q0 -78 -30.5 -136t-88 -90t-136.5 -32zM279 5q-66 0 -121.5 33.5t-88 92t-32.5 132.5t32 132t87 91.5t123 33.5
q56 0 100.5 -22t74 -58.5t41.5 -78.5v-196q-12 -43 -41.5 -79t-74 -58.5t-100.5 -22.5zM296 109q44 0 77 20t52 55t19 78q0 45 -19 79.5t-52 54.5t-77 20q-42 0 -75 -20t-51 -54.5t-18 -79.5q0 -43 18 -78t51 -55t75 -20zM360 787v-62q-25 -5 -39 -20.5t-14 -35.5
q0 -17 5 -29l-42 -22q-3 12 -3 24q0 17 9 26t20 11.5t15 2.5q26 0 43.5 -17.5t17.5 -41.5q0 -25 -17 -43t-44 -18q-32 0 -51 28.5t-19 63.5q0 25 11.5 53t38 51t69.5 29z" />
    <glyph glyph-name="gdotaccent.ss03" horiz-adv-x="619" 
d="M301 -215q-70 0 -120.5 22.5t-82 60t-43.5 81.5l106 24h11q8 -33 40 -58.5t89 -25.5q41 0 72.5 17t49.5 47.5t18 68.5v151l31 90l-24 89v153h108v-462q0 -78 -30.5 -136t-88 -90t-136.5 -32zM279 5q-66 0 -121.5 33.5t-88 92t-32.5 132.5t32 132t87 91.5t123 33.5
q56 0 100.5 -22t74 -58.5t41.5 -78.5v-196q-12 -43 -41.5 -79t-74 -58.5t-100.5 -22.5zM296 109q44 0 77 20t52 55t19 78q0 45 -19 79.5t-52 54.5t-77 20q-42 0 -75 -20t-51 -54.5t-18 -79.5q0 -43 18 -78t51 -55t75 -20zM306 581q-30 0 -51 21t-21 52q0 29 21 50.5t52 21.5
q29 0 50.5 -21.5t21.5 -51.5t-21.5 -51t-51.5 -21z" />
    <glyph glyph-name="a.ss04" horiz-adv-x="619" 
d="M279 -15q-68 0 -123 34.5t-87 94.5t-32 138q0 79 32 139t87 94.5t123 34.5q56 0 100.5 -23t74 -59.5t41.5 -79.5v-212q-12 -42 -41.5 -79t-74 -59.5t-100.5 -22.5zM296 90q44 0 77 20.5t52 57.5t19 85t-19 84.5t-52 57.5t-77 21q-42 0 -75 -21t-51 -57.5t-18 -84.5
t18 -85t51 -57.5t75 -20.5zM591 0q-68 0 -105.5 37.5t-37.5 107.5v31l24 77l-30 96v156h114v-337q0 -32 14 -48t38 -16l5 -11v-93h-22z" />
    <glyph glyph-name="aacute.ss04" horiz-adv-x="619" 
d="M279 -15q-68 0 -123 34.5t-87 94.5t-32 138q0 79 32 139t87 94.5t123 34.5q56 0 100.5 -23t74 -59.5t41.5 -79.5v-212q-12 -42 -41.5 -79t-74 -59.5t-100.5 -22.5zM296 90q44 0 77 20.5t52 57.5t19 85t-19 84.5t-52 57.5t-77 21q-42 0 -75 -21t-51 -57.5t-18 -84.5
t18 -85t51 -57.5t75 -20.5zM591 0q-68 0 -105.5 37.5t-37.5 107.5v31l24 77l-30 96v156h114v-337q0 -32 14 -48t38 -16l5 -11v-93h-22zM245 575l66 145h143v-8l-96 -137h-113z" />
    <glyph glyph-name="abreve.ss04" horiz-adv-x="619" 
d="M279 -15q-68 0 -123 34.5t-87 94.5t-32 138q0 79 32 139t87 94.5t123 34.5q56 0 100.5 -23t74 -59.5t41.5 -79.5v-212q-12 -42 -41.5 -79t-74 -59.5t-100.5 -22.5zM296 90q44 0 77 20.5t52 57.5t19 85t-19 84.5t-52 57.5t-77 21q-42 0 -75 -21t-51 -57.5t-18 -84.5
t18 -85t51 -57.5t75 -20.5zM591 0q-68 0 -105.5 37.5t-37.5 107.5v31l24 77l-30 96v156h114v-337q0 -32 14 -48t38 -16l5 -11v-93h-22zM306 573q-43 0 -77.5 18.5t-54.5 52t-20 76.5h99q0 -21 14 -39.5t39 -18.5q26 0 39 18.5t14 39.5h99q0 -43 -20 -76.5t-54.5 -52
t-77.5 -18.5z" />
    <glyph glyph-name="acircumflex.ss04" horiz-adv-x="619" 
d="M279 -15q-68 0 -123 34.5t-87 94.5t-32 138q0 79 32 139t87 94.5t123 34.5q56 0 100.5 -23t74 -59.5t41.5 -79.5v-212q-12 -42 -41.5 -79t-74 -59.5t-100.5 -22.5zM296 90q44 0 77 20.5t52 57.5t19 85t-19 84.5t-52 57.5t-77 21q-42 0 -75 -21t-51 -57.5t-18 -84.5
t18 -85t51 -57.5t75 -20.5zM591 0q-68 0 -105.5 37.5t-37.5 107.5v31l24 77l-30 96v156h114v-337q0 -32 14 -48t38 -16l5 -11v-93h-22zM147 575l89 145h139l90 -145h-103l-57 72l-56 -72h-102z" />
    <glyph glyph-name="adieresis.ss04" horiz-adv-x="619" 
d="M279 -15q-68 0 -123 34.5t-87 94.5t-32 138q0 79 32 139t87 94.5t123 34.5q56 0 100.5 -23t74 -59.5t41.5 -79.5v-212q-12 -42 -41.5 -79t-74 -59.5t-100.5 -22.5zM296 90q44 0 77 20.5t52 57.5t19 85t-19 84.5t-52 57.5t-77 21q-42 0 -75 -21t-51 -57.5t-18 -84.5
t18 -85t51 -57.5t75 -20.5zM591 0q-68 0 -105.5 37.5t-37.5 107.5v31l24 77l-30 96v156h114v-337q0 -32 14 -48t38 -16l5 -11v-93h-22zM407 581q-30 0 -51 21t-21 52q0 29 21 50.5t52 21.5q29 0 50.5 -21.5t21.5 -51.5t-21.5 -51t-51.5 -21zM205 581q-30 0 -51 21t-21 52
q0 29 21 50.5t52 21.5q29 0 50.5 -21.5t21.5 -51.5t-21.5 -51t-51.5 -21z" />
    <glyph glyph-name="agrave.ss04" horiz-adv-x="619" 
d="M279 -15q-68 0 -123 34.5t-87 94.5t-32 138q0 79 32 139t87 94.5t123 34.5q56 0 100.5 -23t74 -59.5t41.5 -79.5v-212q-12 -42 -41.5 -79t-74 -59.5t-100.5 -22.5zM296 90q44 0 77 20.5t52 57.5t19 85t-19 84.5t-52 57.5t-77 21q-42 0 -75 -21t-51 -57.5t-18 -84.5
t18 -85t51 -57.5t75 -20.5zM591 0q-68 0 -105.5 37.5t-37.5 107.5v31l24 77l-30 96v156h114v-337q0 -32 14 -48t38 -16l5 -11v-93h-22zM367 575h-113l-96 137v8h143z" />
    <glyph glyph-name="amacron.ss04" horiz-adv-x="619" 
d="M279 -15q-68 0 -123 34.5t-87 94.5t-32 138q0 79 32 139t87 94.5t123 34.5q56 0 100.5 -23t74 -59.5t41.5 -79.5v-212q-12 -42 -41.5 -79t-74 -59.5t-100.5 -22.5zM296 90q44 0 77 20.5t52 57.5t19 85t-19 84.5t-52 57.5t-77 21q-42 0 -75 -21t-51 -57.5t-18 -84.5
t18 -85t51 -57.5t75 -20.5zM591 0q-68 0 -105.5 37.5t-37.5 107.5v31l24 77l-30 96v156h114v-337q0 -32 14 -48t38 -16l5 -11v-93h-22zM140 592v110h333v-110h-333z" />
    <glyph glyph-name="aogonek.ss04" horiz-adv-x="619" 
d="M279 -15q-68 0 -123 34.5t-87 94.5t-32 138q0 79 32 139t87 94.5t123 34.5q56 0 100.5 -23t74 -59.5t41.5 -79.5v-212q-12 -42 -41.5 -79t-74 -59.5t-100.5 -22.5zM296 90q44 0 77 20.5t52 57.5t19 85t-19 84.5t-52 57.5t-77 21q-42 0 -75 -21t-51 -57.5t-18 -84.5
t18 -85t51 -57.5t75 -20.5zM591 0q-68 0 -105.5 37.5t-37.5 107.5v31l24 77l-30 96v156h114v-337q0 -32 14 -48t38 -16l5 -11v-93h-22zM560 -220q-54 0 -87 31.5t-33 82.5q0 46 27 83.5t80 69.5l66 -47q-38 -19 -59.5 -41t-21.5 -44q0 -18 13.5 -31.5t35.5 -13.5q13 0 27 4
l5 -11v-78q-15 -2 -27.5 -3.5t-25.5 -1.5z" />
    <glyph glyph-name="aring.ss04" horiz-adv-x="619" 
d="M279 -15q-68 0 -123 34.5t-87 94.5t-32 138q0 79 32 139t87 94.5t123 34.5q56 0 100.5 -23t74 -59.5t41.5 -79.5v-212q-12 -42 -41.5 -79t-74 -59.5t-100.5 -22.5zM296 90q44 0 77 20.5t52 57.5t19 85t-19 84.5t-52 57.5t-77 21q-42 0 -75 -21t-51 -57.5t-18 -84.5
t18 -85t51 -57.5t75 -20.5zM591 0q-68 0 -105.5 37.5t-37.5 107.5v31l24 77l-30 96v156h114v-337q0 -32 14 -48t38 -16l5 -11v-93h-22zM307 541q-38 0 -68 16.5t-47 46.5t-17 65q0 37 17 66t47 46t68 17t67 -17t46.5 -46t17.5 -66q0 -35 -17.5 -65t-46.5 -46.5t-67 -16.5z
M307 624q19 0 32 13t13 32t-13 32.5t-32 13.5q-20 0 -33 -13.5t-13 -32.5t13 -32t33 -13z" />
    <glyph glyph-name="atilde.ss04" horiz-adv-x="619" 
d="M279 -15q-68 0 -123 34.5t-87 94.5t-32 138q0 79 32 139t87 94.5t123 34.5q56 0 100.5 -23t74 -59.5t41.5 -79.5v-212q-12 -42 -41.5 -79t-74 -59.5t-100.5 -22.5zM296 90q44 0 77 20.5t52 57.5t19 85t-19 84.5t-52 57.5t-77 21q-42 0 -75 -21t-51 -57.5t-18 -84.5
t18 -85t51 -57.5t75 -20.5zM591 0q-68 0 -105.5 37.5t-37.5 107.5v31l24 77l-30 96v156h114v-337q0 -32 14 -48t38 -16l5 -11v-93h-22zM381 573q-23 0 -41.5 8t-34.5 18.5t-31.5 18.5t-30.5 8q-18 0 -29 -14.5t-11 -37.5h-93q0 66 33.5 107t88.5 41q23 0 41.5 -8t35 -18.5
t31.5 -18.5t30 -8q19 0 29.5 14.5t10.5 37.5h93q0 -65 -33.5 -106.5t-88.5 -41.5z" />
    <glyph glyph-name="g.ss04" horiz-adv-x="619" 
d="M109 -200v93l5 11h245q46 0 67.5 22t21.5 66v168l24 96l-30 96v153h114v-526q0 -82 -46.5 -130.5t-122.5 -48.5h-278zM279 -15q-68 0 -123 34.5t-87 94.5t-32 138q0 79 32 139t87 94.5t123 34.5q56 0 100.5 -23t74 -59.5t41.5 -79.5v-212q-12 -42 -41.5 -79t-74 -59.5
t-100.5 -22.5zM296 90q44 0 77 20.5t52 57.5t19 85t-19 84.5t-52 57.5t-77 21q-42 0 -75 -21t-51 -57.5t-18 -84.5t18 -85t51 -57.5t75 -20.5z" />
    <glyph glyph-name="gbreve.ss04" horiz-adv-x="619" 
d="M109 -200v93l5 11h245q46 0 67.5 22t21.5 66v168l24 96l-30 96v153h114v-526q0 -82 -46.5 -130.5t-122.5 -48.5h-278zM279 -15q-68 0 -123 34.5t-87 94.5t-32 138q0 79 32 139t87 94.5t123 34.5q56 0 100.5 -23t74 -59.5t41.5 -79.5v-212q-12 -42 -41.5 -79t-74 -59.5
t-100.5 -22.5zM296 90q44 0 77 20.5t52 57.5t19 85t-19 84.5t-52 57.5t-77 21q-42 0 -75 -21t-51 -57.5t-18 -84.5t18 -85t51 -57.5t75 -20.5zM306 573q-43 0 -77.5 18.5t-54.5 52t-20 76.5h99q0 -21 14 -39.5t39 -18.5q26 0 39 18.5t14 39.5h99q0 -43 -20 -76.5t-54.5 -52
t-77.5 -18.5z" />
    <glyph glyph-name="uni0123.ss04" horiz-adv-x="619" 
d="M109 -200v93l5 11h245q46 0 67.5 22t21.5 66v168l24 96l-30 96v153h114v-526q0 -82 -46.5 -130.5t-122.5 -48.5h-278zM279 -15q-68 0 -123 34.5t-87 94.5t-32 138q0 79 32 139t87 94.5t123 34.5q56 0 100.5 -23t74 -59.5t41.5 -79.5v-212q-12 -42 -41.5 -79t-74 -59.5
t-100.5 -22.5zM296 90q44 0 77 20.5t52 57.5t19 85t-19 84.5t-52 57.5t-77 21q-42 0 -75 -21t-51 -57.5t-18 -84.5t18 -85t51 -57.5t75 -20.5zM360 787v-62q-25 -5 -39 -20.5t-14 -35.5q0 -17 5 -29l-42 -22q-3 12 -3 24q0 17 9 26t20 11.5t15 2.5q26 0 43.5 -17.5
t17.5 -41.5q0 -25 -17 -43t-44 -18q-32 0 -51 28.5t-19 63.5q0 25 11.5 53t38 51t69.5 29z" />
    <glyph glyph-name="gdotaccent.ss04" horiz-adv-x="619" 
d="M109 -200v93l5 11h245q46 0 67.5 22t21.5 66v168l24 96l-30 96v153h114v-526q0 -82 -46.5 -130.5t-122.5 -48.5h-278zM279 -15q-68 0 -123 34.5t-87 94.5t-32 138q0 79 32 139t87 94.5t123 34.5q56 0 100.5 -23t74 -59.5t41.5 -79.5v-212q-12 -42 -41.5 -79t-74 -59.5
t-100.5 -22.5zM296 90q44 0 77 20.5t52 57.5t19 85t-19 84.5t-52 57.5t-77 21q-42 0 -75 -21t-51 -57.5t-18 -84.5t18 -85t51 -57.5t75 -20.5zM306 581q-30 0 -51 21t-21 52q0 29 21 50.5t52 21.5q29 0 50.5 -21.5t21.5 -51.5t-21.5 -51t-51.5 -21z" />
    <glyph glyph-name="l.ss04" horiz-adv-x="252" 
d="M219 0q-43 0 -77 18.5t-54 53t-20 82.5v566l112 14l3 -8v-555q0 -33 14 -50t39 -17l5 -11v-93h-22z" />
    <glyph glyph-name="lacute.ss04" horiz-adv-x="252" 
d="M219 0q-43 0 -77 18.5t-54 53t-20 82.5v566l112 14l3 -8v-555q0 -33 14 -50t39 -17l5 -11v-93h-22zM69 765l66 145h143v-8l-96 -137h-113z" />
    <glyph glyph-name="lcaron.ss04" horiz-adv-x="252" 
d="M219 0q-43 0 -77 18.5t-54 53t-20 82.5v566l112 14l3 -8v-555q0 -33 14 -50t39 -17l5 -11v-93h-22zM225 541l20 184h108l-41 -184h-87z" />
    <glyph glyph-name="uni013C.ss04" horiz-adv-x="252" 
d="M219 0q-43 0 -77 18.5t-54 53t-20 82.5v566l112 14l3 -8v-555q0 -33 14 -50t39 -17l5 -11v-93h-22zM107 -258v61q25 6 39 21t14 35q0 18 -5 30l42 21q3 -12 3 -23q0 -18 -9 -26.5t-20 -11.5t-15 -3q-26 0 -43.5 17.5t-17.5 41.5q0 26 17 43.5t44 17.5q32 0 51 -28t19 -63
q0 -25 -11.5 -53.5t-38 -51t-69.5 -28.5z" />
    <glyph glyph-name="ldot.ss04" horiz-adv-x="330" 
d="M219 0q-43 0 -77 18.5t-54 53t-20 82.5v566l112 14l3 -8v-555q0 -33 14 -50t39 -17l5 -11v-93h-22zM291 292q-30 0 -51 21t-21 52q0 29 21 50.5t52 21.5q29 0 50.5 -21.5t21.5 -51.5t-21.5 -51t-51.5 -21z" />
    <glyph glyph-name="lslash.ss04" horiz-adv-x="282" 
d="M12 210v120l257 160v-120zM234 0q-43 0 -77 18.5t-54 53t-20 82.5v566l112 14l3 -8v-555q0 -33 14 -50t39 -17l5 -11v-93h-22z" />
    <glyph glyph-name="y.ss04" horiz-adv-x="596" 
d="M92 -200v93l5 11h238q46 0 68 22t22 66v137l29 -2q-16 -44 -46 -75.5t-70 -49t-87 -17.5q-54 0 -97.5 23.5t-69.5 69.5t-26 114v313h115v-272q0 -49 13.5 -80.5t38 -47t56.5 -15.5q30 0 61.5 15.5t53 52.5t21.5 99v248h115v-526q0 -82 -46 -130.5t-123 -48.5h-271z" />
    <glyph glyph-name="yacute.ss04" horiz-adv-x="596" 
d="M92 -200v93l5 11h238q46 0 68 22t22 66v137l29 -2q-16 -44 -46 -75.5t-70 -49t-87 -17.5q-54 0 -97.5 23.5t-69.5 69.5t-26 114v313h115v-272q0 -49 13.5 -80.5t38 -47t56.5 -15.5q30 0 61.5 15.5t53 52.5t21.5 99v248h115v-526q0 -82 -46 -130.5t-123 -48.5h-271z
M239 575l66 145h143v-8l-96 -137h-113z" />
    <glyph glyph-name="ycircumflex.ss04" horiz-adv-x="596" 
d="M92 -200v93l5 11h238q46 0 68 22t22 66v137l29 -2q-16 -44 -46 -75.5t-70 -49t-87 -17.5q-54 0 -97.5 23.5t-69.5 69.5t-26 114v313h115v-272q0 -49 13.5 -80.5t38 -47t56.5 -15.5q30 0 61.5 15.5t53 52.5t21.5 99v248h115v-526q0 -82 -46 -130.5t-123 -48.5h-271z
M141 575l89 145h139l90 -145h-103l-57 72l-56 -72h-102z" />
    <glyph glyph-name="ydieresis.ss04" horiz-adv-x="596" 
d="M92 -200v93l5 11h238q46 0 68 22t22 66v137l29 -2q-16 -44 -46 -75.5t-70 -49t-87 -17.5q-54 0 -97.5 23.5t-69.5 69.5t-26 114v313h115v-272q0 -49 13.5 -80.5t38 -47t56.5 -15.5q30 0 61.5 15.5t53 52.5t21.5 99v248h115v-526q0 -82 -46 -130.5t-123 -48.5h-271z
M402 581q-30 0 -51 21t-21 52q0 29 21 50.5t52 21.5q29 0 50.5 -21.5t21.5 -51.5t-21.5 -51t-51.5 -21zM199 581q-30 0 -51 21t-21 52q0 29 21 50.5t52 21.5q29 0 50.5 -21.5t21.5 -51.5t-21.5 -51t-51.5 -21z" />
    <glyph glyph-name="ygrave.ss04" horiz-adv-x="596" 
d="M92 -200v93l5 11h238q46 0 68 22t22 66v137l29 -2q-16 -44 -46 -75.5t-70 -49t-87 -17.5q-54 0 -97.5 23.5t-69.5 69.5t-26 114v313h115v-272q0 -49 13.5 -80.5t38 -47t56.5 -15.5q30 0 61.5 15.5t53 52.5t21.5 99v248h115v-526q0 -82 -46 -130.5t-123 -48.5h-271z
M361 575h-113l-96 137v8h143z" />
    <glyph glyph-name="fi" unicode="&#xfb01;" horiz-adv-x="594" 
d="M108 0v548q0 79 44 125.5t118 46.5h65v-93l-5 -11h-33q-39 0 -56.5 -17t-17.5 -57v-542h-115zM22 402v103h313v-103h-313zM415 0v505h115v-505h-115zM473 581q-30 0 -51 21t-21 52q0 29 21 50.5t52 21.5q29 0 50.5 -21.5t21.5 -51.5t-21.5 -51t-51.5 -21z" />
    <glyph glyph-name="fl" unicode="&#xfb02;" horiz-adv-x="604" 
d="M108 0v548q0 79 44 125.5t118 46.5h65v-93l-5 -11h-33q-39 0 -56.5 -17t-17.5 -57v-542h-115zM22 402v103h313v-103h-313zM420 0v720l112 14l3 -8v-726h-115z" />
    <glyph glyph-name="ordfeminine" unicode="&#xaa;" horiz-adv-x="396" 
d="M160 340q-55 0 -91.5 30.5t-36.5 79.5t35 80t100 35l137 12v-72l-125 -10q-28 -3 -40.5 -13.5t-12.5 -27.5q0 -15 14 -25t35 -10q26 0 47.5 12t34 32.5t12.5 43.5v58q0 31 -21.5 51t-55.5 20q-29 0 -46.5 -14t-23.5 -36h-8l-76 17q13 48 53.5 79.5t100.5 31.5
q76 0 119.5 -43t43.5 -122v-199h-77v103l32 -5q-13 -46 -54.5 -77t-95.5 -31z" />
    <glyph glyph-name="ordmasculine" unicode="&#xba;" horiz-adv-x="433" 
d="M217 339q-53 0 -94 24t-63.5 66t-22.5 98q0 55 22.5 97t63.5 66t94 24t93.5 -24t63.5 -66t23 -97t-23 -97.5t-63.5 -66.5t-93.5 -24zM217 420q42 0 66.5 29.5t24.5 77.5t-24.5 77t-66.5 29q-41 0 -66.5 -29t-25.5 -77t25.5 -77.5t66.5 -29.5z" />
    <glyph glyph-name="uni0621" unicode="&#x621;" horiz-adv-x="527" 
d="M166 69q-32 49 -32 94q0 38 20 70t52 60t69.5 52t72.5 46h7l58 -85q-49 -30 -81.5 -54.5t-50.5 -44t-25.5 -34.5t-7.5 -27q0 -17 10.5 -29.5t28.5 -12.5zM51 0l-4 8l51 96h6q26 0 49.5 -3.5l23.5 -3.5l26 7h277v-7l-30 -97h-399z" />
    <glyph glyph-name="uni0627" unicode="&#x627;" horiz-adv-x="273" 
d="M80 0v745l112 14l3 -8v-504q0 -41 2.5 -82t5 -75.5t5 -55l2.5 -20.5l-15 -14h-115z" />
    <glyph glyph-name="uni0627.fina" horiz-adv-x="281" 
d="M195 0l-115 1v744l112 14l3 -8v-751zM80 0v104h201v-104h-201zM281 0v104q12 0 16 -13.5t4 -37.5q0 -22 -4 -37.5t-16 -15.5z" />
    <glyph glyph-name="uni0627.short" horiz-adv-x="273" 
d="M80 0v656l112 14l3 -8v-415q0 -41 2.5 -82t5 -75.5t5 -55l2.5 -20.5l-15 -14h-115z" />
    <glyph glyph-name="uni0627.short.fina" horiz-adv-x="281" 
d="M195 0l-115 1v655l112 14l3 -8v-662zM80 0v104h201v-104h-201zM281 0v104q12 0 16 -13.5t4 -37.5q0 -22 -4 -37.5t-16 -15.5z" />
    <glyph glyph-name="uni066E" unicode="&#x66e;" horiz-adv-x="929" 
d="M463 0q-74 0 -150.5 5.5t-144 21.5t-116.5 46l50 81h10q51 -25 137 -37.5t214 -12.5h290l-3 -104h-287zM757 0l3 42l-3 32.5t-6 83.5t-3 107v83l112 14l3 -8v-107q0 -41 2.5 -82t5 -75.5t5 -55l2.5 -20.5l-15 -14h-106zM662 0v104h106v-104h-106zM662 0q-11 0 -15.5 15.5
t-4.5 37.5q0 23 4.5 37t15.5 14v-104z" />
    <glyph glyph-name="uni066E.fina" horiz-adv-x="949" 
d="M832 0v104h117v-104h-117zM949 0v104q12 0 16 -13.5t4 -37.5q0 -22 -4 -37.5t-16 -15.5zM463 0q-74 0 -150.5 5.5t-144 21.5t-116.5 46l50 81h10q51 -25 137 -37.5t214 -12.5h290l-3 -104h-287zM757 0l3 42l-3 32.5t-6 83.5t-3 107v83l112 14l3 -8v-107q0 -41 2.5 -82
t5 -75.5t5 -55l2.5 -20.5l-15 -14h-106zM662 0v104h106v-104h-106zM662 0q-11 0 -15.5 15.5t-4.5 37.5q0 23 4.5 37t15.5 14v-104z" />
    <glyph glyph-name="uni066E.medi" horiz-adv-x="287" 
d="M167 0v104h120v-104h-120zM287 0v104q12 0 16 -13.5t4 -37.5q0 -22 -4 -37.5t-16 -15.5zM95 0l3 42l-3 32.5t-6 83.5t-3 107v83l112 14l3 -8v-107q0 -41 2.5 -82t5 -75.5t5 -55l2.5 -20.5l-15 -14h-106zM0 0v104h106v-104h-106zM0 0q-11 0 -15.5 15.5t-4.5 37.5
q0 23 4.5 37t15.5 14v-104z" />
    <glyph glyph-name="uni066E.medi.high" horiz-adv-x="287" 
d="M167 0v104h120v-104h-120zM287 0v104q12 0 16 -13.5t4 -37.5q0 -22 -4 -37.5t-16 -15.5zM86 322v121l112 14l3 -8v-127h-115zM95 0l3 42l-3 32.5t-6 83.5t-3 107v83l112 14l3 -8v-107q0 -41 2.5 -82t5 -75.5t5 -55l2.5 -20.5l-15 -14h-106zM0 0v104h106v-104h-106zM0 0
q-11 0 -15.5 15.5t-4.5 37.5q0 23 4.5 37t15.5 14v-104z" />
    <glyph glyph-name="uni066E.init" horiz-adv-x="268" 
d="M95 0l3 42l-3 32.5t-6 83.5t-3 107v83l112 14l3 -8v-107q0 -41 2.5 -82t5 -75.5t5 -55l2.5 -20.5l-15 -14h-106zM0 0v104h106v-104h-106zM0 0q-11 0 -15.5 15.5t-4.5 37.5q0 23 4.5 37t15.5 14v-104z" />
    <glyph glyph-name="uni066E.init.high" horiz-adv-x="268" 
d="M86 322v121l112 14l3 -8v-127h-115zM95 0l3 42l-3 32.5t-6 83.5t-3 107v83l112 14l3 -8v-107q0 -41 2.5 -82t5 -75.5t5 -55l2.5 -20.5l-15 -14h-106zM0 0v104h106v-104h-106zM0 0q-11 0 -15.5 15.5t-4.5 37.5q0 23 4.5 37t15.5 14v-104z" />
    <glyph glyph-name="uni062D" unicode="&#x62d;" horiz-adv-x="742" 
d="M623 10q-68 15 -138.5 44.5t-138 71.5t-127.5 92.5t-107 106.5l82 66h7q32 -39 79.5 -84t107.5 -87t128 -74.5t141 -47.5zM279 0v104h16q35 0 62 -1.5t42.5 -3.5l15.5 -2l94 7h176v-7l-29 -97h-377zM282 -200q-77 0 -131 20t-82.5 55t-28.5 80q0 71 65.5 110t173.5 39
v-104q-67 0 -98 -13t-37 -33q6 -22 37.5 -36t99.5 -14q19 0 44.5 1t51.5 4l18 -91v-11q-30 -4 -61 -5.5t-52 -1.5z" />
    <glyph glyph-name="uni062D.fina" horiz-adv-x="707" 
d="M621 0v104h86v-104h-86zM707 0v104q12 0 16 -14t4 -37q0 -22 -4 -37.5t-16 -15.5zM623 10q-68 15 -138.5 44.5t-138 71.5t-127.5 92.5t-107 106.5l82 66h7q32 -39 79.5 -84t107.5 -87t128 -74.5t141 -47.5zM279 0v104h16q35 0 62 -1.5t42.5 -3.5l15.5 -2l94 7h176v-7
l-29 -97h-377zM282 -200q-77 0 -131 20t-82.5 55t-28.5 80q0 71 65.5 110t173.5 39v-104q-67 0 -98 -13t-37 -33q6 -22 37.5 -36t99.5 -14q19 0 44.5 1t51.5 4l18 -91v-11q-30 -4 -61 -5.5t-52 -1.5z" />
    <glyph glyph-name="uni062D.medi" horiz-adv-x="654" 
d="M568 0v104h86v-104h-86zM654 0v104q12 0 16 -14t4 -37q0 -22 -4 -37.5t-16 -15.5zM570 10q-68 15 -138.5 44.5t-138 71.5t-127.5 92.5t-107 106.5l82 66h7q32 -39 79.5 -84t107.5 -87t128 -74.5t141 -47.5zM0 0v104h215q35 0 68.5 -1.5t56 -3.5l22.5 -2l94 7h176v-7
l-29 -97h-603zM0 0q-11 0 -15.5 15.5t-4.5 37.5q0 23 4.5 37t15.5 14v-104z" />
    <glyph glyph-name="uni062D.init" horiz-adv-x="689" 
d="M570 10q-68 15 -138.5 44.5t-138 71.5t-127.5 92.5t-107 106.5l82 66h7q32 -39 79.5 -84t107.5 -87t128 -74.5t141 -47.5zM0 0v104h215q35 0 68.5 -1.5t56 -3.5l22.5 -2l94 7h176v-7l-29 -97h-603zM0 0q-11 0 -15.5 15.5t-4.5 37.5q0 23 4.5 37t15.5 14v-104z" />
    <glyph glyph-name="uni062F" unicode="&#x62f;" horiz-adv-x="591" 
d="M415 117q0 26 -14.5 47.5t-39.5 34t-57 12.5h-146v11l12 93h134q60 0 111.5 -25t83 -70t31.5 -103h-115zM26 0l-4 8l51 96h152v-104h-199zM73 0v104h251q25 0 49.5 -1.5t40.5 -3.5l16 -2v-97h-357zM122 211l-5 8l51 96h119v-104h-165zM426 0q-4 27 -7.5 57t-3.5 60h115
q0 -30 3 -57t7 -46l-15 -14h-99z" />
    <glyph glyph-name="uni062F.fina" horiz-adv-x="616" 
d="M496 0v104h120v-104h-120zM616 0v104q12 0 16 -13.5t4 -37.5q0 -22 -4 -37.5t-16 -15.5zM415 117q0 26 -14.5 47.5t-39.5 34t-57 12.5h-146v11l12 93h134q60 0 111.5 -25t83 -70t31.5 -103h-115zM26 0l-4 8l51 96h152v-104h-199zM73 0v104h251q25 0 49.5 -1.5t40.5 -3.5
l16 -2v-97h-357zM122 211l-5 8l51 96h119v-104h-165zM426 0q-4 27 -7.5 57t-3.5 60h115q0 -30 3 -57t7 -46l-15 -14h-99z" />
    <glyph glyph-name="uni0631" unicode="&#x631;" horiz-adv-x="289" 
d="M0 -200v104q64 0 93 39t29 132v273l112 14l3 -8v-279q0 -87 -26 -148.5t-78.5 -94t-132.5 -32.5z" />
    <glyph glyph-name="uni0631.fina" horiz-adv-x="323" 
d="M219 0v104h104v-104h-104zM323 0v104q12 0 16 -13.5t4 -37.5q0 -22 -4 -37.5t-16 -15.5zM0 -200v104q64 0 93 39t29 132v273l112 14l3 -8v-279q0 -87 -26 -148.5t-78.5 -94t-132.5 -32.5z" />
    <glyph glyph-name="uni0633" unicode="&#x633;" horiz-adv-x="1054" 
d="M277 -231q-113 0 -174 69t-61 191h105q0 -79 33 -117.5t97 -38.5q68 0 104.5 40t36.5 116h115q0 -81 -32.5 -139.5t-90 -89.5t-133.5 -31zM42 29v51l102 14l3 -8v-57h-105zM418 29v224l112 14l3 -8v-230h-115zM479 0v104h451v-104h-451zM654 0l3 42l-3 32.5t-6 83.5
t-3 107v36l112 14l3 -8v-60q0 -41 2.5 -82t5 -75.5t5 -55l2.5 -20.5l-15 -14h-106zM881 0l3 42l-3 32.5t-6 83.5t-3 107v83l112 14l3 -8v-107q0 -41 2.5 -82t5 -75.5t5 -55l2.5 -20.5l-15 -14h-106z" />
    <glyph glyph-name="uni0633.fina" horiz-adv-x="1073" 
d="M973 0v104h100v-104h-100zM1073 0v104q12 0 16 -13.5t4 -37.5q0 -22 -4 -37.5t-16 -15.5zM277 -231q-113 0 -174 69t-61 191h105q0 -79 33 -117.5t97 -38.5q68 0 104.5 40t36.5 116h115q0 -81 -32.5 -139.5t-90 -89.5t-133.5 -31zM42 29v51l102 14l3 -8v-57h-105zM418 29
v224l112 14l3 -8v-230h-115zM479 0v104h451v-104h-451zM654 0l3 42l-3 32.5t-6 83.5t-3 107v36l112 14l3 -8v-60q0 -41 2.5 -82t5 -75.5t5 -55l2.5 -20.5l-15 -14h-106zM881 0l3 42l-3 32.5t-6 83.5t-3 107v83l112 14l3 -8v-107q0 -41 2.5 -82t5 -75.5t5 -55l2.5 -20.5
l-15 -14h-106z" />
    <glyph glyph-name="uni0633.medi" horiz-adv-x="742" 
d="M631 0v104h111v-104h-111zM742 0v104q12 0 16 -13.5t4 -37.5q0 -22 -4 -37.5t-16 -15.5zM0 0v104h599v-104h-599zM322 0l3 42l-3 32.5t-6 83.5t-3 107v36l112 14l3 -8v-60q0 -41 2.5 -82t5 -75.5t5 -55l2.5 -20.5l-15 -14h-106zM95 0l3 42l-3 28t-6 74t-3 99v10l112 14
l3 -8v-17q0 -39 2.5 -79t5 -74t5 -54.5l2.5 -20.5l-15 -14h-106zM550 0l3 42l-3 32.5t-6 83.5t-3 107v83l112 14l3 -8v-107q0 -41 2.5 -82t5 -75.5t5 -55l2.5 -20.5l-15 -14h-106zM0 0q-11 0 -15.5 15.5t-4.5 37.5q0 23 4.5 37t15.5 14v-104z" />
    <glyph glyph-name="uni0633.init" horiz-adv-x="722" 
d="M0 0v104h599v-104h-599zM322 0l3 42l-3 32.5t-6 83.5t-3 107v36l112 14l3 -8v-60q0 -41 2.5 -82t5 -75.5t5 -55l2.5 -20.5l-15 -14h-106zM95 0l3 42l-3 28t-6 74t-3 99v10l112 14l3 -8v-17q0 -39 2.5 -79t5 -74t5 -54.5l2.5 -20.5l-15 -14h-106zM550 0l3 42l-3 32.5
t-6 83.5t-3 107v83l112 14l3 -8v-107q0 -41 2.5 -82t5 -75.5t5 -55l2.5 -20.5l-15 -14h-106zM0 0q-11 0 -15.5 15.5t-4.5 37.5q0 23 4.5 37t15.5 14v-104z" />
    <glyph glyph-name="uni0635" unicode="&#x635;" horiz-adv-x="1254" 
d="M418 116v296l112 13l3 -8v-301h-115zM498 211v104h381v-104h-381zM498 0v104h381v-104h-381zM277 -231q-113 0 -174 69t-61 191h105q0 -79 33 -117.5t97 -38.5q68 0 104.5 40t36.5 116h115q0 -81 -32.5 -139.5t-90 -89.5t-133.5 -31zM42 29v51l102 14l3 -8v-57h-105z
M418 29v319l112 14l3 -8v-325h-115zM1078 117q0 26 -14.5 47.5t-39.5 34t-57 12.5h-146v11l12 93h134q60 0 111.5 -25t83 -70t31.5 -103h-115zM689 0l-4 8l51 96h152v-104h-199zM736 0v104h251q25 0 49.5 -1.5t40.5 -3.5l16 -2v-97h-357zM785 211l-5 8l51 96h119v-104h-165z
M1089 0q-4 27 -7.5 57t-3.5 60h115q0 -30 3 -57t7 -46l-15 -14h-99z" />
    <glyph glyph-name="uni0635.fina" horiz-adv-x="1279" 
d="M1098 0v104h181v-104h-181zM1279 0v104q12 0 16 -13.5t4 -37.5q0 -22 -4 -37.5t-16 -15.5zM418 116v296l112 13l3 -8v-301h-115zM498 211v104h381v-104h-381zM498 0v104h381v-104h-381zM277 -231q-113 0 -174 69t-61 191h105q0 -79 33 -117.5t97 -38.5q68 0 104.5 40
t36.5 116h115q0 -81 -32.5 -139.5t-90 -89.5t-133.5 -31zM42 29v51l102 14l3 -8v-57h-105zM418 29v319l112 14l3 -8v-325h-115zM1078 117q0 26 -14.5 47.5t-39.5 34t-57 12.5h-146v11l12 93h134q60 0 111.5 -25t83 -70t31.5 -103h-115zM689 0l-4 8l51 96h152v-104h-199z
M736 0v104h251q25 0 49.5 -1.5t40.5 -3.5l16 -2v-97h-357zM785 211l-5 8l51 96h119v-104h-165zM1089 0q-4 27 -7.5 57t-3.5 60h115q0 -30 3 -57t7 -46l-15 -14h-99z" />
    <glyph glyph-name="uni0635.medi" horiz-adv-x="947" 
d="M759 0v104h188v-104h-188zM947 0v104q12 0 16 -13.5t4 -37.5q0 -22 -4 -37.5t-16 -15.5zM86 0v412l112 13l3 -8v-417h-115zM0 0v104h201v-104h-201zM0 0q-11 0 -15.5 15.5t-4.5 37.5q0 23 4.5 37t15.5 14v-104zM166 211v104h381v-104h-381zM166 0v104h381v-104h-381z
M746 117q0 26 -14.5 47.5t-39.5 34t-57 12.5h-145v11l12 93h133q60 0 111.5 -25t83 -70t31.5 -103h-115zM357 0l-4 8l51 96h152v-104h-199zM404 0v104h251q25 0 49.5 -1.5t40.5 -3.5l16 -2v-97h-357zM453 211l-4 8l51 96h118v-104h-165zM757 0q-4 27 -7.5 57t-3.5 60h115
q0 -30 3.5 -57t6.5 -46l-15 -14h-99z" />
    <glyph glyph-name="uni0635.init" horiz-adv-x="923" 
d="M86 0v412l112 13l3 -8v-417h-115zM0 0v104h201v-104h-201zM0 0q-11 0 -15.5 15.5t-4.5 37.5q0 23 4.5 37t15.5 14v-104zM166 211v104h381v-104h-381zM166 0v104h381v-104h-381zM746 117q0 26 -14.5 47.5t-39.5 34t-57 12.5h-145v11l12 93h133q60 0 111.5 -25t83 -70
t31.5 -103h-115zM357 0l-4 8l51 96h152v-104h-199zM404 0v104h251q25 0 49.5 -1.5t40.5 -3.5l16 -2v-97h-357zM453 211l-4 8l51 96h118v-104h-165zM757 0q-4 27 -7.5 57t-3.5 60h115q0 -30 3.5 -57t6.5 -46l-15 -14h-99z" />
    <glyph glyph-name="uni0637" unicode="&#x637;" horiz-adv-x="961" 
d="M125 0v745l112 14l3 -8v-751h-115zM41 0l-4 8l51 96h152v-104h-199zM205 211v104h381v-104h-381zM205 0v104h381v-104h-381zM785 117q0 26 -14.5 47.5t-39.5 34t-57 12.5h-146v11l12 93h134q60 0 111.5 -25t83 -70t31.5 -103h-115zM396 0l-4 8l51 96h152v-104h-199z
M443 0v104h251q25 0 49.5 -1.5t40.5 -3.5l16 -2v-97h-357zM492 211l-5 8l51 96h119v-104h-165zM796 0q-4 27 -7.5 57t-3.5 60h115q0 -30 3 -57t7 -46l-15 -14h-99z" />
    <glyph glyph-name="uni0637.fina" horiz-adv-x="986" 
d="M825 0v104h161v-104h-161zM986 0v104q12 0 16 -13.5t4 -37.5q0 -22 -4 -37.5t-16 -15.5zM125 0v745l112 14l3 -8v-751h-115zM41 0l-4 8l51 96h152v-104h-199zM205 211v104h381v-104h-381zM205 0v104h381v-104h-381zM785 117q0 26 -14.5 47.5t-39.5 34t-57 12.5h-146v11
l12 93h134q60 0 111.5 -25t83 -70t31.5 -103h-115zM396 0l-4 8l51 96h152v-104h-199zM443 0v104h251q25 0 49.5 -1.5t40.5 -3.5l16 -2v-97h-357zM492 211l-5 8l51 96h119v-104h-165zM796 0q-4 27 -7.5 57t-3.5 60h115q0 -30 3 -57t7 -46l-15 -14h-99z" />
    <glyph glyph-name="uni0637.medi" horiz-adv-x="947" 
d="M776 0v104h171v-104h-171zM947 0v104q12 0 16 -13.5t4 -37.5q0 -22 -4 -37.5t-16 -15.5zM0 0v104h92v-104h-92zM0 0q-11 0 -15.5 15.5t-4.5 37.5q0 23 4.5 37t15.5 14v-104zM86 0v745l112 14l3 -8v-751h-115zM2 0l-4 8l51 96h152v-104h-199zM166 211v104h381v-104h-381z
M166 0v104h381v-104h-381zM746 117q0 26 -14.5 47.5t-39.5 34t-57 12.5h-145v11l12 93h133q60 0 111.5 -25t83 -70t31.5 -103h-115zM357 0l-4 8l51 96h152v-104h-199zM404 0v104h251q25 0 49.5 -1.5t40.5 -3.5l16 -2v-97h-357zM453 211l-4 8l51 96h118v-104h-165zM757 0
q-4 27 -7.5 57t-3.5 60h115q0 -30 3.5 -57t6.5 -46l-15 -14h-99z" />
    <glyph glyph-name="uni0637.init" horiz-adv-x="923" 
d="M0 0v104h92v-104h-92zM0 0q-11 0 -15.5 15.5t-4.5 37.5q0 23 4.5 37t15.5 14v-104zM86 0v745l112 14l3 -8v-751h-115zM2 0l-4 8l51 96h152v-104h-199zM166 211v104h381v-104h-381zM166 0v104h381v-104h-381zM746 117q0 26 -14.5 47.5t-39.5 34t-57 12.5h-145v11l12 93
h133q60 0 111.5 -25t83 -70t31.5 -103h-115zM357 0l-4 8l51 96h152v-104h-199zM404 0v104h251q25 0 49.5 -1.5t40.5 -3.5l16 -2v-97h-357zM453 211l-4 8l51 96h118v-104h-165zM757 0q-4 27 -7.5 57t-3.5 60h115q0 -30 3.5 -57t6.5 -46l-15 -14h-99z" />
    <glyph glyph-name="uni0639" unicode="&#x639;" horiz-adv-x="566" 
d="M151 69q-32 49 -32 94q0 38 20 70t52 60t69.5 52t72.5 46h7l58 -85q-49 -30 -81.5 -54.5t-50.5 -44t-25.5 -34.5t-7.5 -27q0 -17 10.5 -29.5t28.5 -12.5zM187 0v104h317v-7l-30 -97h-287zM282 -200q-77 0 -131 20t-82.5 55t-28.5 80q0 71 65.5 110t173.5 39v-104
q-67 0 -98 -13t-37 -33q6 -22 37.5 -36t99.5 -14q26 0 63 2.5t69 6.5l18 -89v-10q-22 -5 -50 -8.5t-54.5 -4.5t-44.5 -1z" />
    <glyph glyph-name="uni0639.fina" horiz-adv-x="551" 
d="M285 -200q-79 0 -133.5 19.5t-83 55t-28.5 80.5q0 44 24.5 71t64.5 45t83 33q33 12 63.5 24.5t55 29t39 38t14.5 50.5q0 27 -16 40.5t-54 13.5q-32 0 -67 -8.5t-60 -20.5v-13q26 -17 48 -39t43 -45q22 -25 36.5 -39t27.5 -20.5t30.5 -8.5t45.5 -2h133v-104h-133
q-64 0 -102.5 15.5t-63 41t-46.5 54.5q-25 34 -53.5 63.5t-77.5 42.5l-6 103l3 8q46 34 110.5 55t128.5 21q83 0 134.5 -39t51.5 -120q0 -52 -21 -88.5t-54.5 -62t-73.5 -42.5t-78 -30q-30 -10 -56.5 -19.5t-44.5 -21t-24 -29.5q7 -21 38.5 -34.5t99.5 -13.5q25 0 61.5 2.5
t68.5 6.5l18 -89v-10q-22 -5 -50 -8.5t-53.5 -4.5t-42.5 -1zM551 0v104q12 0 16 -14t4 -37q0 -22 -4 -37.5t-16 -15.5z" />
    <glyph glyph-name="uni0639.medi" horiz-adv-x="523" 
d="M0 0v104h122q48 0 90.5 14t75 37t50.5 49t18 49q0 22 -17.5 34.5t-54.5 12.5q-30 0 -65 -8.5t-60 -20.5v-13q26 -17 48 -39t43 -45q22 -25 36.5 -39t27.5 -20.5t30.5 -8.5t45.5 -2h133v-104h-133q-64 0 -102.5 15.5t-63 41t-46.5 54.5q-24 34 -53 63.5t-78 42.5l-6 103
l3 8q46 34 110.5 55t127.5 21q84 0 135.5 -39t51.5 -111q0 -55 -30 -101.5t-80 -81t-111.5 -53t-125.5 -18.5h-122zM0 0q-11 0 -15.5 15.5t-4.5 37.5q0 23 4.5 37t15.5 14v-104zM523 0v104q12 0 16 -14t4 -37q0 -22 -4 -37.5t-16 -15.5z" />
    <glyph glyph-name="uni0639.init" horiz-adv-x="512" 
d="M97 69q-32 49 -32 94q0 38 20 70t52 60t69.5 52t72.5 46h7l58 -85q-49 -30 -81.5 -54.5t-50.5 -44t-25.5 -34.5t-7.5 -27q0 -17 10.5 -29.5t28.5 -12.5zM0 0v104h14q21 0 41.5 -1.5t34.5 -3.5l14 -2l29 7h317v-7l-30 -97h-420zM0 0q-11 0 -15.5 15.5t-4.5 37.5
q0 23 4.5 37t15.5 14v-104z" />
    <glyph glyph-name="uni06A1" unicode="&#x6a1;" horiz-adv-x="968" 
d="M463 0q-74 0 -150.5 5.5t-144 21t-116.5 46.5l50 81h10q51 -25 137 -37.5t214 -12.5h278q19 0 36.5 -1t29.5 -2.5l12 -1.5l-22 -12v7v7q-1 88 -25.5 140t-60.5 52q-15 0 -31.5 -10.5t-27.5 -32.5t-11 -56q0 -45 24 -67.5t75 -22.5v-76q-70 0 -118 23t-72 63t-24 90
q0 56 25 99.5t68 68.5t95 25q63 0 107 -38.5t67.5 -106.5t23.5 -160q2 -30 3 -52t2 -27l-13 -13h-441z" />
    <glyph glyph-name="uni06A1.fina" horiz-adv-x="998" 
d="M872 0v104h126v-104h-126zM998 0v104q12 0 16 -14t4 -37q0 -22 -4 -37.5t-16 -15.5zM463 0q-74 0 -150.5 5.5t-144 21t-116.5 46.5l50 81h10q51 -25 137 -37.5t214 -12.5h278q19 0 36.5 -1t29.5 -2.5l12 -1.5l-22 -12v7v7q-1 88 -25.5 140t-60.5 52q-15 0 -31.5 -10.5
t-27.5 -32.5t-11 -56q0 -45 24 -67.5t75 -22.5v-76q-70 0 -118 23t-72 63t-24 90q0 56 25 99.5t68 68.5t95 25q63 0 107 -38.5t67.5 -106.5t23.5 -160q2 -30 3 -52t2 -27l-13 -13h-441z" />
    <glyph glyph-name="uni06A1.medi" horiz-adv-x="531" 
d="M400 0v104h131v-104h-131zM531 0v104q12 0 16 -14t4 -37q0 -22 -4 -37.5t-16 -15.5zM0 0v104h273q19 0 37 -1t30 -2.5l12 -1.5l-22 -12v7v7q-2 88 -26.5 140t-59.5 52q-16 0 -32.5 -10.5t-27.5 -32.5t-11 -56q0 -45 24.5 -67.5t75.5 -22.5v-76q-70 0 -118 23t-72.5 63
t-24.5 90q0 56 25.5 99.5t68.5 68.5t95 25q62 0 106.5 -38.5t68 -106.5t23.5 -160q1 -30 2.5 -52t1.5 -27l-12 -13h-437zM0 0q-11 0 -15.5 15.5t-4.5 37.5q0 23 4.5 37t15.5 14v-104z" />
    <glyph glyph-name="uni06A1.init" horiz-adv-x="501" 
d="M0 0v104h273q19 0 37 -1t30 -2.5l12 -1.5l-22 -12v7v7q-2 88 -26.5 140t-59.5 52q-16 0 -32.5 -10.5t-27.5 -32.5t-11 -56q0 -45 24.5 -67.5t75.5 -22.5v-76q-70 0 -118 23t-72.5 63t-24.5 90q0 56 25.5 99.5t68.5 68.5t95 25q62 0 106.5 -38.5t68 -106.5t23.5 -160
q1 -30 2.5 -52t1.5 -27l-12 -13h-437zM0 0q-11 0 -15.5 15.5t-4.5 37.5q0 23 4.5 37t15.5 14v-104z" />
    <glyph glyph-name="uni066F" unicode="&#x66f;" horiz-adv-x="642" 
d="M314 -231q-129 0 -200.5 69t-71.5 191h105q0 -79 39.5 -117.5t121.5 -38.5q59 0 96 21.5t54 69.5t17 128h115q0 -54 -10.5 -110.5t-39.5 -104.5t-83 -78t-143 -30zM42 29v51l102 14l3 -8v-57h-105zM400 0q-63 0 -107 26t-67 70t-23 98q0 60 25.5 105.5t68 71.5t94.5 26
q63 0 107.5 -38.5t68 -107t23.5 -159.5h-115q0 91 -25 146t-61 55q-15 0 -31.5 -10.5t-28 -32.5t-11.5 -57q0 -44 24.5 -66.5t77.5 -22.5q30 0 48.5 7.5t32.5 22.5l27 -84q-19 -23 -51 -36.5t-77 -13.5z" />
    <glyph glyph-name="uni066F.fina" horiz-adv-x="676" 
d="M400 0q-63 0 -107 26t-67 70t-23 98q0 60 25.5 105.5t68 71.5t94.5 26q63 0 107.5 -38.5t68 -107t23.5 -159.5h-115q0 91 -25 146t-61 55q-15 0 -31.5 -10.5t-28 -32.5t-11.5 -57q0 -44 24.5 -66.5t77.5 -22.5h256v-104h-276zM314 -231q-129 0 -200.5 69t-71.5 191h105
q0 -79 39.5 -117.5t121.5 -38.5q59 0 96 21.5t54 69.5t17 128h115q0 -54 -10.5 -110.5t-39.5 -104.5t-83 -78t-143 -30zM42 29v51l102 14l3 -8v-57h-105zM676 0v104q12 0 16 -14t4 -37q0 -22 -4 -37.5t-16 -15.5z" />
    <glyph glyph-name="kafDotlessar" horiz-adv-x="843" 
d="M463 0q-74 0 -150.5 5.5t-144 21.5t-116.5 46l50 81h10q51 -25 137 -37.5t214 -12.5h204l-4 -104h-200zM661 296v449l112 14l3 -8v-455h-115zM670 0l3 42l-3 32.5t-6 83.5t-3 107v83l112 14l3 -8v-107q0 -41 2.5 -82t5 -75.5t5 -55l2.5 -20.5l-15 -14h-106zM575 0v104
h106v-104h-106zM575 0q-11 0 -15.5 15.5t-4.5 37.5q0 23 4.5 37t15.5 14v-104z" />
    <glyph glyph-name="kafDotlessar.fina" horiz-adv-x="869" 
d="M719 0v104h150v-104h-150zM869 0v104q12 0 16 -13.5t4 -37.5q0 -22 -4 -37.5t-16 -15.5zM463 0q-74 0 -150.5 5.5t-144 21.5t-116.5 46l50 81h10q51 -25 137 -37.5t214 -12.5h204l-4 -104h-200zM661 296v449l112 14l3 -8v-455h-115zM670 0l3 42l-3 32.5t-6 83.5t-3 107
v83l112 14l3 -8v-107q0 -41 2.5 -82t5 -75.5t5 -55l2.5 -20.5l-15 -14h-106zM575 0v104h106v-104h-106zM575 0q-11 0 -15.5 15.5t-4.5 37.5q0 23 4.5 37t15.5 14v-104z" />
    <glyph glyph-name="uni0643.medi" horiz-adv-x="748" 
d="M632 0v104h116v-104h-116zM748 0v104q12 0 16 -13.5t4 -37.5q0 -22 -4 -37.5t-16 -15.5zM137 276l-94 39l243 351h10l90 -56zM0 0v104h456q25 0 49.5 -1.5t40.5 -3.5l16 -2v-97h-562zM108 211l-65 104h379v-104h-314zM547 117q0 26 -14.5 47.5t-39.5 34t-57 12.5h-198v11
l12 93h186q60 0 111.5 -25t83 -70t31.5 -103h-115zM558 0q-4 27 -7.5 57t-3.5 60h115q0 -30 3 -57t7 -46l-15 -14h-99zM0 0q-11 0 -15.5 15.5t-4.5 37.5q0 23 4.5 37t15.5 14v-104z" />
    <glyph glyph-name="uni0643.init" horiz-adv-x="723" 
d="M137 276l-94 39l243 351h10l90 -56zM0 0v104h456q25 0 49.5 -1.5t40.5 -3.5l16 -2v-97h-562zM108 211l-65 104h379v-104h-314zM547 117q0 26 -14.5 47.5t-39.5 34t-57 12.5h-198v11l12 93h186q60 0 111.5 -25t83 -70t31.5 -103h-115zM558 0q-4 27 -7.5 57t-3.5 60h115
q0 -30 3 -57t7 -46l-15 -14h-99zM0 0q-11 0 -15.5 15.5t-4.5 37.5q0 23 4.5 37t15.5 14v-104z" />
    <glyph glyph-name="uni06A9" unicode="&#x6a9;" horiz-adv-x="871" 
d="M359 276l-94 39l243 351h10l90 -56zM463 0q-74 0 -150.5 5.5t-144 21t-116.5 46.5l50 81h10q51 -25 137 -37.5t214 -12.5h81v-104h-81zM544 0v104h59q25 0 49.5 -1.5t40.5 -3.5l16 -2v-97h-165zM694 117q0 26 -14.5 47.5t-39.5 34t-57 12.5h-123v11l12 93h111
q61 0 112.5 -25t82.5 -70t31 -103h-115zM705 0q-4 27 -7.5 57t-3.5 60h115q0 -30 3.5 -57t6.5 -46l-15 -14h-99zM330 211l-65 104h305v-104h-240z" />
    <glyph glyph-name="uni06A9.fina" horiz-adv-x="896" 
d="M779 0v104h117v-104h-117zM896 0v104q12 0 16 -13.5t4 -37.5q0 -22 -4 -37.5t-16 -15.5zM359 276l-94 39l243 351h10l90 -56zM463 0q-74 0 -150.5 5.5t-144 21.5t-116.5 46l50 81h10q51 -25 137 -37.5t214 -12.5h81v-104h-81zM544 0v104h59q25 0 49.5 -1.5t40.5 -3.5
l16 -2v-97h-165zM694 117q0 26 -14.5 47.5t-39.5 34t-57 12.5h-123v11l12 93h111q61 0 112.5 -25t82.5 -70t31 -103h-115zM705 0q-4 27 -7.5 57t-3.5 60h115q0 -30 3.5 -57t6.5 -46l-15 -14h-99zM330 211l-65 104h305v-104h-240z" />
    <glyph glyph-name="uni06AA" unicode="&#x6aa;" horiz-adv-x="1168" 
d="M841 0v104h60q25 0 49.5 -1.5t40.5 -3.5l16 -2v-97h-166zM1003 0q-4 27 -7.5 57t-3.5 60h115q0 -30 3 -57t7 -46l-15 -14h-99zM330 211l-65 104h602v-104h-537zM359 276l-94 39l162 233h10l86 -53zM463 0q-74 0 -150.5 5.5t-144 21t-116.5 46.5l50 81h10
q51 -25 137 -37.5t214 -12.5h378v-104h-378zM992 117q0 26 -14.5 47.5t-39.5 34t-57 12.5h-421v11l12 93h409q60 0 111.5 -25t83 -70t31.5 -103h-115z" />
    <glyph glyph-name="uni06AA.fina" horiz-adv-x="1193" 
d="M1077 0v104h116v-104h-116zM1193 0v104q12 0 16 -13.5t4 -37.5q0 -22 -4 -37.5t-16 -15.5zM841 0v104h60q25 0 49.5 -1.5t40.5 -3.5l16 -2v-97h-166zM1003 0q-4 27 -7.5 57t-3.5 60h115q0 -30 3 -57t7 -46l-15 -14h-99zM330 211l-65 104h602v-104h-537zM359 276l-94 39
l162 233h10l86 -53zM463 0q-74 0 -150.5 5.5t-144 21.5t-116.5 46l50 81h10q51 -25 137 -37.5t214 -12.5h378v-104h-378zM992 117q0 26 -14.5 47.5t-39.5 34t-57 12.5h-421v11l12 93h409q60 0 111.5 -25t83 -70t31.5 -103h-115z" />
    <glyph glyph-name="uni06AA.medi" horiz-adv-x="971" 
d="M855 0v104h116v-104h-116zM971 0v104q12 0 16 -13.5t4 -37.5q0 -22 -4 -37.5t-16 -15.5zM770 117q0 26 -14.5 47.5t-39.5 34t-57 12.5h-421v11l12 93h409q60 0 111.5 -25t83 -70t31.5 -103h-115zM0 0v104h619v-104h-619zM137 276l-94 39l162 233h10l86 -53zM108 211
l-65 104h602v-104h-537zM619 0v104h60q25 0 49.5 -1.5t40.5 -3.5l16 -2v-97h-166zM781 0q-4 27 -7.5 57t-3.5 60h115q0 -30 3 -57t7 -46l-15 -14h-99zM0 0q-11 0 -15.5 15.5t-4.5 37.5q0 23 4.5 37t15.5 14v-104z" />
    <glyph glyph-name="uni06AA.init" horiz-adv-x="946" 
d="M770 117q0 26 -14.5 47.5t-39.5 34t-57 12.5h-421v11l12 93h409q60 0 111.5 -25t83 -70t31.5 -103h-115zM0 0v104h619v-104h-619zM137 276l-94 39l162 233h10l86 -53zM108 211l-65 104h602v-104h-537zM619 0v104h60q25 0 49.5 -1.5t40.5 -3.5l16 -2v-97h-166zM781 0
q-4 27 -7.5 57t-3.5 60h115q0 -30 3 -57t7 -46l-15 -14h-99zM0 0q-11 0 -15.5 15.5t-4.5 37.5q0 23 4.5 37t15.5 14v-104z" />
    <glyph glyph-name="uni0644" unicode="&#x644;" horiz-adv-x="584" 
d="M418 212v533l112 14l3 -8v-539h-115zM277 -231q-113 0 -174 69t-61 191h105q0 -79 33 -117.5t97 -38.5q68 0 104.5 40t36.5 116h115q0 -81 -32.5 -139.5t-90 -89.5t-133.5 -31zM42 29v51l102 14l3 -8v-57h-105zM418 29v319l112 14l3 -8v-325h-115z" />
    <glyph glyph-name="uni0644.fina" horiz-adv-x="619" 
d="M512 0v104h107v-104h-107zM619 0v104q12 0 16 -13.5t4 -37.5q0 -22 -4 -37.5t-16 -15.5zM418 212v533l112 14l3 -8v-539h-115zM277 -231q-113 0 -174 69t-61 191h105q0 -79 33 -117.5t97 -38.5q68 0 104.5 40t36.5 116h115q0 -81 -32.5 -139.5t-90 -89.5t-133.5 -31z
M42 29v51l102 14l3 -8v-57h-105zM418 29v319l112 14l3 -8v-325h-115z" />
    <glyph glyph-name="uni0644.medi" horiz-adv-x="287" 
d="M171 0v104h116v-104h-116zM287 0v104q12 0 16 -13.5t4 -37.5q0 -22 -4 -37.5t-16 -15.5zM86 0v745l112 14l3 -8v-737l-15 -14h-100zM0 0v104h163v-104h-163zM0 0q-11 0 -15.5 15.5t-4.5 37.5q0 23 4.5 37t15.5 14v-104z" />
    <glyph glyph-name="uni0644.init" horiz-adv-x="264" 
d="M86 0v745l112 14l3 -8v-737l-15 -14h-100zM0 0v104h163v-104h-163zM0 0q-11 0 -15.5 15.5t-4.5 37.5q0 23 4.5 37t15.5 14v-104z" />
    <glyph glyph-name="uni0645" unicode="&#x645;" horiz-adv-x="755" 
d="M51 0l-4 8l51 96h200v-104h-247zM484 -15q-41 0 -81.5 12.5t-79.5 37.5l62 87q28 -17 51 -25t48 -8q32 0 55 12.5t36 35.5t13 54t-11.5 55t-31 38t-42.5 14q-24 0 -43.5 -14.5t-30.5 -40.5t-11 -62q0 -27 6.5 -55t15.5 -44l-101 -51q-17 30 -26.5 70t-9.5 80q0 73 29 122
t75.5 74t94.5 25q54 0 99.5 -27t73.5 -74.5t28 -109.5q0 -63 -30 -109t-80 -71.5t-109 -25.5zM217 0v104h204v-104h-204zM217 0q-11 0 -15.5 15.5t-4.5 37.5q0 23 4.5 37t15.5 14v-104z" />
    <glyph glyph-name="uni0645.ss01" horiz-adv-x="612" 
d="M210 0v104h146q40 0 65 27t25 71t-23.5 70t-61.5 26t-62 -28t-24 -78q0 -26 5.5 -51.5t15.5 -45.5l-103 -46q-16 33 -24.5 70.5t-8.5 72.5q0 65 27 112t72.5 72.5t100.5 25.5q56 0 101.5 -25t72.5 -70t27 -105q0 -57 -26.5 -103t-73 -72.5t-105.5 -26.5h-146zM47 -290
v213q0 82 41.5 131.5t121.5 49.5v-104q-25 0 -36.5 -16t-11.5 -61v-213h-115z" />
    <glyph glyph-name="uni0645.fina" horiz-adv-x="760" 
d="M560 0l1 104h199v-104h-200zM760 0v104q12 0 16 -13.5t4 -37.5q0 -22 -4 -37.5t-16 -15.5zM51 0l-4 8l51 96h200v-104h-247zM484 -15q-41 0 -81.5 12.5t-79.5 37.5l62 87q28 -17 51 -25t48 -8q32 0 55 12.5t36 35.5t13 54t-11.5 55t-31 38t-42.5 14q-24 0 -43.5 -14.5
t-30.5 -40.5t-11 -62q0 -27 6.5 -55t15.5 -44l-101 -51q-17 30 -26.5 70t-9.5 80q0 73 29 122t75.5 74t94.5 25q54 0 99.5 -27t73.5 -74.5t28 -109.5q0 -63 -30 -109t-80 -71.5t-109 -25.5zM217 0v104h204v-104h-204zM217 0q-11 0 -15.5 15.5t-4.5 37.5q0 23 4.5 37t15.5 14
v-104z" />
    <glyph glyph-name="uni0645.fina.ss01" horiz-adv-x="623" 
d="M623 0q-50 0 -97.5 17t-83.5 44l71 83q51 -40 110 -40v-104zM623 0v104q11 0 15.5 -14t4.5 -37q0 -22 -4.5 -37.5t-15.5 -15.5zM210 0v104h146q40 0 65 27t25 71t-23.5 70t-61.5 26t-62 -28t-24 -78q0 -26 5.5 -51.5t15.5 -45.5l-103 -46q-16 33 -24.5 70.5t-8.5 72.5
q0 65 27 112t72.5 72.5t100.5 25.5q56 0 101.5 -25t72.5 -70t27 -105q0 -57 -26.5 -103t-73 -72.5t-105.5 -26.5h-146zM47 -290v213q0 82 41.5 131.5t121.5 49.5v-104q-25 0 -36.5 -16t-11.5 -61v-213h-115z" />
    <glyph glyph-name="uni0645.medi" horiz-adv-x="571" 
d="M121 32q-16 31 -25.5 70.5t-9.5 78.5q0 74 29.5 122.5t75.5 73.5t95 25t94.5 -25t75 -73.5t29.5 -122.5q0 -39 -9.5 -78.5t-26.5 -70.5l-101 50q10 18 16 45t6 54q0 36 -11 62t-30 40.5t-43 14.5t-43.5 -14.5t-30.5 -40.5t-11 -62q0 -27 6 -54t16 -45zM0 0l1 104h187
l-1 -104h-187zM286 -31q-40 0 -82 12.5t-81 37.5l62 87q28 -17 52 -25t49 -8q26 0 50 8t51 25l62 -87q-39 -25 -80.5 -37.5t-82.5 -12.5zM394 0v104h177v-104h-177zM0 0q-11 0 -15.5 15.5t-4.5 37.5q0 23 4.5 37t15.5 14v-104zM571 0v104q12 0 16 -14t4 -37q0 -22 -4 -37.5
t-16 -15.5z" />
    <glyph glyph-name="uni0645.init" horiz-adv-x="538" 
d="M267 -15q-41 0 -81.5 12.5t-79.5 37.5l62 87q28 -17 51 -25t48 -8q32 0 55.5 13t36 35.5t12.5 53.5t-11.5 55t-31 38t-42.5 14q-24 0 -43.5 -14.5t-30.5 -40.5t-11 -62q0 -27 6.5 -55t15.5 -44l-101 -51q-17 30 -26.5 70t-9.5 80q0 73 29.5 122t75.5 74t95 25
q53 0 98.5 -27t73.5 -74.5t28 -109.5q0 -63 -30 -109t-80 -71.5t-109 -25.5zM0 0v104h204v-104h-204zM0 0q-11 0 -15.5 15.5t-4.5 37.5q0 23 4.5 37t15.5 14v-104z" />
    <glyph glyph-name="uni06BA" unicode="&#x6ba;" horiz-adv-x="584" 
d="M277 -231q-113 0 -174 69t-61 191h105q0 -79 33 -117.5t97 -38.5q68 0 104.5 40t36.5 116h115q0 -81 -32.5 -139.5t-90 -89.5t-133.5 -31zM42 29v51l102 14l3 -8v-57h-105zM418 29v319l112 14l3 -8v-325h-115z" />
    <glyph glyph-name="uni06BA.fina" horiz-adv-x="619" 
d="M499 0v104h120v-104h-120zM619 0v104q12 0 16 -13.5t4 -37.5q0 -22 -4 -37.5t-16 -15.5zM277 -231q-113 0 -174 69t-61 191h105q0 -79 33 -117.5t97 -38.5q68 0 104.5 40t36.5 116h115q0 -81 -32.5 -139.5t-90 -89.5t-133.5 -31zM42 29v51l102 14l3 -8v-57h-105zM418 29
v319l112 14l3 -8v-325h-115z" />
    <glyph glyph-name="uni0647" unicode="&#x647;" horiz-adv-x="503" 
d="M234 0q-58 0 -101 25t-67 69.5t-24 101.5q0 48 16 87l10 8q86 25 155 52.5t124 58.5l57 -91q-54 -30 -124.5 -58t-156.5 -55l34 30q2 2 1 -8t-1 -25q0 -45 21 -68t59 -23q47 0 119 37l80 -78q-52 -31 -103.5 -47t-98.5 -16zM330 63l3 46l-3 32.5t-6 83.5t-3 107v86
l112 14l3 -8v-114q0 -41 2.5 -82t5 -75.5t5 -55l2.5 -20.5l-15 -14h-106z" />
    <glyph glyph-name="uni0647.fina" horiz-adv-x="522" 
d="M234 25q-58 0 -101 25t-67 69.5t-24 101.5q0 48 17 89l7 6q84 25 154 52.5t127 58.5l57 -91q-53 -30 -123.5 -58t-156.5 -55l35 22q0 -3 -1 -10t-1 -19q0 -21 7 -41t24.5 -33t46.5 -13q23 0 48 7t59 23l38 -76q-29 -27 -67 -42.5t-79 -15.5zM321 0v104h201v-104h-201z
M321 0v443l112 14l3 -8v-449h-115zM522 0v104q12 0 16 -14t4 -37q0 -22 -4 -37.5t-16 -15.5z" />
    <glyph glyph-name="uni0647.medi" horiz-adv-x="530" 
d="M413 0v104h117v-104h-117zM530 0v104q12 0 16 -14t4 -37q0 -22 -4 -37.5t-16 -15.5zM280 -158q-104 0 -165 77t-61 213q0 90 26 156.5t71.5 103t103.5 36.5q52 0 95 -28t68.5 -76.5t25.5 -110.5q0 -103 -75 -158t-208 -55h-50v104h50q88 0 128 25.5t40 82.5q0 33 -11 58
t-28 39.5t-34 14.5q-20 0 -40.5 -23.5t-33.5 -67.5t-13 -106q0 -92 30 -139.5t82 -47.5q19 0 44 5.5t52 16.5l-33 -35q-6 72 -10.5 151t-4.5 149v216l112 14l3 -8v-222q0 -79 5.5 -169.5t12.5 -168.5q-100 -47 -182 -47zM0 0v104h111v-104h-111zM0 0q-11 0 -15.5 15.5
t-4.5 37.5q0 23 4.5 37t15.5 14v-104z" />
    <glyph glyph-name="uni0647.init" horiz-adv-x="514" 
d="M280 -158q-104 0 -165 77t-61 213q0 90 26 156.5t71.5 103t103.5 36.5q52 0 95 -28t68.5 -76.5t25.5 -110.5q0 -103 -75 -158t-208 -55h-50v104h50q88 0 128 25.5t40 82.5q0 33 -11 58t-28 39.5t-34 14.5q-20 0 -40.5 -23.5t-33.5 -67.5t-13 -106q0 -92 30 -139.5
t82 -47.5q19 0 44 5.5t52 16.5l-33 -35q-6 72 -10.5 151t-4.5 149v216l112 14l3 -8v-222q0 -79 5.5 -169.5t12.5 -168.5q-100 -47 -182 -47zM0 0v104h111v-104h-111zM0 0q-11 0 -15.5 15.5t-4.5 37.5q0 23 4.5 37t15.5 14v-104z" />
    <glyph glyph-name="uni06C1" unicode="&#x6c1;" horiz-adv-x="503" 
d="M234 0q-58 0 -101 25t-67 69.5t-24 101.5q0 48 16 87l10 8q86 25 155 52.5t124 58.5l57 -91q-54 -30 -124.5 -58t-156.5 -55l34 30q2 2 1 -8t-1 -25q0 -45 21 -68t59 -23q47 0 119 37l80 -78q-52 -31 -103.5 -47t-98.5 -16zM330 63l3 46l-3 32.5t-6 83.5t-3 107v86
l112 14l3 -8v-114q0 -41 2.5 -82t5 -75.5t5 -55l2.5 -20.5l-15 -14h-106z" />
    <glyph glyph-name="uni06C1.fina" horiz-adv-x="531" 
d="M134 -41l-97 56l191 303h134zM531 0q-43 0 -84 16.5t-77.5 51t-66.5 89.5t-51 133l110 28q15 -55 34 -95t40.5 -66.5t45 -39.5t49.5 -13v-104zM531 0v104q12 0 16 -14t4 -37q0 -22 -4 -37.5t-16 -15.5z" />
    <glyph glyph-name="uni06C1.medi" horiz-adv-x="447" 
d="M279 -256q-55 47 -95.5 115.5t-62 150.5t-21.5 170q-9 17 -10 34.5t0 35.5l116 -6q-2 -16 -3 -32.5t-1 -31.5q0 -52 9 -103.5t23 -97t30 -78.5t31 -47l-30 -16q6 73 26 133.5t57 96.5t90 36h9v-104h-9q-34 0 -55.5 -61.5t-18.5 -165.5l-78 -29h-7zM0 0v104q20 0 32.5 7.5
t23.5 30.5t23 70l16 59h7l104 -27l-50 -58q-20 -97 -55 -141.5t-101 -44.5zM0 0q-11 0 -15.5 15.5t-4.5 37.5q0 23 4.5 37t15.5 14v-104zM447 0v104q12 0 16 -14t4 -37q0 -22 -4 -37.5t-16 -15.5z" />
    <glyph glyph-name="uni06D5" unicode="&#x6d5;" horiz-adv-x="503" 
d="M234 0q-58 0 -101 25t-67 69.5t-24 101.5q0 48 16 87l10 8q86 25 155 52.5t124 58.5l57 -91q-54 -30 -124.5 -58t-156.5 -55l34 30q2 2 1 -8t-1 -25q0 -45 21 -68t59 -23q47 0 119 37l80 -78q-52 -31 -103.5 -47t-98.5 -16zM330 63l3 46l-3 32.5t-6 83.5t-3 107v86
l112 14l3 -8v-114q0 -41 2.5 -82t5 -75.5t5 -55l2.5 -20.5l-15 -14h-106z" />
    <glyph glyph-name="uni06BE" unicode="&#x6be;" horiz-adv-x="635" 
d="M76 0l-39 75l15 29h134v-104h-110zM401 -158q-104 0 -165 77t-61 213q0 90 26 156.5t71.5 103t103.5 36.5q53 0 96 -28t68.5 -76.5t25.5 -110.5q0 -103 -75 -158t-209 -55h-50v104h50q88 0 128.5 25.5t40.5 82.5q0 33 -11.5 58t-28 39.5t-34.5 14.5q-20 0 -40 -23.5
t-33.5 -67.5t-13.5 -106q0 -92 30 -139.5t83 -47.5q19 0 44 5.5t51 16.5l-32 -35q-7 72 -11 151t-4 149v216l112 14l3 -8v-222q0 -79 5.5 -169.5t12.5 -168.5q-101 -47 -183 -47zM121 0v104h111v-104h-111zM121 0q-11 0 -15.5 15.5t-4.5 37.5q0 23 4.5 37t15.5 14v-104z" />
    <glyph glyph-name="uni06BE.fina" horiz-adv-x="652" 
d="M41 0l-4 8l51 96h98v-104h-145zM534 0v104h118v-104h-118zM652 0v104q12 0 16 -13.5t4 -37.5q0 -22 -4 -37.5t-16 -15.5zM401 -158q-104 0 -165 77t-61 213q0 89 26 156t71.5 103.5t103.5 36.5q53 0 96 -28t68.5 -76.5t25.5 -110.5q0 -103 -75 -158t-209 -55h-50v104h50
q88 0 128.5 25.5t40.5 82.5q0 33 -11.5 58t-28 39.5t-34.5 14.5q-20 0 -40 -23.5t-33.5 -67.5t-13.5 -106q0 -92 30 -139.5t83 -47.5q19 0 44 5.5t51 16.5l-32 -35q-7 72 -11 151t-4 149v216l112 14l3 -8v-222q0 -79 5.5 -169.5t12.5 -168.5q-101 -47 -183 -47zM121 0v104
h111v-104h-111zM121 0q-11 0 -15.5 15.5t-4.5 37.5q0 23 4.5 37t15.5 14v-104z" />
    <glyph glyph-name="uni06BE.medi" horiz-adv-x="530" 
d="M413 0v104h117v-104h-117zM530 0v104q12 0 16 -14t4 -37q0 -22 -4 -37.5t-16 -15.5zM280 -158q-104 0 -165 77t-61 213q0 90 26 156.5t71.5 103t103.5 36.5q52 0 95 -28t68.5 -76.5t25.5 -110.5q0 -103 -75 -158t-208 -55h-50v104h50q88 0 128 25.5t40 82.5q0 33 -11 58
t-28 39.5t-34 14.5q-20 0 -40.5 -23.5t-33.5 -67.5t-13 -106q0 -92 30 -139.5t82 -47.5q19 0 44 5.5t52 16.5l-33 -35q-6 72 -10.5 151t-4.5 149v216l112 14l3 -8v-222q0 -79 5.5 -169.5t12.5 -168.5q-100 -47 -182 -47zM0 0v104h111v-104h-111zM0 0q-11 0 -15.5 15.5
t-4.5 37.5q0 23 4.5 37t15.5 14v-104z" />
    <glyph glyph-name="uni0648" unicode="&#x648;" horiz-adv-x="495" 
d="M252 0q-63 0 -107 26t-66 69.5t-22 97.5q0 60 25 106t67.5 72t94.5 26q64 0 108 -38.5t67.5 -107t23.5 -159.5h-115q0 91 -24.5 146t-61.5 55q-15 0 -31.5 -10.5t-27.5 -32.5t-11 -57q0 -44 24 -66.5t77 -22.5q30 0 49 7.5t33 22.5l47 -72q-24 -29 -61.5 -45.5
t-88.5 -16.5zM198 -200q-34 0 -66 6t-69 18l36 95h10q29 -8 48 -11.5t38 -3.5q70 0 101.5 42t31.5 146h115q0 -91 -26 -156.5t-80 -100.5t-139 -35z" />
    <glyph glyph-name="uni0648.fina" horiz-adv-x="530" 
d="M252 0q-63 0 -107 26t-66 69.5t-22 97.5q0 60 25 106t67.5 72t94.5 26q64 0 108 -38.5t67.5 -107t23.5 -159.5h-115q0 91 -24.5 146t-61.5 55q-15 0 -31.5 -10.5t-27.5 -32.5t-11 -57q0 -44 24 -66.5t77 -22.5h257v-104h-278zM198 -200q-34 0 -66 6t-69 18l36 95h10
q29 -8 48 -11.5t38 -3.5q70 0 101.5 42t31.5 146h115q0 -91 -26 -156.5t-80 -100.5t-139 -35zM530 0v104q12 0 16 -14t4 -37q0 -22 -4 -37.5t-16 -15.5z" />
    <glyph glyph-name="uni0649" unicode="&#x649;" horiz-adv-x="810" 
d="M328 -208q-96 0 -171.5 21t-119.5 42l42 89h10q53 -23 115 -35.5t124 -12.5q55 0 92.5 11t57 29.5t19.5 41.5q0 15 -11.5 36.5t-44.5 63.5q-41 53 -63.5 93t-22.5 84q0 72 52 119.5t131 72.5l121 -38q15 -51 29.5 -88.5t32.5 -66t41 -53.5l-81 -63h-11q-37 41 -63.5 89.5
t-46.5 114.5q-24 -8 -44.5 -20.5t-33 -29t-12.5 -37.5q0 -25 18.5 -53t43.5 -60q29 -37 54.5 -78t25.5 -86q0 -28 -14 -60t-47 -61t-87.5 -47t-135.5 -18z" />
    <glyph glyph-name="uni0649.fina" horiz-adv-x="868" 
d="M328 -208q-96 0 -171.5 21t-119.5 42l42 89h10q53 -23 115 -35.5t124 -12.5q55 0 92.5 11t57 29.5t19.5 41.5q0 15 -11.5 36.5t-44.5 63.5q-41 53 -63.5 93t-22.5 84q0 72 52 119.5t131 72.5l120 -38q29 -102 72.5 -182.5t110.5 -156.5l-84 -70q-68 75 -118 159.5
t-83 194.5l10 -10q-17 -6 -34 -14t-31 -19t-22.5 -25t-8.5 -31q0 -25 18.5 -53t43.5 -60q29 -37 54.5 -78t25.5 -86q0 -28 -14 -60t-47 -61t-87.5 -47t-135.5 -18zM757 0v104h111v-104h-111zM868 0v104q12 0 16 -14t4 -37q0 -22 -4 -37.5t-16 -15.5z" />
    <glyph glyph-name="uni06D2" unicode="&#x6d2;" horiz-adv-x="986" 
d="M396 0q-108 0 -185.5 29t-118 80t-40.5 116q0 64 39.5 124.5t109.5 102.5l96 -30q12 -43 23 -73t25.5 -53t34.5 -45l-70 -59h-12q-34 37 -56.5 73.5t-36.5 74.5q-23 -23 -36 -50.5t-13 -54.5q0 -38 27 -67.5t80 -46.5t133 -17h534l4 -8l-51 -96h-487z" />
    <glyph glyph-name="uni06D2.fina" horiz-adv-x="915" 
d="M331 -192q-64 64 -116.5 131.5t-93 144.5t-69.5 171q0 72 52 119.5t131 72.5l120 -38q28 -102 71.5 -182.5t111.5 -156.5l-85 -70q-67 75 -117.5 159.5t-83.5 194.5l10 -10q-16 -6 -33 -14t-31.5 -19t-22.5 -25t-8 -31l-13 55q25 -85 58.5 -155.5t80.5 -133.5t111 -127z
M331 -192v105h529l5 -8l-51 -97h-483zM453 0v104h462v-104h-462zM915 0v104q12 0 16 -14t4 -37q0 -22 -4 -37.5t-16 -15.5z" />
    <glyph glyph-name="uni06D2.fina.narrow" horiz-adv-x="538" 
d="M331 -192q-64 64 -116.5 131.5t-93 144.5t-69.5 171q0 72 52 119.5t131 72.5l120 -38q28 -102 71.5 -182.5t111.5 -156.5l-85 -70q-67 75 -117.5 159.5t-83.5 194.5l10 -10q-16 -6 -33 -14t-31.5 -19t-22.5 -25t-8 -31l-13 55q25 -85 58.5 -155.5t80.5 -133.5t111 -127z
M331 -192v105h529l5 -8l-51 -97h-483zM453 0v104h85v-104h-85zM538 0v104q12 0 16 -14t4 -37q0 -22 -4 -37.5t-16 -15.5z" />
    <glyph glyph-name="uni0640" unicode="&#x640;" horiz-adv-x="242" 
d="M0 0v104h242v-104h-242zM0 0q-11 0 -15.5 15.5t-4.5 37.5q0 23 4.5 37t15.5 14v-104zM242 0v104q12 0 16 -14t4 -37q0 -22 -4 -37.5t-16 -15.5z" />
    <glyph glyph-name="uni0622" unicode="&#x622;" horiz-adv-x="273" 
d="M80 0v656l112 14l3 -8v-415q0 -41 2.5 -82t5 -75.5t5 -55l2.5 -20.5l-15 -14h-115zM43 715q0 32 4.5 53.5t19.5 32.5t47 11q19 0 42 -3t47 -5.5t43 -2.5v-61q-20 -1 -44.5 2t-47.5 6t-39 3l24 4q-23 -4 -29 -14t-6 -26h-61z" />
    <glyph glyph-name="uni0623" unicode="&#x623;" horiz-adv-x="273" 
d="M80 0v656l112 14l3 -8v-415q0 -41 2.5 -82t5 -75.5t5 -55l2.5 -20.5l-15 -14h-115zM75 761q-17 26 -17 51q0 28 18.5 50t45.5 40.5t52 34.5h4l38 -54q-51 -31 -67.5 -50t-16.5 -32q0 -9 5.5 -15t14.5 -6zM44 715v65h4q13 0 24.5 -2l11.5 -2l18 4h142v-4l-18 -61h-182z
" />
    <glyph glyph-name="uni0625" unicode="&#x625;" horiz-adv-x="273" 
d="M80 0v745l112 14l3 -8v-504q0 -41 2.5 -82t5 -75.5t5 -55l2.5 -20.5l-15 -14h-115zM69 -230q-17 26 -17 51q0 28 18.5 50t45.5 40.5t52 34.5h4l38 -54q-51 -31 -67.5 -50t-16.5 -32q0 -9 5.5 -15t14.5 -6zM38 -276v65h4q13 0 24.5 -2l11.5 -2l18 4h142v-4l-18 -61h-182z
" />
    <glyph glyph-name="uni0671" unicode="&#x671;" horiz-adv-x="273" 
d="M80 0v656l112 14l3 -8v-415q0 -41 2.5 -82t5 -75.5t5 -55l2.5 -20.5l-15 -14h-115zM200 764q0 15 -12 25.5t-30 10.5h-56v47h56q38 0 66.5 -23.5t28.5 -59.5h-53zM34 715l-2 3l22 43h40v-46h-60zM62 715v132h54v-132h-54zM94 715v46h71q14 0 28 -1l14 -1v-44h-113z
M205 715q-1 13 -3 26t-2 23h53q0 -10 1.5 -22.5t2.5 -21.5l-6 -5h-46z" />
    <glyph glyph-name="uni0628" unicode="&#x628;" horiz-adv-x="929" 
d="M463 0q-74 0 -150.5 5.5t-144 21.5t-116.5 46l50 81h10q51 -25 137 -37.5t214 -12.5h290l-3 -104h-287zM757 0l3 42l-3 32.5t-6 83.5t-3 107v83l112 14l3 -8v-107q0 -41 2.5 -82t5 -75.5t5 -55l2.5 -20.5l-15 -14h-106zM662 0v104h106v-104h-106zM662 0q-11 0 -15.5 15.5
t-4.5 37.5q0 23 4.5 37t15.5 14v-104zM465 -203q-23 0 -38.5 15.5t-15.5 37.5q0 23 16 38.5t38 15.5q23 0 38.5 -15.5t15.5 -38.5q0 -22 -16 -37.5t-38 -15.5z" />
    <glyph glyph-name="uni062A" unicode="&#x62a;" horiz-adv-x="929" 
d="M463 0q-74 0 -150.5 5.5t-144 21.5t-116.5 46l50 81h10q51 -25 137 -37.5t214 -12.5h290l-3 -104h-287zM757 0l3 42l-3 32.5t-6 83.5t-3 107v83l112 14l3 -8v-107q0 -41 2.5 -82t5 -75.5t5 -55l2.5 -20.5l-15 -14h-106zM662 0v104h106v-104h-106zM662 0q-11 0 -15.5 15.5
t-4.5 37.5q0 23 4.5 37t15.5 14v-104zM404 338q-23 0 -38.5 15.5t-15.5 37.5q0 23 16 38.5t38 15.5q23 0 38.5 -15.5t15.5 -38.5q0 -22 -16 -37.5t-38 -15.5zM526 338q-23 0 -38.5 15.5t-15.5 37.5q0 23 16 38.5t38 15.5q23 0 38.5 -15.5t15.5 -38.5q0 -22 -16 -37.5
t-38 -15.5z" />
    <glyph glyph-name="uni062B" unicode="&#x62b;" horiz-adv-x="929" 
d="M463 0q-74 0 -150.5 5.5t-144 21.5t-116.5 46l50 81h10q51 -25 137 -37.5t214 -12.5h290l-3 -104h-287zM757 0l3 42l-3 32.5t-6 83.5t-3 107v83l112 14l3 -8v-107q0 -41 2.5 -82t5 -75.5t5 -55l2.5 -20.5l-15 -14h-106zM662 0v104h106v-104h-106zM662 0q-11 0 -15.5 15.5
t-4.5 37.5q0 23 4.5 37t15.5 14v-104zM404 338q-23 0 -38.5 15.5t-15.5 37.5q0 23 16 38.5t38 15.5q23 0 38.5 -15.5t15.5 -38.5q0 -22 -16 -37.5t-38 -15.5zM526 338q-23 0 -38.5 15.5t-15.5 37.5q0 23 16 38.5t38 15.5q23 0 38.5 -15.5t15.5 -38.5q0 -22 -16 -37.5
t-38 -15.5zM465 442q-23 0 -38.5 15.5t-15.5 37.5q0 23 16 38.5t38 15.5q23 0 38.5 -15.5t15.5 -38.5q0 -22 -16 -37.5t-38 -15.5z" />
    <glyph glyph-name="uni0679" unicode="&#x679;" horiz-adv-x="929" 
d="M463 0q-74 0 -150.5 5.5t-144 21.5t-116.5 46l50 81h10q51 -25 137 -37.5t214 -12.5h290l-3 -104h-287zM757 0l3 42l-3 32.5t-6 83.5t-3 107v83l112 14l3 -8v-107q0 -41 2.5 -82t5 -75.5t5 -55l2.5 -20.5l-15 -14h-106zM662 0v104h106v-104h-106zM662 0q-11 0 -15.5 15.5
t-4.5 37.5q0 23 4.5 37t15.5 14v-104zM520 387q0 15 -12 25.5t-30 10.5h-56v47h56q38 0 66.5 -23.5t28.5 -59.5h-53zM354 338l-2 3l22 43h40v-46h-60zM414 338v46h71q14 0 28 -1l14 -1v-44h-113zM525 338q-1 13 -3 26t-2 23h53q0 -10 1.5 -22.5t2.5 -21.5l-6 -5h-46z
M382 338v175l54 4v-179h-54z" />
    <glyph glyph-name="uni067A" unicode="&#x67a;" horiz-adv-x="929" 
d="M463 0q-74 0 -150.5 5.5t-144 21.5t-116.5 46l50 81h10q51 -25 137 -37.5t214 -12.5h290l-3 -104h-287zM757 0l3 42l-3 32.5t-6 83.5t-3 107v83l112 14l3 -8v-107q0 -41 2.5 -82t5 -75.5t5 -55l2.5 -20.5l-15 -14h-106zM662 0v104h106v-104h-106zM662 0q-11 0 -15.5 15.5
t-4.5 37.5q0 23 4.5 37t15.5 14v-104zM517 392q0 -23 -15 -38.5t-38 -15.5q-22 0 -38 16t-16 38q0 23 16 38.5t38 15.5q23 0 38 -16t15 -38zM517 514q0 -23 -15 -38.5t-38 -15.5q-22 0 -38 16t-16 38q0 23 16 38.5t38 15.5q23 0 38 -16t15 -38z" />
    <glyph glyph-name="uni067B" unicode="&#x67b;" horiz-adv-x="929" 
d="M463 0q-74 0 -150.5 5.5t-144 21.5t-116.5 46l50 81h10q51 -25 137 -37.5t214 -12.5h290l-3 -104h-287zM757 0l3 42l-3 32.5t-6 83.5t-3 107v83l112 14l3 -8v-107q0 -41 2.5 -82t5 -75.5t5 -55l2.5 -20.5l-15 -14h-106zM662 0v104h106v-104h-106zM662 0q-11 0 -15.5 15.5
t-4.5 37.5q0 23 4.5 37t15.5 14v-104zM518 -272q0 -23 -15 -38.5t-38 -15.5q-22 0 -38 16t-16 38q0 23 16 38.5t38 15.5q23 0 38 -16t15 -38zM518 -150q0 -23 -15 -38.5t-38 -15.5q-22 0 -38 16t-16 38q0 23 16 38.5t38 15.5q23 0 38 -16t15 -38z" />
    <glyph glyph-name="uni067C" unicode="&#x67c;" horiz-adv-x="929" 
d="M463 0q-74 0 -150.5 5.5t-144 21.5t-116.5 46l50 81h10q51 -25 137 -37.5t214 -12.5h290l-3 -104h-287zM757 0l3 42l-3 32.5t-6 83.5t-3 107v83l112 14l3 -8v-107q0 -41 2.5 -82t5 -75.5t5 -55l2.5 -20.5l-15 -14h-106zM662 0v104h106v-104h-106zM662 0q-11 0 -15.5 15.5
t-4.5 37.5q0 23 4.5 37t15.5 14v-104zM404 338q-23 0 -38.5 15.5t-15.5 37.5q0 23 16 38.5t38 15.5q23 0 38.5 -15.5t15.5 -38.5q0 -22 -16 -37.5t-38 -15.5zM526 338q-23 0 -38.5 15.5t-15.5 37.5q0 23 16 38.5t38 15.5q23 0 38.5 -15.5t15.5 -38.5q0 -22 -16 -37.5
t-38 -15.5zM465 -142q-45 0 -71.5 24t-26.5 66q0 45 28.5 77t69.5 32q42 0 70 -31t28 -78q0 -43 -26.5 -66.5t-71.5 -23.5zM465 -86q42 0 42 38q0 21 -11.5 34.5t-30.5 13.5q-18 0 -30 -14t-12 -36q0 -36 42 -36z" />
    <glyph glyph-name="uni067D" unicode="&#x67d;" horiz-adv-x="929" 
d="M463 0q-74 0 -150.5 5.5t-144 21.5t-116.5 46l50 81h10q51 -25 137 -37.5t214 -12.5h290l-3 -104h-287zM757 0l3 42l-3 32.5t-6 83.5t-3 107v83l112 14l3 -8v-107q0 -41 2.5 -82t5 -75.5t5 -55l2.5 -20.5l-15 -14h-106zM662 0v104h106v-104h-106zM662 0q-11 0 -15.5 15.5
t-4.5 37.5q0 23 4.5 37t15.5 14v-104zM404 442q-23 0 -38.5 15.5t-15.5 37.5q0 23 16 38.5t38 15.5q23 0 38.5 -15.5t15.5 -38.5q0 -22 -16 -37.5t-38 -15.5zM526 442q-23 0 -38.5 15.5t-15.5 37.5q0 23 16 38.5t38 15.5q23 0 38.5 -15.5t15.5 -38.5q0 -22 -16 -37.5
t-38 -15.5zM465 338q-23 0 -38.5 15.5t-15.5 37.5q0 23 16 38.5t38 15.5q23 0 38.5 -15.5t15.5 -38.5q0 -22 -16 -37.5t-38 -15.5z" />
    <glyph glyph-name="uni067E" unicode="&#x67e;" horiz-adv-x="929" 
d="M463 0q-74 0 -150.5 5.5t-144 21.5t-116.5 46l50 81h10q51 -25 137 -37.5t214 -12.5h290l-3 -104h-287zM757 0l3 42l-3 32.5t-6 83.5t-3 107v83l112 14l3 -8v-107q0 -41 2.5 -82t5 -75.5t5 -55l2.5 -20.5l-15 -14h-106zM662 0v104h106v-104h-106zM662 0q-11 0 -15.5 15.5
t-4.5 37.5q0 23 4.5 37t15.5 14v-104zM404 -203q-23 0 -38.5 15.5t-15.5 37.5q0 23 16 38.5t38 15.5q23 0 38.5 -15.5t15.5 -38.5q0 -22 -16 -37.5t-38 -15.5zM526 -203q-23 0 -38.5 15.5t-15.5 37.5q0 23 16 38.5t38 15.5q23 0 38.5 -15.5t15.5 -38.5q0 -22 -16 -37.5
t-38 -15.5zM465 -307q-23 0 -38.5 15.5t-15.5 37.5q0 23 16 38.5t38 15.5q23 0 38.5 -15.5t15.5 -38.5q0 -22 -16 -37.5t-38 -15.5z" />
    <glyph glyph-name="uni067F" unicode="&#x67f;" horiz-adv-x="929" 
d="M463 0q-74 0 -150.5 5.5t-144 21.5t-116.5 46l50 81h10q51 -25 137 -37.5t214 -12.5h290l-3 -104h-287zM757 0l3 42l-3 32.5t-6 83.5t-3 107v83l112 14l3 -8v-107q0 -41 2.5 -82t5 -75.5t5 -55l2.5 -20.5l-15 -14h-106zM662 0v104h106v-104h-106zM662 0q-11 0 -15.5 15.5
t-4.5 37.5q0 23 4.5 37t15.5 14v-104zM404 338q-23 0 -38.5 15.5t-15.5 37.5q0 23 16 38.5t38 15.5q23 0 38.5 -15.5t15.5 -38.5q0 -22 -16 -37.5t-38 -15.5zM404 460q-23 0 -38.5 15.5t-15.5 37.5q0 23 16 38.5t38 15.5q23 0 38.5 -15.5t15.5 -38.5q0 -22 -16 -37.5
t-38 -15.5zM526 338q-23 0 -38.5 15.5t-15.5 37.5q0 23 16 38.5t38 15.5q23 0 38.5 -15.5t15.5 -38.5q0 -22 -16 -37.5t-38 -15.5zM526 460q-23 0 -38.5 15.5t-15.5 37.5q0 23 16 38.5t38 15.5q23 0 38.5 -15.5t15.5 -38.5q0 -22 -16 -37.5t-38 -15.5z" />
    <glyph glyph-name="uni0680" unicode="&#x680;" horiz-adv-x="929" 
d="M463 0q-74 0 -150.5 5.5t-144 21.5t-116.5 46l50 81h10q51 -25 137 -37.5t214 -12.5h290l-3 -104h-287zM757 0l3 42l-3 32.5t-6 83.5t-3 107v83l112 14l3 -8v-107q0 -41 2.5 -82t5 -75.5t5 -55l2.5 -20.5l-15 -14h-106zM662 0v104h106v-104h-106zM662 0q-11 0 -15.5 15.5
t-4.5 37.5q0 23 4.5 37t15.5 14v-104zM404 -326q-23 0 -38.5 15.5t-15.5 37.5q0 23 16 38.5t38 15.5q23 0 38.5 -15.5t15.5 -38.5q0 -22 -16 -37.5t-38 -15.5zM404 -204q-23 0 -38.5 15.5t-15.5 37.5q0 23 16 38.5t38 15.5q23 0 38.5 -15.5t15.5 -38.5q0 -22 -16 -37.5
t-38 -15.5zM526 -326q-23 0 -38.5 15.5t-15.5 37.5q0 23 16 38.5t38 15.5q23 0 38.5 -15.5t15.5 -38.5q0 -22 -16 -37.5t-38 -15.5zM526 -204q-23 0 -38.5 15.5t-15.5 37.5q0 23 16 38.5t38 15.5q23 0 38.5 -15.5t15.5 -38.5q0 -22 -16 -37.5t-38 -15.5z" />
    <glyph glyph-name="uni0751" unicode="&#x751;" horiz-adv-x="929" 
d="M463 0q-74 0 -150.5 5.5t-144 21.5t-116.5 46l50 81h10q51 -25 137 -37.5t214 -12.5h290l-3 -104h-287zM757 0l3 42l-3 32.5t-6 83.5t-3 107v83l112 14l3 -8v-107q0 -41 2.5 -82t5 -75.5t5 -55l2.5 -20.5l-15 -14h-106zM662 0v104h106v-104h-106zM662 0q-11 0 -15.5 15.5
t-4.5 37.5q0 23 4.5 37t15.5 14v-104zM465 -203q-23 0 -38.5 15.5t-15.5 37.5q0 23 16 38.5t38 15.5q23 0 38.5 -15.5t15.5 -38.5q0 -22 -16 -37.5t-38 -15.5zM404 338q-23 0 -38.5 15.5t-15.5 37.5q0 23 16 38.5t38 15.5q23 0 38.5 -15.5t15.5 -38.5q0 -22 -16 -37.5
t-38 -15.5zM526 338q-23 0 -38.5 15.5t-15.5 37.5q0 23 16 38.5t38 15.5q23 0 38.5 -15.5t15.5 -38.5q0 -22 -16 -37.5t-38 -15.5zM465 442q-23 0 -38.5 15.5t-15.5 37.5q0 23 16 38.5t38 15.5q23 0 38.5 -15.5t15.5 -38.5q0 -22 -16 -37.5t-38 -15.5z" />
    <glyph glyph-name="uni0752" unicode="&#x752;" horiz-adv-x="929" 
d="M463 0q-74 0 -150.5 5.5t-144 21.5t-116.5 46l50 81h10q51 -25 137 -37.5t214 -12.5h290l-3 -104h-287zM757 0l3 42l-3 32.5t-6 83.5t-3 107v83l112 14l3 -8v-107q0 -41 2.5 -82t5 -75.5t5 -55l2.5 -20.5l-15 -14h-106zM662 0v104h106v-104h-106zM662 0q-11 0 -15.5 15.5
t-4.5 37.5q0 23 4.5 37t15.5 14v-104zM404 -307q-23 0 -38.5 15.5t-15.5 37.5q0 23 16 38.5t38 15.5q23 0 38.5 -15.5t15.5 -38.5q0 -22 -16 -37.5t-38 -15.5zM526 -307q-23 0 -38.5 15.5t-15.5 37.5q0 23 16 38.5t38 15.5q23 0 38.5 -15.5t15.5 -38.5q0 -22 -16 -37.5
t-38 -15.5zM465 -203q-23 0 -38.5 15.5t-15.5 37.5q0 23 16 38.5t38 15.5q23 0 38.5 -15.5t15.5 -38.5q0 -22 -16 -37.5t-38 -15.5z" />
    <glyph glyph-name="uni0753" unicode="&#x753;" horiz-adv-x="929" 
d="M463 0q-74 0 -150.5 5.5t-144 21.5t-116.5 46l50 81h10q51 -25 137 -37.5t214 -12.5h290l-3 -104h-287zM757 0l3 42l-3 32.5t-6 83.5t-3 107v83l112 14l3 -8v-107q0 -41 2.5 -82t5 -75.5t5 -55l2.5 -20.5l-15 -14h-106zM662 0v104h106v-104h-106zM662 0q-11 0 -15.5 15.5
t-4.5 37.5q0 23 4.5 37t15.5 14v-104zM404 -307q-23 0 -38.5 15.5t-15.5 37.5q0 23 16 38.5t38 15.5q23 0 38.5 -15.5t15.5 -38.5q0 -22 -16 -37.5t-38 -15.5zM526 -307q-23 0 -38.5 15.5t-15.5 37.5q0 23 16 38.5t38 15.5q23 0 38.5 -15.5t15.5 -38.5q0 -22 -16 -37.5
t-38 -15.5zM465 -203q-23 0 -38.5 15.5t-15.5 37.5q0 23 16 38.5t38 15.5q23 0 38.5 -15.5t15.5 -38.5q0 -22 -16 -37.5t-38 -15.5zM404 338q-23 0 -38.5 15.5t-15.5 37.5q0 23 16 38.5t38 15.5q23 0 38.5 -15.5t15.5 -38.5q0 -22 -16 -37.5t-38 -15.5zM526 338
q-23 0 -38.5 15.5t-15.5 37.5q0 23 16 38.5t38 15.5q23 0 38.5 -15.5t15.5 -38.5q0 -22 -16 -37.5t-38 -15.5z" />
    <glyph glyph-name="uni0754" unicode="&#x754;" horiz-adv-x="929" 
d="M463 0q-74 0 -150.5 5.5t-144 21.5t-116.5 46l50 81h10q51 -25 137 -37.5t214 -12.5h290l-3 -104h-287zM757 0l3 42l-3 32.5t-6 83.5t-3 107v83l112 14l3 -8v-107q0 -41 2.5 -82t5 -75.5t5 -55l2.5 -20.5l-15 -14h-106zM662 0v104h106v-104h-106zM662 0q-11 0 -15.5 15.5
t-4.5 37.5q0 23 4.5 37t15.5 14v-104zM404 -203q-23 0 -38.5 15.5t-15.5 37.5q0 23 16 38.5t38 15.5q23 0 38.5 -15.5t15.5 -38.5q0 -22 -16 -37.5t-38 -15.5zM526 -203q-23 0 -38.5 15.5t-15.5 37.5q0 23 16 38.5t38 15.5q23 0 38.5 -15.5t15.5 -38.5q0 -22 -16 -37.5
t-38 -15.5zM465 338q-23 0 -38.5 15.5t-15.5 37.5q0 23 16 38.5t38 15.5q23 0 38.5 -15.5t15.5 -38.5q0 -22 -16 -37.5t-38 -15.5z" />
    <glyph glyph-name="uni0755" unicode="&#x755;" horiz-adv-x="929" 
d="M463 0q-74 0 -150.5 5.5t-144 21.5t-116.5 46l50 81h10q51 -25 137 -37.5t214 -12.5h290l-3 -104h-287zM757 0l3 42l-3 32.5t-6 83.5t-3 107v83l112 14l3 -8v-107q0 -41 2.5 -82t5 -75.5t5 -55l2.5 -20.5l-15 -14h-106zM662 0v104h106v-104h-106zM662 0q-11 0 -15.5 15.5
t-4.5 37.5q0 23 4.5 37t15.5 14v-104zM433 -96l69 -9l52 -172l-3 -5h-52l-38 154l5 1l-34 -155h-55l-2 5l50 173z" />
    <glyph glyph-name="uni0756" unicode="&#x756;" horiz-adv-x="929" 
d="M463 0q-74 0 -150.5 5.5t-144 21.5t-116.5 46l50 81h10q51 -25 137 -37.5t214 -12.5h290l-3 -104h-287zM757 0l3 42l-3 32.5t-6 83.5t-3 107v83l112 14l3 -8v-107q0 -41 2.5 -82t5 -75.5t5 -55l2.5 -20.5l-15 -14h-106zM662 0v104h106v-104h-106zM662 0q-11 0 -15.5 15.5
t-4.5 37.5q0 23 4.5 37t15.5 14v-104zM433 338l-8 8l-50 173l2 5h55l34 -155l-5 1l38 154h52l3 -5l-52 -173z" />
    <glyph glyph-name="uni08A0" unicode="&#x8a0;" horiz-adv-x="929" 
d="M463 0q-74 0 -150.5 5.5t-144 21.5t-116.5 46l50 81h10q51 -25 137 -37.5t214 -12.5h290l-3 -104h-287zM757 0l3 42l-3 32.5t-6 83.5t-3 107v83l112 14l3 -8v-107q0 -41 2.5 -82t5 -75.5t5 -55l2.5 -20.5l-15 -14h-106zM662 0v104h106v-104h-106zM662 0q-11 0 -15.5 15.5
t-4.5 37.5q0 23 4.5 37t15.5 14v-104zM433 -282l-8 8l-50 173l2 5h55l34 -155l-5 1l38 154h52l3 -5l-52 -173z" />
    <glyph glyph-name="uni08A1" unicode="&#x8a1;" horiz-adv-x="929" 
d="M463 0q-74 0 -150.5 5.5t-144 21.5t-116.5 46l50 81h10q51 -25 137 -37.5t214 -12.5h290l-3 -104h-287zM757 0l3 42l-3 32.5t-6 83.5t-3 107v83l112 14l3 -8v-107q0 -41 2.5 -82t5 -75.5t5 -55l2.5 -20.5l-15 -14h-106zM662 0v104h106v-104h-106zM662 0q-11 0 -15.5 15.5
t-4.5 37.5q0 23 4.5 37t15.5 14v-104zM465 -203q-23 0 -38.5 15.5t-15.5 37.5q0 23 16 38.5t38 15.5q23 0 38.5 -15.5t15.5 -38.5q0 -22 -16 -37.5t-38 -15.5zM395 384q-17 26 -17 51q0 28 18.5 50t45.5 40.5t52 34.5h4l38 -54q-51 -31 -67.5 -50t-16.5 -32q0 -9 5.5 -15
t14.5 -6zM364 338v65h4q13 0 24.5 -2l11.5 -2l18 4h142v-4l-18 -61h-182z" />
    <glyph glyph-name="uni08BE" unicode="&#x8be;" horiz-adv-x="929" 
d="M463 0q-74 0 -150.5 5.5t-144 21.5t-116.5 46l50 81h10q51 -25 137 -37.5t214 -12.5h290l-3 -104h-287zM757 0l3 42l-3 32.5t-6 83.5t-3 107v83l112 14l3 -8v-107q0 -41 2.5 -82t5 -75.5t5 -55l2.5 -20.5l-15 -14h-106zM662 0v104h106v-104h-106zM662 0q-11 0 -15.5 15.5
t-4.5 37.5q0 23 4.5 37t15.5 14v-104zM404 -203q-23 0 -38.5 15.5t-15.5 37.5q0 23 16 38.5t38 15.5q23 0 38.5 -15.5t15.5 -38.5q0 -22 -16 -37.5t-38 -15.5zM526 -203q-23 0 -38.5 15.5t-15.5 37.5q0 23 16 38.5t38 15.5q23 0 38.5 -15.5t15.5 -38.5q0 -22 -16 -37.5
t-38 -15.5zM465 -307q-23 0 -38.5 15.5t-15.5 37.5q0 23 16 38.5t38 15.5q23 0 38.5 -15.5t15.5 -38.5q0 -22 -16 -37.5t-38 -15.5zM433 338l-8 8l-50 173l2 5h55l34 -155l-5 1l38 154h52l3 -5l-52 -173z" />
    <glyph glyph-name="uni08BF" unicode="&#x8bf;" horiz-adv-x="929" 
d="M463 0q-74 0 -150.5 5.5t-144 21.5t-116.5 46l50 81h10q51 -25 137 -37.5t214 -12.5h290l-3 -104h-287zM757 0l3 42l-3 32.5t-6 83.5t-3 107v83l112 14l3 -8v-107q0 -41 2.5 -82t5 -75.5t5 -55l2.5 -20.5l-15 -14h-106zM662 0v104h106v-104h-106zM662 0q-11 0 -15.5 15.5
t-4.5 37.5q0 23 4.5 37t15.5 14v-104zM404 338q-23 0 -38.5 15.5t-15.5 37.5q0 23 16 38.5t38 15.5q23 0 38.5 -15.5t15.5 -38.5q0 -22 -16 -37.5t-38 -15.5zM526 338q-23 0 -38.5 15.5t-15.5 37.5q0 23 16 38.5t38 15.5q23 0 38.5 -15.5t15.5 -38.5q0 -22 -16 -37.5
t-38 -15.5zM433 504l-8 8l-50 173l2 5h55l34 -155l-5 1l38 154h52l3 -5l-52 -173z" />
    <glyph glyph-name="uni08C0" unicode="&#x8c0;" horiz-adv-x="929" 
d="M463 0q-74 0 -150.5 5.5t-144 21.5t-116.5 46l50 81h10q51 -25 137 -37.5t214 -12.5h290l-3 -104h-287zM757 0l3 42l-3 32.5t-6 83.5t-3 107v83l112 14l3 -8v-107q0 -41 2.5 -82t5 -75.5t5 -55l2.5 -20.5l-15 -14h-106zM662 0v104h106v-104h-106zM662 0q-11 0 -15.5 15.5
t-4.5 37.5q0 23 4.5 37t15.5 14v-104zM520 387q0 15 -12 25.5t-30 10.5h-56v47h56q38 0 66.5 -23.5t28.5 -59.5h-53zM354 338l-2 3l22 43h40v-46h-60zM414 338v46h71q14 0 28 -1l14 -1v-44h-113zM525 338q-1 13 -3 26t-2 23h53q0 -10 1.5 -22.5t2.5 -21.5l-6 -5h-46z
M382 338v175l54 4v-179h-54zM433 529l-8 8l-50 173l2 5h55l34 -155l-5 1l38 154h52l3 -5l-52 -173z" />
    <glyph glyph-name="uni062C" unicode="&#x62c;" horiz-adv-x="742" 
d="M623 10q-68 15 -138.5 44.5t-138 71.5t-127.5 92.5t-107 106.5l82 66h7q32 -39 79.5 -84t107.5 -87t128 -74.5t141 -47.5zM279 0v104h16q35 0 62 -1.5t42.5 -3.5l15.5 -2l94 7h176v-7l-29 -97h-377zM282 -200q-77 0 -131 20t-82.5 55t-28.5 80q0 71 65.5 110t173.5 39
v-104q-67 0 -98 -13t-37 -33q6 -22 37.5 -36t99.5 -14q19 0 44.5 1t51.5 4l18 -91v-11q-30 -4 -61 -5.5t-52 -1.5zM544 -180q-23 0 -38.5 15.5t-15.5 37.5q0 23 16 38.5t38 15.5q23 0 38.5 -15.5t15.5 -38.5q0 -22 -16 -37.5t-38 -15.5z" />
    <glyph glyph-name="uni062E" unicode="&#x62e;" horiz-adv-x="742" 
d="M623 10q-68 15 -138.5 44.5t-138 71.5t-127.5 92.5t-107 106.5l82 66h7q32 -39 79.5 -84t107.5 -87t128 -74.5t141 -47.5zM279 0v104h16q35 0 62 -1.5t42.5 -3.5l15.5 -2l94 7h176v-7l-29 -97h-377zM282 -200q-77 0 -131 20t-82.5 55t-28.5 80q0 71 65.5 110t173.5 39
v-104q-67 0 -98 -13t-37 -33q6 -22 37.5 -36t99.5 -14q19 0 44.5 1t51.5 4l18 -91v-11q-30 -4 -61 -5.5t-52 -1.5zM285 471q-23 0 -38.5 15.5t-15.5 37.5q0 23 16 38.5t38 15.5q23 0 38.5 -15.5t15.5 -38.5q0 -22 -16 -37.5t-38 -15.5z" />
    <glyph glyph-name="uni0681" unicode="&#x681;" horiz-adv-x="742" 
d="M623 10q-68 15 -138.5 44.5t-138 71.5t-127.5 92.5t-107 106.5l82 66h7q32 -39 79.5 -84t107.5 -87t128 -74.5t141 -47.5zM279 0v104h16q35 0 62 -1.5t42.5 -3.5l15.5 -2l94 7h176v-7l-29 -97h-377zM282 -200q-77 0 -131 20t-82.5 55t-28.5 80q0 71 65.5 110t173.5 39
v-104q-67 0 -98 -13t-37 -33q6 -22 37.5 -36t99.5 -14q19 0 44.5 1t51.5 4l18 -91v-11q-30 -4 -61 -5.5t-52 -1.5zM216 517q-17 26 -17 51q0 28 18.5 50t45.5 40.5t52 34.5h4l38 -54q-51 -31 -67.5 -50t-16.5 -32q0 -9 5.5 -15t14.5 -6zM185 471v65h4q13 0 24.5 -2l11.5 -2
l18 4h142v-4l-18 -61h-182z" />
    <glyph glyph-name="uni0682" unicode="&#x682;" horiz-adv-x="742" 
d="M623 10q-68 15 -138.5 44.5t-138 71.5t-127.5 92.5t-107 106.5l82 66h7q32 -39 79.5 -84t107.5 -87t128 -74.5t141 -47.5zM279 0v104h16q35 0 62 -1.5t42.5 -3.5l15.5 -2l94 7h176v-7l-29 -97h-377zM282 -200q-77 0 -131 20t-82.5 55t-28.5 80q0 71 65.5 110t173.5 39
v-104q-67 0 -98 -13t-37 -33q6 -22 37.5 -36t99.5 -14q19 0 44.5 1t51.5 4l18 -91v-11q-30 -4 -61 -5.5t-52 -1.5zM338 525q0 -23 -15 -38.5t-38 -15.5q-22 0 -38 16t-16 38q0 23 16 38.5t38 15.5q23 0 38 -16t15 -38zM338 647q0 -23 -15 -38.5t-38 -15.5q-22 0 -38 16
t-16 38q0 23 16 38.5t38 15.5q23 0 38 -16t15 -38z" />
    <glyph glyph-name="uni0683" unicode="&#x683;" horiz-adv-x="742" 
d="M623 10q-68 15 -138.5 44.5t-138 71.5t-127.5 92.5t-107 106.5l82 66h7q32 -39 79.5 -84t107.5 -87t128 -74.5t141 -47.5zM279 0v104h16q35 0 62 -1.5t42.5 -3.5l15.5 -2l94 7h176v-7l-29 -97h-377zM282 -200q-77 0 -131 20t-82.5 55t-28.5 80q0 71 65.5 110t173.5 39
v-104q-67 0 -98 -13t-37 -33q6 -22 37.5 -36t99.5 -14q19 0 44.5 1t51.5 4l18 -91v-11q-30 -4 -61 -5.5t-52 -1.5zM483 -179q-23 0 -38.5 15.5t-15.5 37.5q0 23 16 38.5t38 15.5q23 0 38.5 -15.5t15.5 -38.5q0 -22 -16 -37.5t-38 -15.5zM605 -179q-23 0 -38.5 15.5
t-15.5 37.5q0 23 16 38.5t38 15.5q23 0 38.5 -15.5t15.5 -38.5q0 -22 -16 -37.5t-38 -15.5z" />
    <glyph glyph-name="uni0684" unicode="&#x684;" horiz-adv-x="742" 
d="M623 10q-68 15 -138.5 44.5t-138 71.5t-127.5 92.5t-107 106.5l82 66h7q32 -39 79.5 -84t107.5 -87t128 -74.5t141 -47.5zM279 0v104h16q35 0 62 -1.5t42.5 -3.5l15.5 -2l94 7h176v-7l-29 -97h-377zM282 -200q-77 0 -131 20t-82.5 55t-28.5 80q0 71 65.5 110t173.5 39
v-104q-67 0 -98 -13t-37 -33q6 -22 37.5 -36t99.5 -14q19 0 44.5 1t51.5 4l18 -91v-11q-30 -4 -61 -5.5t-52 -1.5zM597 -228q0 -23 -15 -38.5t-38 -15.5q-22 0 -38 16t-16 38q0 23 16 38.5t38 15.5q23 0 38 -16t15 -38zM597 -106q0 -23 -15 -38.5t-38 -15.5q-22 0 -38 16
t-16 38q0 23 16 38.5t38 15.5q23 0 38 -16t15 -38z" />
    <glyph glyph-name="uni0685" unicode="&#x685;" horiz-adv-x="742" 
d="M623 10q-68 15 -138.5 44.5t-138 71.5t-127.5 92.5t-107 106.5l82 66h7q32 -39 79.5 -84t107.5 -87t128 -74.5t141 -47.5zM279 0v104h16q35 0 62 -1.5t42.5 -3.5l15.5 -2l94 7h176v-7l-29 -97h-377zM282 -200q-77 0 -131 20t-82.5 55t-28.5 80q0 71 65.5 110t173.5 39
v-104q-67 0 -98 -13t-37 -33q6 -22 37.5 -36t99.5 -14q19 0 44.5 1t51.5 4l18 -91v-11q-30 -4 -61 -5.5t-52 -1.5zM224 471q-23 0 -38.5 15.5t-15.5 37.5q0 23 16 38.5t38 15.5q23 0 38.5 -15.5t15.5 -38.5q0 -22 -16 -37.5t-38 -15.5zM346 471q-23 0 -38.5 15.5t-15.5 37.5
q0 23 16 38.5t38 15.5q23 0 38.5 -15.5t15.5 -38.5q0 -22 -16 -37.5t-38 -15.5zM285 575q-23 0 -38.5 15.5t-15.5 37.5q0 23 16 38.5t38 15.5q23 0 38.5 -15.5t15.5 -38.5q0 -22 -16 -37.5t-38 -15.5z" />
    <glyph glyph-name="uni0686" unicode="&#x686;" horiz-adv-x="742" 
d="M623 10q-68 15 -138.5 44.5t-138 71.5t-127.5 92.5t-107 106.5l82 66h7q32 -39 79.5 -84t107.5 -87t128 -74.5t141 -47.5zM279 0v104h16q35 0 62 -1.5t42.5 -3.5l15.5 -2l94 7h176v-7l-29 -97h-377zM282 -200q-77 0 -131 20t-82.5 55t-28.5 80q0 71 65.5 110t173.5 39
v-104q-67 0 -98 -13t-37 -33q6 -22 37.5 -36t99.5 -14q19 0 44.5 1t51.5 4l18 -91v-11q-30 -4 -61 -5.5t-52 -1.5zM483 -153q-23 0 -38.5 15.5t-15.5 37.5q0 23 16 38.5t38 15.5q23 0 38.5 -15.5t15.5 -38.5q0 -22 -16 -37.5t-38 -15.5zM605 -153q-23 0 -38.5 15.5
t-15.5 37.5q0 23 16 38.5t38 15.5q23 0 38.5 -15.5t15.5 -38.5q0 -22 -16 -37.5t-38 -15.5zM544 -256q-23 0 -38.5 15.5t-15.5 37.5q0 23 16 38.5t38 15.5q23 0 38.5 -15.5t15.5 -38.5q0 -22 -16 -37.5t-38 -15.5z" />
    <glyph glyph-name="uni0687" unicode="&#x687;" horiz-adv-x="742" 
d="M623 10q-68 15 -138.5 44.5t-138 71.5t-127.5 92.5t-107 106.5l82 66h7q32 -39 79.5 -84t107.5 -87t128 -74.5t141 -47.5zM279 0v104h16q35 0 62 -1.5t42.5 -3.5l15.5 -2l94 7h176v-7l-29 -97h-377zM282 -200q-77 0 -131 20t-82.5 55t-28.5 80q0 71 65.5 110t173.5 39
v-104q-67 0 -98 -13t-37 -33q6 -22 37.5 -36t99.5 -14q19 0 44.5 1t51.5 4l18 -91v-11q-30 -4 -61 -5.5t-52 -1.5zM483 -275q-23 0 -38.5 15.5t-15.5 37.5q0 23 16 38.5t38 15.5q23 0 38.5 -15.5t15.5 -38.5q0 -22 -16 -37.5t-38 -15.5zM483 -153q-23 0 -38.5 15.5
t-15.5 37.5q0 23 16 38.5t38 15.5q23 0 38.5 -15.5t15.5 -38.5q0 -22 -16 -37.5t-38 -15.5zM605 -275q-23 0 -38.5 15.5t-15.5 37.5q0 23 16 38.5t38 15.5q23 0 38.5 -15.5t15.5 -38.5q0 -22 -16 -37.5t-38 -15.5zM605 -153q-23 0 -38.5 15.5t-15.5 37.5q0 23 16 38.5
t38 15.5q23 0 38.5 -15.5t15.5 -38.5q0 -22 -16 -37.5t-38 -15.5z" />
    <glyph glyph-name="uni06BF" unicode="&#x6bf;" horiz-adv-x="742" 
d="M623 10q-68 15 -138.5 44.5t-138 71.5t-127.5 92.5t-107 106.5l82 66h7q32 -39 79.5 -84t107.5 -87t128 -74.5t141 -47.5zM279 0v104h16q35 0 62 -1.5t42.5 -3.5l15.5 -2l94 7h176v-7l-29 -97h-377zM282 -200q-77 0 -131 20t-82.5 55t-28.5 80q0 71 65.5 110t173.5 39
v-104q-67 0 -98 -13t-37 -33q6 -22 37.5 -36t99.5 -14q19 0 44.5 1t51.5 4l18 -91v-11q-30 -4 -61 -5.5t-52 -1.5zM483 -153q-23 0 -38.5 15.5t-15.5 37.5q0 23 16 38.5t38 15.5q23 0 38.5 -15.5t15.5 -38.5q0 -22 -16 -37.5t-38 -15.5zM605 -153q-23 0 -38.5 15.5
t-15.5 37.5q0 23 16 38.5t38 15.5q23 0 38.5 -15.5t15.5 -38.5q0 -22 -16 -37.5t-38 -15.5zM544 -256q-23 0 -38.5 15.5t-15.5 37.5q0 23 16 38.5t38 15.5q23 0 38.5 -15.5t15.5 -38.5q0 -22 -16 -37.5t-38 -15.5zM285 471q-23 0 -38.5 15.5t-15.5 37.5q0 23 16 38.5
t38 15.5q23 0 38.5 -15.5t15.5 -38.5q0 -22 -16 -37.5t-38 -15.5z" />
    <glyph glyph-name="uni0757" unicode="&#x757;" horiz-adv-x="742" 
d="M623 10q-68 15 -138.5 44.5t-138 71.5t-127.5 92.5t-107 106.5l82 66h7q32 -39 79.5 -84t107.5 -87t128 -74.5t141 -47.5zM279 0v104h16q35 0 62 -1.5t42.5 -3.5l15.5 -2l94 7h176v-7l-29 -97h-377zM282 -200q-77 0 -131 20t-82.5 55t-28.5 80q0 71 65.5 110t173.5 39
v-104q-67 0 -98 -13t-37 -33q6 -22 37.5 -36t99.5 -14q19 0 44.5 1t51.5 4l18 -91v-11q-30 -4 -61 -5.5t-52 -1.5zM224 471q-23 0 -38.5 15.5t-15.5 37.5q0 23 16 38.5t38 15.5q23 0 38.5 -15.5t15.5 -38.5q0 -22 -16 -37.5t-38 -15.5zM346 471q-23 0 -38.5 15.5t-15.5 37.5
q0 23 16 38.5t38 15.5q23 0 38.5 -15.5t15.5 -38.5q0 -22 -16 -37.5t-38 -15.5z" />
    <glyph glyph-name="uni0758" unicode="&#x758;" horiz-adv-x="742" 
d="M623 10q-68 15 -138.5 44.5t-138 71.5t-127.5 92.5t-107 106.5l82 66h7q32 -39 79.5 -84t107.5 -87t128 -74.5t141 -47.5zM279 0v104h16q35 0 62 -1.5t42.5 -3.5l15.5 -2l94 7h176v-7l-29 -97h-377zM282 -200q-77 0 -131 20t-82.5 55t-28.5 80q0 71 65.5 110t173.5 39
v-104q-67 0 -98 -13t-37 -33q6 -22 37.5 -36t99.5 -14q19 0 44.5 1t51.5 4l18 -91v-11q-30 -4 -61 -5.5t-52 -1.5zM483 -263q-23 0 -38.5 15.5t-15.5 37.5q0 23 16 38.5t38 15.5q23 0 38.5 -15.5t15.5 -38.5q0 -22 -16 -37.5t-38 -15.5zM605 -263q-23 0 -38.5 15.5
t-15.5 37.5q0 23 16 38.5t38 15.5q23 0 38.5 -15.5t15.5 -38.5q0 -22 -16 -37.5t-38 -15.5zM544 -159q-23 0 -38.5 15.5t-15.5 37.5q0 23 16 38.5t38 15.5q23 0 38.5 -15.5t15.5 -38.5q0 -22 -16 -37.5t-38 -15.5z" />
    <glyph glyph-name="uni076E" unicode="&#x76e;" horiz-adv-x="742" 
d="M623 10q-68 15 -138.5 44.5t-138 71.5t-127.5 92.5t-107 106.5l82 66h7q32 -39 79.5 -84t107.5 -87t128 -74.5t141 -47.5zM279 0v104h16q35 0 62 -1.5t42.5 -3.5l15.5 -2l94 7h176v-7l-29 -97h-377zM282 -200q-77 0 -131 20t-82.5 55t-28.5 80q0 71 65.5 110t173.5 39
v-104q-67 0 -98 -13t-37 -33q6 -22 37.5 -36t99.5 -14q19 0 44.5 1t51.5 4l18 -91v-11q-30 -4 -61 -5.5t-52 -1.5zM599 -149q0 15 -12 25.5t-30 10.5h-56v47h56q38 0 66.5 -23.5t28.5 -59.5h-53zM433 -198l-2 3l22 43h40v-46h-60zM493 -198v46h71q14 0 28 -1l14 -1v-44h-113
zM604 -198q-1 13 -3 26t-2 23h53q0 -10 1.5 -22.5t2.5 -21.5l-6 -5h-46zM461 -198v175l54 4v-179h-54z" />
    <glyph glyph-name="uni076F" unicode="&#x76f;" horiz-adv-x="742" 
d="M623 10q-68 15 -138.5 44.5t-138 71.5t-127.5 92.5t-107 106.5l82 66h7q32 -39 79.5 -84t107.5 -87t128 -74.5t141 -47.5zM279 0v104h16q35 0 62 -1.5t42.5 -3.5l15.5 -2l94 7h176v-7l-29 -97h-377zM282 -200q-77 0 -131 20t-82.5 55t-28.5 80q0 71 65.5 110t173.5 39
v-104q-67 0 -98 -13t-37 -33q6 -22 37.5 -36t99.5 -14q19 0 44.5 1t51.5 4l18 -91v-11q-30 -4 -61 -5.5t-52 -1.5zM483 -323q-23 0 -38.5 15.5t-15.5 37.5q0 23 16 38.5t38 15.5q23 0 38.5 -15.5t15.5 -38.5q0 -22 -16 -37.5t-38 -15.5zM605 -323q-23 0 -38.5 15.5
t-15.5 37.5q0 23 16 38.5t38 15.5q23 0 38.5 -15.5t15.5 -38.5q0 -22 -16 -37.5t-38 -15.5zM599 -149q0 15 -12 25.5t-30 10.5h-56v47h56q38 0 66.5 -23.5t28.5 -59.5h-53zM433 -198l-2 3l22 43h40v-46h-60zM493 -198v46h71q14 0 28 -1l14 -1v-44h-113zM604 -198
q-1 13 -3 26t-2 23h53q0 -10 1.5 -22.5t2.5 -21.5l-6 -5h-46zM461 -198v175l54 4v-179h-54z" />
    <glyph glyph-name="uni0772" unicode="&#x772;" horiz-adv-x="742" 
d="M623 10q-68 15 -138.5 44.5t-138 71.5t-127.5 92.5t-107 106.5l82 66h7q32 -39 79.5 -84t107.5 -87t128 -74.5t141 -47.5zM279 0v104h16q35 0 62 -1.5t42.5 -3.5l15.5 -2l94 7h176v-7l-29 -97h-377zM282 -200q-77 0 -131 20t-82.5 55t-28.5 80q0 71 65.5 110t173.5 39
v-104q-67 0 -98 -13t-37 -33q6 -22 37.5 -36t99.5 -14q19 0 44.5 1t51.5 4l18 -91v-11q-30 -4 -61 -5.5t-52 -1.5zM340 520q0 15 -12 25.5t-30 10.5h-56v47h56q38 0 66.5 -23.5t28.5 -59.5h-53zM174 471l-2 3l22 43h40v-46h-60zM234 471v46h71q14 0 28 -1l14 -1v-44h-113z
M345 471q-1 13 -3 26t-2 23h53q0 -10 1.5 -22.5t2.5 -21.5l-6 -5h-46zM202 471v175l54 4v-179h-54z" />
    <glyph glyph-name="uni08A2" unicode="&#x8a2;" horiz-adv-x="742" 
d="M623 10q-68 15 -138.5 44.5t-138 71.5t-127.5 92.5t-107 106.5l82 66h7q32 -39 79.5 -84t107.5 -87t128 -74.5t141 -47.5zM279 0v104h16q35 0 62 -1.5t42.5 -3.5l15.5 -2l94 7h176v-7l-29 -97h-377zM282 -200q-77 0 -131 20t-82.5 55t-28.5 80q0 71 65.5 110t173.5 39
v-104q-67 0 -98 -13t-37 -33q6 -22 37.5 -36t99.5 -14q19 0 44.5 1t51.5 4l18 -91v-11q-30 -4 -61 -5.5t-52 -1.5zM544 -180q-23 0 -38.5 15.5t-15.5 37.5q0 23 16 38.5t38 15.5q23 0 38.5 -15.5t15.5 -38.5q0 -22 -16 -37.5t-38 -15.5zM224 471q-23 0 -38.5 15.5
t-15.5 37.5q0 23 16 38.5t38 15.5q23 0 38.5 -15.5t15.5 -38.5q0 -22 -16 -37.5t-38 -15.5zM346 471q-23 0 -38.5 15.5t-15.5 37.5q0 23 16 38.5t38 15.5q23 0 38.5 -15.5t15.5 -38.5q0 -22 -16 -37.5t-38 -15.5z" />
    <glyph glyph-name="uni08C1" unicode="&#x8c1;" horiz-adv-x="742" 
d="M623 10q-68 15 -138.5 44.5t-138 71.5t-127.5 92.5t-107 106.5l82 66h7q32 -39 79.5 -84t107.5 -87t128 -74.5t141 -47.5zM279 0v104h16q35 0 62 -1.5t42.5 -3.5l15.5 -2l94 7h176v-7l-29 -97h-377zM282 -200q-77 0 -131 20t-82.5 55t-28.5 80q0 71 65.5 110t173.5 39
v-104q-67 0 -98 -13t-37 -33q6 -22 37.5 -36t99.5 -14q19 0 44.5 1t51.5 4l18 -91v-11q-30 -4 -61 -5.5t-52 -1.5zM483 -153q-23 0 -38.5 15.5t-15.5 37.5q0 23 16 38.5t38 15.5q23 0 38.5 -15.5t15.5 -38.5q0 -22 -16 -37.5t-38 -15.5zM605 -153q-23 0 -38.5 15.5
t-15.5 37.5q0 23 16 38.5t38 15.5q23 0 38.5 -15.5t15.5 -38.5q0 -22 -16 -37.5t-38 -15.5zM544 -256q-23 0 -38.5 15.5t-15.5 37.5q0 23 16 38.5t38 15.5q23 0 38.5 -15.5t15.5 -38.5q0 -22 -16 -37.5t-38 -15.5zM254 471l-8 8l-50 173l2 5h55l34 -155l-5 1l38 154h52l3 -5
l-52 -173z" />
    <glyph glyph-name="uni08C5" unicode="&#x8c5;" horiz-adv-x="742" 
d="M623 10q-68 15 -138.5 44.5t-138 71.5t-127.5 92.5t-107 106.5l82 66h7q32 -39 79.5 -84t107.5 -87t128 -74.5t141 -47.5zM279 0v104h16q35 0 62 -1.5t42.5 -3.5l15.5 -2l94 7h176v-7l-29 -97h-377zM282 -200q-77 0 -131 20t-82.5 55t-28.5 80q0 71 65.5 110t173.5 39
v-104q-67 0 -98 -13t-37 -33q6 -22 37.5 -36t99.5 -14q19 0 44.5 1t51.5 4l18 -91v-11q-30 -4 -61 -5.5t-52 -1.5zM544 -180q-23 0 -38.5 15.5t-15.5 37.5q0 23 16 38.5t38 15.5q23 0 38.5 -15.5t15.5 -38.5q0 -22 -16 -37.5t-38 -15.5zM224 471q-23 0 -38.5 15.5
t-15.5 37.5q0 23 16 38.5t38 15.5q23 0 38.5 -15.5t15.5 -38.5q0 -22 -16 -37.5t-38 -15.5zM346 471q-23 0 -38.5 15.5t-15.5 37.5q0 23 16 38.5t38 15.5q23 0 38.5 -15.5t15.5 -38.5q0 -22 -16 -37.5t-38 -15.5zM285 575q-23 0 -38.5 15.5t-15.5 37.5q0 23 16 38.5t38 15.5
q23 0 38.5 -15.5t15.5 -38.5q0 -22 -16 -37.5t-38 -15.5z" />
    <glyph glyph-name="uni08C6" unicode="&#x8c6;" horiz-adv-x="742" 
d="M623 10q-68 15 -138.5 44.5t-138 71.5t-127.5 92.5t-107 106.5l82 66h7q32 -39 79.5 -84t107.5 -87t128 -74.5t141 -47.5zM279 0v104h16q35 0 62 -1.5t42.5 -3.5l15.5 -2l94 7h176v-7l-29 -97h-377zM282 -200q-77 0 -131 20t-82.5 55t-28.5 80q0 71 65.5 110t173.5 39
v-104q-67 0 -98 -13t-37 -33q6 -22 37.5 -36t99.5 -14q19 0 44.5 1t51.5 4l18 -91v-11q-30 -4 -61 -5.5t-52 -1.5zM544 -180q-22 0 -38 15.5t-16 37.5q0 23 16 38.5t38 15.5q23 0 38.5 -15.5t15.5 -38.5q0 -22 -15.5 -37.5t-38.5 -15.5zM508 -265q-14 0 -23.5 9t-9.5 23
q0 13 9.5 22.5t22.5 9.5q14 0 23.5 -9.5t9.5 -22.5q0 -14 -9.5 -23t-22.5 -9zM581 -265q-14 0 -23.5 9t-9.5 23q0 13 9.5 22.5t23.5 9.5q13 0 22.5 -9.5t9.5 -22.5q0 -14 -9.5 -23t-22.5 -9zM544 -328q-13 0 -23 9.5t-10 23.5q0 13 10 22.5t23 9.5q14 0 23.5 -9.5t9.5 -22.5
q0 -14 -9.5 -23.5t-23.5 -9.5z" />
    <glyph glyph-name="uni088A" unicode="&#x88a;" horiz-adv-x="742" 
d="M623 10q-68 15 -138.5 44.5t-138 71.5t-127.5 92.5t-107 106.5l82 66h7q32 -39 79.5 -84t107.5 -87t128 -74.5t141 -47.5zM279 0v104h16q35 0 62 -1.5t42.5 -3.5l15.5 -2l94 7h176v-7l-29 -97h-377zM282 -200q-77 0 -131 20t-82.5 55t-28.5 80q0 71 65.5 110t173.5 39
v-104q-67 0 -98 -13t-37 -33q6 -22 37.5 -36t99.5 -14q19 0 44.5 1t51.5 4l18 -91v-11q-30 -4 -61 -5.5t-52 -1.5zM513 -47l69 -9l52 -172l-3 -5h-52l-38 154l5 1l-34 -155h-55l-2 5l50 173z" />
    <glyph glyph-name="uni0630" unicode="&#x630;" horiz-adv-x="591" 
d="M415 117q0 26 -14.5 47.5t-39.5 34t-57 12.5h-146v11l12 93h134q60 0 111.5 -25t83 -70t31.5 -103h-115zM26 0l-4 8l51 96h152v-104h-199zM73 0v104h251q25 0 49.5 -1.5t40.5 -3.5l16 -2v-97h-357zM122 211l-5 8l51 96h119v-104h-165zM426 0q-4 27 -7.5 57t-3.5 60h115
q0 -30 3 -57t7 -46l-15 -14h-99zM280 411q-23 0 -38.5 15.5t-15.5 37.5q0 23 16 38.5t38 15.5q23 0 38.5 -15.5t15.5 -38.5q0 -22 -16 -37.5t-38 -15.5z" />
    <glyph glyph-name="uni0688" unicode="&#x688;" horiz-adv-x="591" 
d="M415 117q0 26 -14.5 47.5t-39.5 34t-57 12.5h-146v11l12 93h134q60 0 111.5 -25t83 -70t31.5 -103h-115zM26 0l-4 8l51 96h152v-104h-199zM73 0v104h251q25 0 49.5 -1.5t40.5 -3.5l16 -2v-97h-357zM122 211l-5 8l51 96h119v-104h-165zM426 0q-4 27 -7.5 57t-3.5 60h115
q0 -30 3 -57t7 -46l-15 -14h-99zM335 460q0 15 -12 25.5t-30 10.5h-56v47h56q38 0 66.5 -23.5t28.5 -59.5h-53zM169 411l-2 3l22 43h40v-46h-60zM229 411v46h71q14 0 28 -1l14 -1v-44h-113zM340 411q-1 13 -3 26t-2 23h53q0 -10 1.5 -22.5t2.5 -21.5l-6 -5h-46zM197 411v175
l54 4v-179h-54z" />
    <glyph glyph-name="uni0689" unicode="&#x689;" horiz-adv-x="591" 
d="M415 117q0 26 -14.5 47.5t-39.5 34t-57 12.5h-146v11l12 93h134q60 0 111.5 -25t83 -70t31.5 -103h-115zM26 0l-4 8l51 96h152v-104h-199zM73 0v104h251q25 0 49.5 -1.5t40.5 -3.5l16 -2v-97h-357zM122 211l-5 8l51 96h119v-104h-165zM426 0q-4 27 -7.5 57t-3.5 60h115
q0 -30 3 -57t7 -46l-15 -14h-99zM300 -142q-45 0 -71.5 24t-26.5 66q0 45 28.5 77t69.5 32q42 0 70 -31t28 -78q0 -43 -26.5 -66.5t-71.5 -23.5zM300 -86q42 0 42 38q0 21 -11.5 34.5t-30.5 13.5q-18 0 -30 -14t-12 -36q0 -36 42 -36z" />
    <glyph glyph-name="uni068A" unicode="&#x68a;" horiz-adv-x="591" 
d="M415 117q0 26 -14.5 47.5t-39.5 34t-57 12.5h-146v11l12 93h134q60 0 111.5 -25t83 -70t31.5 -103h-115zM26 0l-4 8l51 96h152v-104h-199zM73 0v104h251q25 0 49.5 -1.5t40.5 -3.5l16 -2v-97h-357zM122 211l-5 8l51 96h119v-104h-165zM426 0q-4 27 -7.5 57t-3.5 60h115
q0 -30 3 -57t7 -46l-15 -14h-99zM300 -203q-23 0 -38.5 15.5t-15.5 37.5q0 23 16 38.5t38 15.5q23 0 38.5 -15.5t15.5 -38.5q0 -22 -16 -37.5t-38 -15.5z" />
    <glyph glyph-name="uni068B" unicode="&#x68b;" horiz-adv-x="591" 
d="M415 117q0 26 -14.5 47.5t-39.5 34t-57 12.5h-146v11l12 93h134q60 0 111.5 -25t83 -70t31.5 -103h-115zM26 0l-4 8l51 96h152v-104h-199zM73 0v104h251q25 0 49.5 -1.5t40.5 -3.5l16 -2v-97h-357zM122 211l-5 8l51 96h119v-104h-165zM426 0q-4 27 -7.5 57t-3.5 60h115
q0 -30 3 -57t7 -46l-15 -14h-99zM300 -203q-23 0 -38.5 15.5t-15.5 37.5q0 23 16 38.5t38 15.5q23 0 38.5 -15.5t15.5 -38.5q0 -22 -16 -37.5t-38 -15.5zM335 460q0 15 -12 25.5t-30 10.5h-56v47h56q38 0 66.5 -23.5t28.5 -59.5h-53zM169 411l-2 3l22 43h40v-46h-60z
M229 411v46h71q14 0 28 -1l14 -1v-44h-113zM340 411q-1 13 -3 26t-2 23h53q0 -10 1.5 -22.5t2.5 -21.5l-6 -5h-46zM197 411v175l54 4v-179h-54z" />
    <glyph glyph-name="uni068C" unicode="&#x68c;" horiz-adv-x="591" 
d="M415 117q0 26 -14.5 47.5t-39.5 34t-57 12.5h-146v11l12 93h134q60 0 111.5 -25t83 -70t31.5 -103h-115zM26 0l-4 8l51 96h152v-104h-199zM73 0v104h251q25 0 49.5 -1.5t40.5 -3.5l16 -2v-97h-357zM122 211l-5 8l51 96h119v-104h-165zM426 0q-4 27 -7.5 57t-3.5 60h115
q0 -30 3 -57t7 -46l-15 -14h-99zM219 411q-23 0 -38.5 15.5t-15.5 37.5q0 23 16 38.5t38 15.5q23 0 38.5 -15.5t15.5 -38.5q0 -22 -16 -37.5t-38 -15.5zM341 411q-23 0 -38.5 15.5t-15.5 37.5q0 23 16 38.5t38 15.5q23 0 38.5 -15.5t15.5 -38.5q0 -22 -16 -37.5t-38 -15.5z
" />
    <glyph glyph-name="uni068D" unicode="&#x68d;" horiz-adv-x="591" 
d="M415 117q0 26 -14.5 47.5t-39.5 34t-57 12.5h-146v11l12 93h134q60 0 111.5 -25t83 -70t31.5 -103h-115zM26 0l-4 8l51 96h152v-104h-199zM73 0v104h251q25 0 49.5 -1.5t40.5 -3.5l16 -2v-97h-357zM122 211l-5 8l51 96h119v-104h-165zM426 0q-4 27 -7.5 57t-3.5 60h115
q0 -30 3 -57t7 -46l-15 -14h-99zM239 -203q-23 0 -38.5 15.5t-15.5 37.5q0 23 16 38.5t38 15.5q23 0 38.5 -15.5t15.5 -38.5q0 -22 -16 -37.5t-38 -15.5zM361 -203q-23 0 -38.5 15.5t-15.5 37.5q0 23 16 38.5t38 15.5q23 0 38.5 -15.5t15.5 -38.5q0 -22 -16 -37.5t-38 -15.5
z" />
    <glyph glyph-name="uni068E" unicode="&#x68e;" horiz-adv-x="591" 
d="M415 117q0 26 -14.5 47.5t-39.5 34t-57 12.5h-146v11l12 93h134q60 0 111.5 -25t83 -70t31.5 -103h-115zM26 0l-4 8l51 96h152v-104h-199zM73 0v104h251q25 0 49.5 -1.5t40.5 -3.5l16 -2v-97h-357zM122 211l-5 8l51 96h119v-104h-165zM426 0q-4 27 -7.5 57t-3.5 60h115
q0 -30 3 -57t7 -46l-15 -14h-99zM219 411q-23 0 -38.5 15.5t-15.5 37.5q0 23 16 38.5t38 15.5q23 0 38.5 -15.5t15.5 -38.5q0 -22 -16 -37.5t-38 -15.5zM341 411q-23 0 -38.5 15.5t-15.5 37.5q0 23 16 38.5t38 15.5q23 0 38.5 -15.5t15.5 -38.5q0 -22 -16 -37.5t-38 -15.5z
M280 515q-23 0 -38.5 15.5t-15.5 37.5q0 23 16 38.5t38 15.5q23 0 38.5 -15.5t15.5 -38.5q0 -22 -16 -37.5t-38 -15.5z" />
    <glyph glyph-name="uni068F" unicode="&#x68f;" horiz-adv-x="591" 
d="M415 117q0 26 -14.5 47.5t-39.5 34t-57 12.5h-146v11l12 93h134q60 0 111.5 -25t83 -70t31.5 -103h-115zM26 0l-4 8l51 96h152v-104h-199zM73 0v104h251q25 0 49.5 -1.5t40.5 -3.5l16 -2v-97h-357zM122 211l-5 8l51 96h119v-104h-165zM426 0q-4 27 -7.5 57t-3.5 60h115
q0 -30 3 -57t7 -46l-15 -14h-99zM219 515q-23 0 -38.5 15.5t-15.5 37.5q0 23 16 38.5t38 15.5q23 0 38.5 -15.5t15.5 -38.5q0 -22 -16 -37.5t-38 -15.5zM341 515q-23 0 -38.5 15.5t-15.5 37.5q0 23 16 38.5t38 15.5q23 0 38.5 -15.5t15.5 -38.5q0 -22 -16 -37.5t-38 -15.5z
M280 411q-23 0 -38.5 15.5t-15.5 37.5q0 23 16 38.5t38 15.5q23 0 38.5 -15.5t15.5 -38.5q0 -22 -16 -37.5t-38 -15.5z" />
    <glyph glyph-name="uni0690" unicode="&#x690;" horiz-adv-x="591" 
d="M415 117q0 26 -14.5 47.5t-39.5 34t-57 12.5h-146v11l12 93h134q60 0 111.5 -25t83 -70t31.5 -103h-115zM26 0l-4 8l51 96h152v-104h-199zM73 0v104h251q25 0 49.5 -1.5t40.5 -3.5l16 -2v-97h-357zM122 211l-5 8l51 96h119v-104h-165zM426 0q-4 27 -7.5 57t-3.5 60h115
q0 -30 3 -57t7 -46l-15 -14h-99zM219 411q-23 0 -38.5 15.5t-15.5 37.5q0 23 16 38.5t38 15.5q23 0 38.5 -15.5t15.5 -38.5q0 -22 -16 -37.5t-38 -15.5zM219 533q-23 0 -38.5 15.5t-15.5 37.5q0 23 16 38.5t38 15.5q23 0 38.5 -15.5t15.5 -38.5q0 -22 -16 -37.5t-38 -15.5z
M341 411q-23 0 -38.5 15.5t-15.5 37.5q0 23 16 38.5t38 15.5q23 0 38.5 -15.5t15.5 -38.5q0 -22 -16 -37.5t-38 -15.5zM341 533q-23 0 -38.5 15.5t-15.5 37.5q0 23 16 38.5t38 15.5q23 0 38.5 -15.5t15.5 -38.5q0 -22 -16 -37.5t-38 -15.5z" />
    <glyph glyph-name="uni06EE" unicode="&#x6ee;" horiz-adv-x="591" 
d="M415 117q0 26 -14.5 47.5t-39.5 34t-57 12.5h-146v11l12 93h134q60 0 111.5 -25t83 -70t31.5 -103h-115zM26 0l-4 8l51 96h152v-104h-199zM73 0v104h251q25 0 49.5 -1.5t40.5 -3.5l16 -2v-97h-357zM122 211l-5 8l51 96h119v-104h-165zM426 0q-4 27 -7.5 57t-3.5 60h115
q0 -30 3 -57t7 -46l-15 -14h-99zM249 597l69 -9l52 -172l-3 -5h-52l-38 154l5 1l-34 -155h-55l-2 5l50 173z" />
    <glyph glyph-name="uni0759" unicode="&#x759;" horiz-adv-x="591" 
d="M415 117q0 26 -14.5 47.5t-39.5 34t-57 12.5h-146v11l12 93h134q60 0 111.5 -25t83 -70t31.5 -103h-115zM26 0l-4 8l51 96h152v-104h-199zM73 0v104h251q25 0 49.5 -1.5t40.5 -3.5l16 -2v-97h-357zM122 211l-5 8l51 96h119v-104h-165zM426 0q-4 27 -7.5 57t-3.5 60h115
q0 -30 3 -57t7 -46l-15 -14h-99zM353 -272q0 -23 -15 -38.5t-38 -15.5q-22 0 -38 16t-16 38q0 23 16 38.5t38 15.5q23 0 38 -16t15 -38zM353 -150q0 -23 -15 -38.5t-38 -15.5q-22 0 -38 16t-16 38q0 23 16 38.5t38 15.5q23 0 38 -16t15 -38zM335 460q0 15 -12 25.5t-30 10.5
h-56v47h56q38 0 66.5 -23.5t28.5 -59.5h-53zM169 411l-2 3l22 43h40v-46h-60zM229 411v46h71q14 0 28 -1l14 -1v-44h-113zM340 411q-1 13 -3 26t-2 23h53q0 -10 1.5 -22.5t2.5 -21.5l-6 -5h-46zM197 411v175l54 4v-179h-54z" />
    <glyph glyph-name="uni075A" unicode="&#x75a;" horiz-adv-x="591" 
d="M415 117q0 26 -14.5 47.5t-39.5 34t-57 12.5h-146v11l12 93h134q60 0 111.5 -25t83 -70t31.5 -103h-115zM26 0l-4 8l51 96h152v-104h-199zM73 0v104h251q25 0 49.5 -1.5t40.5 -3.5l16 -2v-97h-357zM122 211l-5 8l51 96h119v-104h-165zM426 0q-4 27 -7.5 57t-3.5 60h115
q0 -30 3 -57t7 -46l-15 -14h-99zM268 -96l69 -9l52 -172l-3 -5h-52l-38 154l5 1l-34 -155h-55l-2 5l50 173z" />
    <glyph glyph-name="uni08AE" unicode="&#x8ae;" horiz-adv-x="591" 
d="M415 117q0 26 -14.5 47.5t-39.5 34t-57 12.5h-146v11l12 93h134q60 0 111.5 -25t83 -70t31.5 -103h-115zM26 0l-4 8l51 96h152v-104h-199zM73 0v104h251q25 0 49.5 -1.5t40.5 -3.5l16 -2v-97h-357zM122 211l-5 8l51 96h119v-104h-165zM426 0q-4 27 -7.5 57t-3.5 60h115
q0 -30 3 -57t7 -46l-15 -14h-99zM239 -203q-23 0 -38.5 15.5t-15.5 37.5q0 23 16 38.5t38 15.5q23 0 38.5 -15.5t15.5 -38.5q0 -22 -16 -37.5t-38 -15.5zM361 -203q-23 0 -38.5 15.5t-15.5 37.5q0 23 16 38.5t38 15.5q23 0 38.5 -15.5t15.5 -38.5q0 -22 -16 -37.5t-38 -15.5
zM300 -307q-23 0 -38.5 15.5t-15.5 37.5q0 23 16 38.5t38 15.5q23 0 38.5 -15.5t15.5 -38.5q0 -22 -16 -37.5t-38 -15.5z" />
    <glyph glyph-name="uni0632" unicode="&#x632;" horiz-adv-x="289" 
d="M0 -200v104q64 0 93 39t29 132v273l112 14l3 -8v-279q0 -87 -26 -148.5t-78.5 -94t-132.5 -32.5zM180 458q-23 0 -38.5 15.5t-15.5 37.5q0 23 16 38.5t38 15.5q23 0 38.5 -15.5t15.5 -38.5q0 -22 -16 -37.5t-38 -15.5z" />
    <glyph glyph-name="uni0691" unicode="&#x691;" horiz-adv-x="289" 
d="M0 -200v104q64 0 93 39t29 132v273l112 14l3 -8v-279q0 -87 -26 -148.5t-78.5 -94t-132.5 -32.5zM235 507q0 15 -12 25.5t-30 10.5h-56v47h56q38 0 66.5 -23.5t28.5 -59.5h-53zM69 458l-2 3l22 43h40v-46h-60zM129 458v46h71q14 0 28 -1l14 -1v-44h-113zM240 458
q-1 13 -3 26t-2 23h53q0 -10 1.5 -22.5t2.5 -21.5l-6 -5h-46zM97 458v175l54 4v-179h-54z" />
    <glyph glyph-name="uni0692" unicode="&#x692;" horiz-adv-x="289" 
d="M0 -200v104q64 0 93 39t29 132v273l112 14l3 -8v-279q0 -87 -26 -148.5t-78.5 -94t-132.5 -32.5zM149 458l-8 8l-50 173l2 5h55l34 -155l-5 1l38 154h52l3 -5l-52 -173z" />
    <glyph glyph-name="uni0693" unicode="&#x693;" horiz-adv-x="289" 
d="M0 -200v104q64 0 93 39t29 132v273l112 14l3 -8v-279q0 -87 -26 -148.5t-78.5 -94t-132.5 -32.5zM129 -318q-45 0 -71.5 24t-26.5 66q0 45 28.5 77t69.5 32q42 0 70 -31t28 -78q0 -43 -26.5 -66.5t-71.5 -23.5zM129 -262q42 0 42 38q0 21 -11.5 34.5t-30.5 13.5
q-18 0 -30 -14t-12 -36q0 -36 42 -36z" />
    <glyph glyph-name="uni0694" unicode="&#x694;" horiz-adv-x="289" 
d="M0 -200v104q64 0 93 39t29 132v273l112 14l3 -8v-279q0 -87 -26 -148.5t-78.5 -94t-132.5 -32.5zM99 -415q-23 0 -38.5 15.5t-15.5 37.5q0 23 16 38.5t38 15.5q23 0 38.5 -15.5t15.5 -38.5q0 -22 -16 -37.5t-38 -15.5z" />
    <glyph glyph-name="uni0695" unicode="&#x695;" horiz-adv-x="289" 
d="M0 -200v104q64 0 93 39t29 132v273l112 14l3 -8v-279q0 -87 -26 -148.5t-78.5 -94t-132.5 -32.5zM68 -493l-8 8l-50 173l2 5h55l34 -155l-5 1l38 154h52l3 -5l-52 -173z" />
    <glyph glyph-name="uni0696" unicode="&#x696;" horiz-adv-x="289" 
d="M0 -200v104q64 0 93 39t29 132v273l112 14l3 -8v-279q0 -87 -26 -148.5t-78.5 -94t-132.5 -32.5zM17 35q-23 0 -38.5 15.5t-15.5 37.5q0 23 16 38.5t38 15.5q23 0 38.5 -15.5t15.5 -38.5q0 -22 -16 -37.5t-38 -15.5zM99 -415q-23 0 -38.5 15.5t-15.5 37.5q0 23 16 38.5
t38 15.5q23 0 38.5 -15.5t15.5 -38.5q0 -22 -16 -37.5t-38 -15.5z" />
    <glyph glyph-name="uni0697" unicode="&#x697;" horiz-adv-x="289" 
d="M0 -200v104q64 0 93 39t29 132v273l112 14l3 -8v-279q0 -87 -26 -148.5t-78.5 -94t-132.5 -32.5zM119 458q-23 0 -38.5 15.5t-15.5 37.5q0 23 16 38.5t38 15.5q23 0 38.5 -15.5t15.5 -38.5q0 -22 -16 -37.5t-38 -15.5zM241 458q-23 0 -38.5 15.5t-15.5 37.5q0 23 16 38.5
t38 15.5q23 0 38.5 -15.5t15.5 -38.5q0 -22 -16 -37.5t-38 -15.5z" />
    <glyph glyph-name="uni0698" unicode="&#x698;" horiz-adv-x="289" 
d="M0 -200v104q64 0 93 39t29 132v273l112 14l3 -8v-279q0 -87 -26 -148.5t-78.5 -94t-132.5 -32.5zM119 458q-23 0 -38.5 15.5t-15.5 37.5q0 23 16 38.5t38 15.5q23 0 38.5 -15.5t15.5 -38.5q0 -22 -16 -37.5t-38 -15.5zM241 458q-23 0 -38.5 15.5t-15.5 37.5q0 23 16 38.5
t38 15.5q23 0 38.5 -15.5t15.5 -38.5q0 -22 -16 -37.5t-38 -15.5zM180 562q-23 0 -38.5 15.5t-15.5 37.5q0 23 16 38.5t38 15.5q23 0 38.5 -15.5t15.5 -38.5q0 -22 -16 -37.5t-38 -15.5z" />
    <glyph glyph-name="uni0699" unicode="&#x699;" horiz-adv-x="289" 
d="M0 -200v104q64 0 93 39t29 132v273l112 14l3 -8v-279q0 -87 -26 -148.5t-78.5 -94t-132.5 -32.5zM119 458q-23 0 -38.5 15.5t-15.5 37.5q0 23 16 38.5t38 15.5q23 0 38.5 -15.5t15.5 -38.5q0 -22 -16 -37.5t-38 -15.5zM119 580q-23 0 -38.5 15.5t-15.5 37.5q0 23 16 38.5
t38 15.5q23 0 38.5 -15.5t15.5 -38.5q0 -22 -16 -37.5t-38 -15.5zM241 458q-23 0 -38.5 15.5t-15.5 37.5q0 23 16 38.5t38 15.5q23 0 38.5 -15.5t15.5 -38.5q0 -22 -16 -37.5t-38 -15.5zM241 580q-23 0 -38.5 15.5t-15.5 37.5q0 23 16 38.5t38 15.5q23 0 38.5 -15.5
t15.5 -38.5q0 -22 -16 -37.5t-38 -15.5z" />
    <glyph glyph-name="uni06EF" unicode="&#x6ef;" horiz-adv-x="289" 
d="M0 -200v104q64 0 93 39t29 132v273l112 14l3 -8v-279q0 -87 -26 -148.5t-78.5 -94t-132.5 -32.5zM149 644l69 -9l52 -172l-3 -5h-52l-38 154l5 1l-34 -155h-55l-2 5l50 173z" />
    <glyph glyph-name="uni076B" unicode="&#x76b;" horiz-adv-x="289" 
d="M0 -200v104q64 0 93 39t29 132v273l112 14l3 -8v-279q0 -87 -26 -148.5t-78.5 -94t-132.5 -32.5zM233 512q0 -23 -15 -38.5t-38 -15.5q-22 0 -38 16t-16 38q0 23 16 38.5t38 15.5q23 0 38 -16t15 -38zM233 634q0 -23 -15 -38.5t-38 -15.5q-22 0 -38 16t-16 38
q0 23 16 38.5t38 15.5q23 0 38 -16t15 -38z" />
    <glyph glyph-name="uni076C" unicode="&#x76c;" horiz-adv-x="289" 
d="M0 -200v104q64 0 93 39t29 132v273l112 14l3 -8v-279q0 -87 -26 -148.5t-78.5 -94t-132.5 -32.5zM111 504q-17 26 -17 51q0 28 18.5 50t45.5 40.5t52 34.5h4l38 -54q-51 -31 -67.5 -50t-16.5 -32q0 -9 5.5 -15t14.5 -6zM80 458v65h4q13 0 24.5 -2l11.5 -2l18 4h142v-4
l-18 -61h-182z" />
    <glyph glyph-name="uni0771" unicode="&#x771;" horiz-adv-x="289" 
d="M0 -200v104q64 0 93 39t29 132v273l112 14l3 -8v-279q0 -87 -26 -148.5t-78.5 -94t-132.5 -32.5zM119 458q-23 0 -38.5 15.5t-15.5 37.5q0 23 16 38.5t38 15.5q23 0 38.5 -15.5t15.5 -38.5q0 -22 -16 -37.5t-38 -15.5zM241 458q-23 0 -38.5 15.5t-15.5 37.5q0 23 16 38.5
t38 15.5q23 0 38.5 -15.5t15.5 -38.5q0 -22 -16 -37.5t-38 -15.5zM235 673q0 15 -12 25.5t-30 10.5h-56v47h56q38 0 66.5 -23.5t28.5 -59.5h-53zM69 624l-2 3l22 43h40v-46h-60zM129 624v46h71q14 0 28 -1l14 -1v-44h-113zM240 624q-1 13 -3 26t-2 23h53q0 -10 1.5 -22.5
t2.5 -21.5l-6 -5h-46zM97 624v175l54 4v-179h-54z" />
    <glyph glyph-name="uni08B2" unicode="&#x8b2;" horiz-adv-x="289" 
d="M0 -200v104q64 0 93 39t29 132v273l112 14l3 -8v-279q0 -87 -26 -148.5t-78.5 -94t-132.5 -32.5zM180 458q-23 0 -38.5 15.5t-15.5 37.5q0 23 16 38.5t38 15.5q23 0 38.5 -15.5t15.5 -38.5q0 -22 -16 -37.5t-38 -15.5zM149 810l69 -9l52 -172l-3 -5h-52l-38 154l5 1
l-34 -155h-55l-2 5l50 173z" />
    <glyph glyph-name="uni0634" unicode="&#x634;" horiz-adv-x="1054" 
d="M277 -231q-113 0 -174 69t-61 191h105q0 -79 33 -117.5t97 -38.5q68 0 104.5 40t36.5 116h115q0 -81 -32.5 -139.5t-90 -89.5t-133.5 -31zM42 29v51l102 14l3 -8v-57h-105zM418 29v224l112 14l3 -8v-230h-115zM479 0v104h451v-104h-451zM654 0l3 42l-3 32.5t-6 83.5
t-3 107v36l112 14l3 -8v-60q0 -41 2.5 -82t5 -75.5t5 -55l2.5 -20.5l-15 -14h-106zM881 0l3 42l-3 32.5t-6 83.5t-3 107v83l112 14l3 -8v-107q0 -41 2.5 -82t5 -75.5t5 -55l2.5 -20.5l-15 -14h-106zM641 422q-23 0 -38.5 15.5t-15.5 37.5q0 23 16 38.5t38 15.5
q23 0 38.5 -15.5t15.5 -38.5q0 -22 -16 -37.5t-38 -15.5zM763 422q-23 0 -38.5 15.5t-15.5 37.5q0 23 16 38.5t38 15.5q23 0 38.5 -15.5t15.5 -38.5q0 -22 -16 -37.5t-38 -15.5zM702 526q-23 0 -38.5 15.5t-15.5 37.5q0 23 16 38.5t38 15.5q23 0 38.5 -15.5t15.5 -38.5
q0 -22 -16 -37.5t-38 -15.5z" />
    <glyph glyph-name="uni069A" unicode="&#x69a;" horiz-adv-x="1054" 
d="M277 -231q-113 0 -174 69t-61 191h105q0 -79 33 -117.5t97 -38.5q68 0 104.5 40t36.5 116h115q0 -81 -32.5 -139.5t-90 -89.5t-133.5 -31zM42 29v51l102 14l3 -8v-57h-105zM418 29v224l112 14l3 -8v-230h-115zM479 0v104h451v-104h-451zM654 0l3 42l-3 32.5t-6 83.5
t-3 107v36l112 14l3 -8v-60q0 -41 2.5 -82t5 -75.5t5 -55l2.5 -20.5l-15 -14h-106zM881 0l3 42l-3 32.5t-6 83.5t-3 107v83l112 14l3 -8v-107q0 -41 2.5 -82t5 -75.5t5 -55l2.5 -20.5l-15 -14h-106zM722 -203q-23 0 -38.5 15.5t-15.5 37.5q0 23 16 38.5t38 15.5
q23 0 38.5 -15.5t15.5 -38.5q0 -22 -16 -37.5t-38 -15.5zM702 422q-23 0 -38.5 15.5t-15.5 37.5q0 23 16 38.5t38 15.5q23 0 38.5 -15.5t15.5 -38.5q0 -22 -16 -37.5t-38 -15.5z" />
    <glyph glyph-name="uni069B" unicode="&#x69b;" horiz-adv-x="1054" 
d="M277 -231q-113 0 -174 69t-61 191h105q0 -79 33 -117.5t97 -38.5q68 0 104.5 40t36.5 116h115q0 -81 -32.5 -139.5t-90 -89.5t-133.5 -31zM42 29v51l102 14l3 -8v-57h-105zM418 29v224l112 14l3 -8v-230h-115zM479 0v104h451v-104h-451zM654 0l3 42l-3 32.5t-6 83.5
t-3 107v36l112 14l3 -8v-60q0 -41 2.5 -82t5 -75.5t5 -55l2.5 -20.5l-15 -14h-106zM881 0l3 42l-3 32.5t-6 83.5t-3 107v83l112 14l3 -8v-107q0 -41 2.5 -82t5 -75.5t5 -55l2.5 -20.5l-15 -14h-106zM661 -203q-23 0 -38.5 15.5t-15.5 37.5q0 23 16 38.5t38 15.5
q23 0 38.5 -15.5t15.5 -38.5q0 -22 -16 -37.5t-38 -15.5zM783 -203q-23 0 -38.5 15.5t-15.5 37.5q0 23 16 38.5t38 15.5q23 0 38.5 -15.5t15.5 -38.5q0 -22 -16 -37.5t-38 -15.5zM722 -307q-23 0 -38.5 15.5t-15.5 37.5q0 23 16 38.5t38 15.5q23 0 38.5 -15.5t15.5 -38.5
q0 -22 -16 -37.5t-38 -15.5z" />
    <glyph glyph-name="uni069C" unicode="&#x69c;" horiz-adv-x="1054" 
d="M277 -231q-113 0 -174 69t-61 191h105q0 -79 33 -117.5t97 -38.5q68 0 104.5 40t36.5 116h115q0 -81 -32.5 -139.5t-90 -89.5t-133.5 -31zM42 29v51l102 14l3 -8v-57h-105zM418 29v224l112 14l3 -8v-230h-115zM479 0v104h451v-104h-451zM654 0l3 42l-3 32.5t-6 83.5
t-3 107v36l112 14l3 -8v-60q0 -41 2.5 -82t5 -75.5t5 -55l2.5 -20.5l-15 -14h-106zM881 0l3 42l-3 32.5t-6 83.5t-3 107v83l112 14l3 -8v-107q0 -41 2.5 -82t5 -75.5t5 -55l2.5 -20.5l-15 -14h-106zM641 422q-23 0 -38.5 15.5t-15.5 37.5q0 23 16 38.5t38 15.5
q23 0 38.5 -15.5t15.5 -38.5q0 -22 -16 -37.5t-38 -15.5zM763 422q-23 0 -38.5 15.5t-15.5 37.5q0 23 16 38.5t38 15.5q23 0 38.5 -15.5t15.5 -38.5q0 -22 -16 -37.5t-38 -15.5zM702 526q-23 0 -38.5 15.5t-15.5 37.5q0 23 16 38.5t38 15.5q23 0 38.5 -15.5t15.5 -38.5
q0 -22 -16 -37.5t-38 -15.5zM661 -203q-23 0 -38.5 15.5t-15.5 37.5q0 23 16 38.5t38 15.5q23 0 38.5 -15.5t15.5 -38.5q0 -22 -16 -37.5t-38 -15.5zM783 -203q-23 0 -38.5 15.5t-15.5 37.5q0 23 16 38.5t38 15.5q23 0 38.5 -15.5t15.5 -38.5q0 -22 -16 -37.5t-38 -15.5z
M722 -307q-23 0 -38.5 15.5t-15.5 37.5q0 23 16 38.5t38 15.5q23 0 38.5 -15.5t15.5 -38.5q0 -22 -16 -37.5t-38 -15.5z" />
    <glyph glyph-name="uni06FA" unicode="&#x6fa;" horiz-adv-x="1054" 
d="M277 -231q-113 0 -174 69t-61 191h105q0 -79 33 -117.5t97 -38.5q68 0 104.5 40t36.5 116h115q0 -81 -32.5 -139.5t-90 -89.5t-133.5 -31zM42 29v51l102 14l3 -8v-57h-105zM418 29v224l112 14l3 -8v-230h-115zM479 0v104h451v-104h-451zM654 0l3 42l-3 32.5t-6 83.5
t-3 107v36l112 14l3 -8v-60q0 -41 2.5 -82t5 -75.5t5 -55l2.5 -20.5l-15 -14h-106zM881 0l3 42l-3 32.5t-6 83.5t-3 107v83l112 14l3 -8v-107q0 -41 2.5 -82t5 -75.5t5 -55l2.5 -20.5l-15 -14h-106zM641 422q-23 0 -38.5 15.5t-15.5 37.5q0 23 16 38.5t38 15.5
q23 0 38.5 -15.5t15.5 -38.5q0 -22 -16 -37.5t-38 -15.5zM763 422q-23 0 -38.5 15.5t-15.5 37.5q0 23 16 38.5t38 15.5q23 0 38.5 -15.5t15.5 -38.5q0 -22 -16 -37.5t-38 -15.5zM702 526q-23 0 -38.5 15.5t-15.5 37.5q0 23 16 38.5t38 15.5q23 0 38.5 -15.5t15.5 -38.5
q0 -22 -16 -37.5t-38 -15.5zM722 -203q-23 0 -38.5 15.5t-15.5 37.5q0 23 16 38.5t38 15.5q23 0 38.5 -15.5t15.5 -38.5q0 -22 -16 -37.5t-38 -15.5z" />
    <glyph glyph-name="uni075C" unicode="&#x75c;" horiz-adv-x="1054" 
d="M277 -231q-113 0 -174 69t-61 191h105q0 -79 33 -117.5t97 -38.5q68 0 104.5 40t36.5 116h115q0 -81 -32.5 -139.5t-90 -89.5t-133.5 -31zM42 29v51l102 14l3 -8v-57h-105zM418 29v224l112 14l3 -8v-230h-115zM479 0v104h451v-104h-451zM654 0l3 42l-3 32.5t-6 83.5
t-3 107v36l112 14l3 -8v-60q0 -41 2.5 -82t5 -75.5t5 -55l2.5 -20.5l-15 -14h-106zM881 0l3 42l-3 32.5t-6 83.5t-3 107v83l112 14l3 -8v-107q0 -41 2.5 -82t5 -75.5t5 -55l2.5 -20.5l-15 -14h-106zM641 422q-23 0 -38.5 15.5t-15.5 37.5q0 23 16 38.5t38 15.5
q23 0 38.5 -15.5t15.5 -38.5q0 -22 -16 -37.5t-38 -15.5zM641 544q-23 0 -38.5 15.5t-15.5 37.5q0 23 16 38.5t38 15.5q23 0 38.5 -15.5t15.5 -38.5q0 -22 -16 -37.5t-38 -15.5zM763 422q-23 0 -38.5 15.5t-15.5 37.5q0 23 16 38.5t38 15.5q23 0 38.5 -15.5t15.5 -38.5
q0 -22 -16 -37.5t-38 -15.5zM763 544q-23 0 -38.5 15.5t-15.5 37.5q0 23 16 38.5t38 15.5q23 0 38.5 -15.5t15.5 -38.5q0 -22 -16 -37.5t-38 -15.5z" />
    <glyph glyph-name="uni076D" unicode="&#x76d;" horiz-adv-x="1054" 
d="M277 -231q-113 0 -174 69t-61 191h105q0 -79 33 -117.5t97 -38.5q68 0 104.5 40t36.5 116h115q0 -81 -32.5 -139.5t-90 -89.5t-133.5 -31zM42 29v51l102 14l3 -8v-57h-105zM418 29v224l112 14l3 -8v-230h-115zM479 0v104h451v-104h-451zM654 0l3 42l-3 32.5t-6 83.5
t-3 107v36l112 14l3 -8v-60q0 -41 2.5 -82t5 -75.5t5 -55l2.5 -20.5l-15 -14h-106zM881 0l3 42l-3 32.5t-6 83.5t-3 107v83l112 14l3 -8v-107q0 -41 2.5 -82t5 -75.5t5 -55l2.5 -20.5l-15 -14h-106zM755 476q0 -23 -15 -38.5t-38 -15.5q-22 0 -38 16t-16 38q0 23 16 38.5
t38 15.5q23 0 38 -16t15 -38zM755 598q0 -23 -15 -38.5t-38 -15.5q-22 0 -38 16t-16 38q0 23 16 38.5t38 15.5q23 0 38 -16t15 -38z" />
    <glyph glyph-name="uni0770" unicode="&#x770;" horiz-adv-x="1054" 
d="M277 -231q-113 0 -174 69t-61 191h105q0 -79 33 -117.5t97 -38.5q68 0 104.5 40t36.5 116h115q0 -81 -32.5 -139.5t-90 -89.5t-133.5 -31zM42 29v51l102 14l3 -8v-57h-105zM418 29v224l112 14l3 -8v-230h-115zM479 0v104h451v-104h-451zM654 0l3 42l-3 32.5t-6 83.5
t-3 107v36l112 14l3 -8v-60q0 -41 2.5 -82t5 -75.5t5 -55l2.5 -20.5l-15 -14h-106zM881 0l3 42l-3 32.5t-6 83.5t-3 107v83l112 14l3 -8v-107q0 -41 2.5 -82t5 -75.5t5 -55l2.5 -20.5l-15 -14h-106zM641 422q-23 0 -38.5 15.5t-15.5 37.5q0 23 16 38.5t38 15.5
q23 0 38.5 -15.5t15.5 -38.5q0 -22 -16 -37.5t-38 -15.5zM763 422q-23 0 -38.5 15.5t-15.5 37.5q0 23 16 38.5t38 15.5q23 0 38.5 -15.5t15.5 -38.5q0 -22 -16 -37.5t-38 -15.5zM757 637q0 15 -12 25.5t-30 10.5h-56v47h56q38 0 66.5 -23.5t28.5 -59.5h-53zM591 588l-2 3
l22 43h40v-46h-60zM651 588v46h71q14 0 28 -1l14 -1v-44h-113zM762 588q-1 13 -3 26t-2 23h53q0 -10 1.5 -22.5t2.5 -21.5l-6 -5h-46zM619 588v175l54 4v-179h-54z" />
    <glyph glyph-name="uni077E" unicode="&#x77e;" horiz-adv-x="1054" 
d="M277 -231q-113 0 -174 69t-61 191h105q0 -79 33 -117.5t97 -38.5q68 0 104.5 40t36.5 116h115q0 -81 -32.5 -139.5t-90 -89.5t-133.5 -31zM42 29v51l102 14l3 -8v-57h-105zM418 29v224l112 14l3 -8v-230h-115zM479 0v104h451v-104h-451zM654 0l3 42l-3 32.5t-6 83.5
t-3 107v36l112 14l3 -8v-60q0 -41 2.5 -82t5 -75.5t5 -55l2.5 -20.5l-15 -14h-106zM881 0l3 42l-3 32.5t-6 83.5t-3 107v83l112 14l3 -8v-107q0 -41 2.5 -82t5 -75.5t5 -55l2.5 -20.5l-15 -14h-106zM671 608l69 -9l52 -172l-3 -5h-52l-38 154l5 1l-34 -155h-55l-2 5l50 173z
" />
    <glyph glyph-name="uni0636" unicode="&#x636;" horiz-adv-x="1254" 
d="M418 116v296l112 13l3 -8v-301h-115zM498 211v104h381v-104h-381zM498 0v104h381v-104h-381zM277 -231q-113 0 -174 69t-61 191h105q0 -79 33 -117.5t97 -38.5q68 0 104.5 40t36.5 116h115q0 -81 -32.5 -139.5t-90 -89.5t-133.5 -31zM42 29v51l102 14l3 -8v-57h-105z
M418 29v319l112 14l3 -8v-325h-115zM1078 117q0 26 -14.5 47.5t-39.5 34t-57 12.5h-146v11l12 93h134q60 0 111.5 -25t83 -70t31.5 -103h-115zM689 0l-4 8l51 96h152v-104h-199zM736 0v104h251q25 0 49.5 -1.5t40.5 -3.5l16 -2v-97h-357zM785 211l-5 8l51 96h119v-104h-165z
M1089 0q-4 27 -7.5 57t-3.5 60h115q0 -30 3 -57t7 -46l-15 -14h-99zM768 411q-23 0 -38.5 15.5t-15.5 37.5q0 23 16 38.5t38 15.5q23 0 38.5 -15.5t15.5 -38.5q0 -22 -16 -37.5t-38 -15.5z" />
    <glyph glyph-name="uni069D" unicode="&#x69d;" horiz-adv-x="1254" 
d="M418 116v296l112 13l3 -8v-301h-115zM498 211v104h381v-104h-381zM498 0v104h381v-104h-381zM277 -231q-113 0 -174 69t-61 191h105q0 -79 33 -117.5t97 -38.5q68 0 104.5 40t36.5 116h115q0 -81 -32.5 -139.5t-90 -89.5t-133.5 -31zM42 29v51l102 14l3 -8v-57h-105z
M418 29v319l112 14l3 -8v-325h-115zM1078 117q0 26 -14.5 47.5t-39.5 34t-57 12.5h-146v11l12 93h134q60 0 111.5 -25t83 -70t31.5 -103h-115zM689 0l-4 8l51 96h152v-104h-199zM736 0v104h251q25 0 49.5 -1.5t40.5 -3.5l16 -2v-97h-357zM785 211l-5 8l51 96h119v-104h-165z
M1089 0q-4 27 -7.5 57t-3.5 60h115q0 -30 3 -57t7 -46l-15 -14h-99zM750 -216q-23 0 -38.5 15.5t-15.5 37.5q0 23 16 38.5t38 15.5q23 0 38.5 -15.5t15.5 -38.5q0 -22 -16 -37.5t-38 -15.5zM872 -216q-23 0 -38.5 15.5t-15.5 37.5q0 23 16 38.5t38 15.5q23 0 38.5 -15.5
t15.5 -38.5q0 -22 -16 -37.5t-38 -15.5z" />
    <glyph glyph-name="uni069E" unicode="&#x69e;" horiz-adv-x="1254" 
d="M418 116v296l112 13l3 -8v-301h-115zM498 211v104h381v-104h-381zM498 0v104h381v-104h-381zM277 -231q-113 0 -174 69t-61 191h105q0 -79 33 -117.5t97 -38.5q68 0 104.5 40t36.5 116h115q0 -81 -32.5 -139.5t-90 -89.5t-133.5 -31zM42 29v51l102 14l3 -8v-57h-105z
M418 29v319l112 14l3 -8v-325h-115zM1078 117q0 26 -14.5 47.5t-39.5 34t-57 12.5h-146v11l12 93h134q60 0 111.5 -25t83 -70t31.5 -103h-115zM689 0l-4 8l51 96h152v-104h-199zM736 0v104h251q25 0 49.5 -1.5t40.5 -3.5l16 -2v-97h-357zM785 211l-5 8l51 96h119v-104h-165z
M1089 0q-4 27 -7.5 57t-3.5 60h115q0 -30 3 -57t7 -46l-15 -14h-99zM707 411q-23 0 -38.5 15.5t-15.5 37.5q0 23 16 38.5t38 15.5q23 0 38.5 -15.5t15.5 -38.5q0 -22 -16 -37.5t-38 -15.5zM829 411q-23 0 -38.5 15.5t-15.5 37.5q0 23 16 38.5t38 15.5q23 0 38.5 -15.5
t15.5 -38.5q0 -22 -16 -37.5t-38 -15.5zM768 515q-23 0 -38.5 15.5t-15.5 37.5q0 23 16 38.5t38 15.5q23 0 38.5 -15.5t15.5 -38.5q0 -22 -16 -37.5t-38 -15.5z" />
    <glyph glyph-name="uni06FB" unicode="&#x6fb;" horiz-adv-x="1254" 
d="M418 116v296l112 13l3 -8v-301h-115zM498 211v104h381v-104h-381zM498 0v104h381v-104h-381zM277 -231q-113 0 -174 69t-61 191h105q0 -79 33 -117.5t97 -38.5q68 0 104.5 40t36.5 116h115q0 -81 -32.5 -139.5t-90 -89.5t-133.5 -31zM42 29v51l102 14l3 -8v-57h-105z
M418 29v319l112 14l3 -8v-325h-115zM1078 117q0 26 -14.5 47.5t-39.5 34t-57 12.5h-146v11l12 93h134q60 0 111.5 -25t83 -70t31.5 -103h-115zM689 0l-4 8l51 96h152v-104h-199zM736 0v104h251q25 0 49.5 -1.5t40.5 -3.5l16 -2v-97h-357zM785 211l-5 8l51 96h119v-104h-165z
M1089 0q-4 27 -7.5 57t-3.5 60h115q0 -30 3 -57t7 -46l-15 -14h-99zM768 411q-23 0 -38.5 15.5t-15.5 37.5q0 23 16 38.5t38 15.5q23 0 38.5 -15.5t15.5 -38.5q0 -22 -16 -37.5t-38 -15.5zM811 -216q-23 0 -38.5 15.5t-15.5 37.5q0 23 16 38.5t38 15.5q23 0 38.5 -15.5
t15.5 -38.5q0 -22 -16 -37.5t-38 -15.5z" />
    <glyph glyph-name="uni08AF" unicode="&#x8af;" horiz-adv-x="1254" 
d="M418 116v296l112 13l3 -8v-301h-115zM498 211v104h381v-104h-381zM498 0v104h381v-104h-381zM277 -231q-113 0 -174 69t-61 191h105q0 -79 33 -117.5t97 -38.5q68 0 104.5 40t36.5 116h115q0 -81 -32.5 -139.5t-90 -89.5t-133.5 -31zM42 29v51l102 14l3 -8v-57h-105z
M418 29v319l112 14l3 -8v-325h-115zM1078 117q0 26 -14.5 47.5t-39.5 34t-57 12.5h-146v11l12 93h134q60 0 111.5 -25t83 -70t31.5 -103h-115zM689 0l-4 8l51 96h152v-104h-199zM736 0v104h251q25 0 49.5 -1.5t40.5 -3.5l16 -2v-97h-357zM785 211l-5 8l51 96h119v-104h-165z
M1089 0q-4 27 -7.5 57t-3.5 60h115q0 -30 3 -57t7 -46l-15 -14h-99zM750 -216q-23 0 -38.5 15.5t-15.5 37.5q0 23 16 38.5t38 15.5q23 0 38.5 -15.5t15.5 -38.5q0 -22 -16 -37.5t-38 -15.5zM872 -216q-23 0 -38.5 15.5t-15.5 37.5q0 23 16 38.5t38 15.5q23 0 38.5 -15.5
t15.5 -38.5q0 -22 -16 -37.5t-38 -15.5zM811 -320q-23 0 -38.5 15.5t-15.5 37.5q0 23 16 38.5t38 15.5q23 0 38.5 -15.5t15.5 -38.5q0 -22 -16 -37.5t-38 -15.5z" />
    <glyph glyph-name="uni0638" unicode="&#x638;" horiz-adv-x="961" 
d="M125 0v745l112 14l3 -8v-751h-115zM41 0l-4 8l51 96h152v-104h-199zM205 211v104h381v-104h-381zM205 0v104h381v-104h-381zM785 117q0 26 -14.5 47.5t-39.5 34t-57 12.5h-146v11l12 93h134q60 0 111.5 -25t83 -70t31.5 -103h-115zM396 0l-4 8l51 96h152v-104h-199z
M443 0v104h251q25 0 49.5 -1.5t40.5 -3.5l16 -2v-97h-357zM492 211l-5 8l51 96h119v-104h-165zM796 0q-4 27 -7.5 57t-3.5 60h115q0 -30 3 -57t7 -46l-15 -14h-99zM502 411q-23 0 -38.5 15.5t-15.5 37.5q0 23 16 38.5t38 15.5q23 0 38.5 -15.5t15.5 -38.5q0 -22 -16 -37.5
t-38 -15.5z" />
    <glyph glyph-name="uni069F" unicode="&#x69f;" horiz-adv-x="961" 
d="M125 0v745l112 14l3 -8v-751h-115zM41 0l-4 8l51 96h152v-104h-199zM205 211v104h381v-104h-381zM205 0v104h381v-104h-381zM785 117q0 26 -14.5 47.5t-39.5 34t-57 12.5h-146v11l12 93h134q60 0 111.5 -25t83 -70t31.5 -103h-115zM396 0l-4 8l51 96h152v-104h-199z
M443 0v104h251q25 0 49.5 -1.5t40.5 -3.5l16 -2v-97h-357zM492 211l-5 8l51 96h119v-104h-165zM796 0q-4 27 -7.5 57t-3.5 60h115q0 -30 3 -57t7 -46l-15 -14h-99zM441 411q-23 0 -38.5 15.5t-15.5 37.5q0 23 16 38.5t38 15.5q23 0 38.5 -15.5t15.5 -38.5q0 -22 -16 -37.5
t-38 -15.5zM563 411q-23 0 -38.5 15.5t-15.5 37.5q0 23 16 38.5t38 15.5q23 0 38.5 -15.5t15.5 -38.5q0 -22 -16 -37.5t-38 -15.5zM502 515q-23 0 -38.5 15.5t-15.5 37.5q0 23 16 38.5t38 15.5q23 0 38.5 -15.5t15.5 -38.5q0 -22 -16 -37.5t-38 -15.5z" />
    <glyph glyph-name="uni08A3" unicode="&#x8a3;" horiz-adv-x="961" 
d="M125 0v745l112 14l3 -8v-751h-115zM41 0l-4 8l51 96h152v-104h-199zM205 211v104h381v-104h-381zM205 0v104h381v-104h-381zM785 117q0 26 -14.5 47.5t-39.5 34t-57 12.5h-146v11l12 93h134q60 0 111.5 -25t83 -70t31.5 -103h-115zM396 0l-4 8l51 96h152v-104h-199z
M443 0v104h251q25 0 49.5 -1.5t40.5 -3.5l16 -2v-97h-357zM492 211l-5 8l51 96h119v-104h-165zM796 0q-4 27 -7.5 57t-3.5 60h115q0 -30 3 -57t7 -46l-15 -14h-99zM441 411q-23 0 -38.5 15.5t-15.5 37.5q0 23 16 38.5t38 15.5q23 0 38.5 -15.5t15.5 -38.5q0 -22 -16 -37.5
t-38 -15.5zM563 411q-23 0 -38.5 15.5t-15.5 37.5q0 23 16 38.5t38 15.5q23 0 38.5 -15.5t15.5 -38.5q0 -22 -16 -37.5t-38 -15.5z" />
    <glyph glyph-name="uni088B" unicode="&#x88b;" horiz-adv-x="961" 
d="M125 0v745l112 14l3 -8v-751h-115zM41 0l-4 8l51 96h152v-104h-199zM205 211v104h381v-104h-381zM205 0v104h381v-104h-381zM785 117q0 26 -14.5 47.5t-39.5 34t-57 12.5h-146v11l12 93h134q60 0 111.5 -25t83 -70t31.5 -103h-115zM396 0l-4 8l51 96h152v-104h-199z
M443 0v104h251q25 0 49.5 -1.5t40.5 -3.5l16 -2v-97h-357zM492 211l-5 8l51 96h119v-104h-165zM796 0q-4 27 -7.5 57t-3.5 60h115q0 -30 3 -57t7 -46l-15 -14h-99zM505 -216q-23 0 -38.5 15.5t-15.5 37.5q0 23 16 38.5t38 15.5q23 0 38.5 -15.5t15.5 -38.5q0 -22 -16 -37.5
t-38 -15.5z" />
    <glyph glyph-name="uni088C" unicode="&#x88c;" horiz-adv-x="961" 
d="M125 0v745l112 14l3 -8v-751h-115zM41 0l-4 8l51 96h152v-104h-199zM205 211v104h381v-104h-381zM205 0v104h381v-104h-381zM785 117q0 26 -14.5 47.5t-39.5 34t-57 12.5h-146v11l12 93h134q60 0 111.5 -25t83 -70t31.5 -103h-115zM396 0l-4 8l51 96h152v-104h-199z
M443 0v104h251q25 0 49.5 -1.5t40.5 -3.5l16 -2v-97h-357zM492 211l-5 8l51 96h119v-104h-165zM796 0q-4 27 -7.5 57t-3.5 60h115q0 -30 3 -57t7 -46l-15 -14h-99zM444 -216q-23 0 -38.5 15.5t-15.5 37.5q0 23 16 38.5t38 15.5q23 0 38.5 -15.5t15.5 -38.5q0 -22 -16 -37.5
t-38 -15.5zM566 -216q-23 0 -38.5 15.5t-15.5 37.5q0 23 16 38.5t38 15.5q23 0 38.5 -15.5t15.5 -38.5q0 -22 -16 -37.5t-38 -15.5zM505 -320q-23 0 -38.5 15.5t-15.5 37.5q0 23 16 38.5t38 15.5q23 0 38.5 -15.5t15.5 -38.5q0 -22 -16 -37.5t-38 -15.5z" />
    <glyph glyph-name="uni063A" unicode="&#x63a;" horiz-adv-x="566" 
d="M151 69q-32 49 -32 94q0 38 20 70t52 60t69.5 52t72.5 46h7l58 -85q-49 -30 -81.5 -54.5t-50.5 -44t-25.5 -34.5t-7.5 -27q0 -17 10.5 -29.5t28.5 -12.5zM187 0v104h317v-7l-30 -97h-287zM282 -200q-77 0 -131 20t-82.5 55t-28.5 80q0 71 65.5 110t173.5 39v-104
q-67 0 -98 -13t-37 -33q6 -22 37.5 -36t99.5 -14q26 0 63 2.5t69 6.5l18 -89v-10q-22 -5 -50 -8.5t-54.5 -4.5t-44.5 -1zM266 494q-23 0 -38.5 15.5t-15.5 37.5q0 23 16 38.5t38 15.5q23 0 38.5 -15.5t15.5 -38.5q0 -22 -16 -37.5t-38 -15.5z" />
    <glyph glyph-name="uni06A0" unicode="&#x6a0;" horiz-adv-x="566" 
d="M151 69q-32 49 -32 94q0 38 20 70t52 60t69.5 52t72.5 46h7l58 -85q-49 -30 -81.5 -54.5t-50.5 -44t-25.5 -34.5t-7.5 -27q0 -17 10.5 -29.5t28.5 -12.5zM187 0v104h317v-7l-30 -97h-287zM282 -200q-77 0 -131 20t-82.5 55t-28.5 80q0 71 65.5 110t173.5 39v-104
q-67 0 -98 -13t-37 -33q6 -22 37.5 -36t99.5 -14q26 0 63 2.5t69 6.5l18 -89v-10q-22 -5 -50 -8.5t-54.5 -4.5t-44.5 -1zM205 494q-23 0 -38.5 15.5t-15.5 37.5q0 23 16 38.5t38 15.5q23 0 38.5 -15.5t15.5 -38.5q0 -22 -16 -37.5t-38 -15.5zM327 494q-23 0 -38.5 15.5
t-15.5 37.5q0 23 16 38.5t38 15.5q23 0 38.5 -15.5t15.5 -38.5q0 -22 -16 -37.5t-38 -15.5zM266 598q-23 0 -38.5 15.5t-15.5 37.5q0 23 16 38.5t38 15.5q23 0 38.5 -15.5t15.5 -38.5q0 -22 -16 -37.5t-38 -15.5z" />
    <glyph glyph-name="uni06FC" unicode="&#x6fc;" horiz-adv-x="566" 
d="M151 69q-32 49 -32 94q0 38 20 70t52 60t69.5 52t72.5 46h7l58 -85q-49 -30 -81.5 -54.5t-50.5 -44t-25.5 -34.5t-7.5 -27q0 -17 10.5 -29.5t28.5 -12.5zM187 0v104h317v-7l-30 -97h-287zM282 -200q-77 0 -131 20t-82.5 55t-28.5 80q0 71 65.5 110t173.5 39v-104
q-67 0 -98 -13t-37 -33q6 -22 37.5 -36t99.5 -14q26 0 63 2.5t69 6.5l18 -89v-10q-22 -5 -50 -8.5t-54.5 -4.5t-44.5 -1zM266 494q-23 0 -38.5 15.5t-15.5 37.5q0 23 16 38.5t38 15.5q23 0 38.5 -15.5t15.5 -38.5q0 -22 -16 -37.5t-38 -15.5zM271 -401q-23 0 -38.5 15.5
t-15.5 37.5q0 23 16 38.5t38 15.5q23 0 38.5 -15.5t15.5 -38.5q0 -22 -16 -37.5t-38 -15.5z" />
    <glyph glyph-name="uni075D" unicode="&#x75d;" horiz-adv-x="566" 
d="M151 69q-32 49 -32 94q0 38 20 70t52 60t69.5 52t72.5 46h7l58 -85q-49 -30 -81.5 -54.5t-50.5 -44t-25.5 -34.5t-7.5 -27q0 -17 10.5 -29.5t28.5 -12.5zM187 0v104h317v-7l-30 -97h-287zM282 -200q-77 0 -131 20t-82.5 55t-28.5 80q0 71 65.5 110t173.5 39v-104
q-67 0 -98 -13t-37 -33q6 -22 37.5 -36t99.5 -14q26 0 63 2.5t69 6.5l18 -89v-10q-22 -5 -50 -8.5t-54.5 -4.5t-44.5 -1zM205 494q-23 0 -38.5 15.5t-15.5 37.5q0 23 16 38.5t38 15.5q23 0 38.5 -15.5t15.5 -38.5q0 -22 -16 -37.5t-38 -15.5zM327 494q-23 0 -38.5 15.5
t-15.5 37.5q0 23 16 38.5t38 15.5q23 0 38.5 -15.5t15.5 -38.5q0 -22 -16 -37.5t-38 -15.5z" />
    <glyph glyph-name="uni075E" unicode="&#x75e;" horiz-adv-x="566" 
d="M151 69q-32 49 -32 94q0 38 20 70t52 60t69.5 52t72.5 46h7l58 -85q-49 -30 -81.5 -54.5t-50.5 -44t-25.5 -34.5t-7.5 -27q0 -17 10.5 -29.5t28.5 -12.5zM187 0v104h317v-7l-30 -97h-287zM282 -200q-77 0 -131 20t-82.5 55t-28.5 80q0 71 65.5 110t173.5 39v-104
q-67 0 -98 -13t-37 -33q6 -22 37.5 -36t99.5 -14q26 0 63 2.5t69 6.5l18 -89v-10q-22 -5 -50 -8.5t-54.5 -4.5t-44.5 -1zM205 598q-23 0 -38.5 15.5t-15.5 37.5q0 23 16 38.5t38 15.5q23 0 38.5 -15.5t15.5 -38.5q0 -22 -16 -37.5t-38 -15.5zM327 598q-23 0 -38.5 15.5
t-15.5 37.5q0 23 16 38.5t38 15.5q23 0 38.5 -15.5t15.5 -38.5q0 -22 -16 -37.5t-38 -15.5zM266 494q-23 0 -38.5 15.5t-15.5 37.5q0 23 16 38.5t38 15.5q23 0 38.5 -15.5t15.5 -38.5q0 -22 -16 -37.5t-38 -15.5z" />
    <glyph glyph-name="uni075F" unicode="&#x75f;" horiz-adv-x="566" 
d="M151 69q-32 49 -32 94q0 38 20 70t52 60t69.5 52t72.5 46h7l58 -85q-49 -30 -81.5 -54.5t-50.5 -44t-25.5 -34.5t-7.5 -27q0 -17 10.5 -29.5t28.5 -12.5zM187 0v104h317v-7l-30 -97h-287zM282 -200q-77 0 -131 20t-82.5 55t-28.5 80q0 71 65.5 110t173.5 39v-104
q-67 0 -98 -13t-37 -33q6 -22 37.5 -36t99.5 -14q26 0 63 2.5t69 6.5l18 -89v-10q-22 -5 -50 -8.5t-54.5 -4.5t-44.5 -1zM319 548q0 -23 -15 -38.5t-38 -15.5q-22 0 -38 16t-16 38q0 23 16 38.5t38 15.5q23 0 38 -16t15 -38zM319 670q0 -23 -15 -38.5t-38 -15.5
q-22 0 -38 16t-16 38q0 23 16 38.5t38 15.5q23 0 38 -16t15 -38z" />
    <glyph glyph-name="uni08B3" unicode="&#x8b3;" horiz-adv-x="566" 
d="M151 69q-32 49 -32 94q0 38 20 70t52 60t69.5 52t72.5 46h7l58 -85q-49 -30 -81.5 -54.5t-50.5 -44t-25.5 -34.5t-7.5 -27q0 -17 10.5 -29.5t28.5 -12.5zM187 0v104h317v-7l-30 -97h-287zM282 -200q-77 0 -131 20t-82.5 55t-28.5 80q0 71 65.5 110t173.5 39v-104
q-67 0 -98 -13t-37 -33q6 -22 37.5 -36t99.5 -14q26 0 63 2.5t69 6.5l18 -89v-10q-22 -5 -50 -8.5t-54.5 -4.5t-44.5 -1zM210 -401q-23 0 -38.5 15.5t-15.5 37.5q0 23 16 38.5t38 15.5q23 0 38.5 -15.5t15.5 -38.5q0 -22 -16 -37.5t-38 -15.5zM332 -401q-23 0 -38.5 15.5
t-15.5 37.5q0 23 16 38.5t38 15.5q23 0 38.5 -15.5t15.5 -38.5q0 -22 -16 -37.5t-38 -15.5zM271 -505q-23 0 -38.5 15.5t-15.5 37.5q0 23 16 38.5t38 15.5q23 0 38.5 -15.5t15.5 -38.5q0 -22 -16 -37.5t-38 -15.5z" />
    <glyph glyph-name="uni08C3" unicode="&#x8c3;" horiz-adv-x="566" 
d="M151 69q-32 49 -32 94q0 38 20 70t52 60t69.5 52t72.5 46h7l58 -85q-49 -30 -81.5 -54.5t-50.5 -44t-25.5 -34.5t-7.5 -27q0 -17 10.5 -29.5t28.5 -12.5zM187 0v104h317v-7l-30 -97h-287zM282 -200q-77 0 -131 20t-82.5 55t-28.5 80q0 71 65.5 110t173.5 39v-104
q-67 0 -98 -13t-37 -33q6 -22 37.5 -36t99.5 -14q26 0 63 2.5t69 6.5l18 -89v-10q-22 -5 -50 -8.5t-54.5 -4.5t-44.5 -1zM266 494q-22 0 -38 15.5t-16 37.5q0 23 16 38.5t38 15.5q23 0 38.5 -15.5t15.5 -38.5q0 -22 -15.5 -37.5t-38.5 -15.5zM230 621q-14 0 -23.5 9t-9.5 23
t9.5 23.5t22.5 9.5q14 0 23.5 -9.5t9.5 -23.5t-9.5 -23t-22.5 -9zM303 621q-14 0 -23.5 9t-9.5 23t9.5 23.5t23.5 9.5q13 0 22.5 -9.5t9.5 -23.5t-9.5 -23t-22.5 -9zM266 684q-13 0 -23 9t-10 22q0 14 10 23t23 9q14 0 23.5 -9t9.5 -23q0 -13 -9.5 -22t-23.5 -9z" />
    <glyph glyph-name="uni0641" unicode="&#x641;" horiz-adv-x="968" 
d="M463 0q-74 0 -150.5 5.5t-144 21t-116.5 46.5l50 81h10q51 -25 137 -37.5t214 -12.5h278q19 0 36.5 -1t29.5 -2.5l12 -1.5l-22 -12v7v7q-1 88 -25.5 140t-60.5 52q-15 0 -31.5 -10.5t-27.5 -32.5t-11 -56q0 -45 24 -67.5t75 -22.5v-76q-70 0 -118 23t-72 63t-24 90
q0 56 25 99.5t68 68.5t95 25q63 0 107 -38.5t67.5 -106.5t23.5 -160q2 -30 3 -52t2 -27l-13 -13h-441zM714 504q-23 0 -38.5 15.5t-15.5 37.5q0 23 16 38.5t38 15.5q23 0 38.5 -15.5t15.5 -38.5q0 -22 -16 -37.5t-38 -15.5z" />
    <glyph glyph-name="uni06A2" unicode="&#x6a2;" horiz-adv-x="968" 
d="M463 0q-74 0 -150.5 5.5t-144 21t-116.5 46.5l50 81h10q51 -25 137 -37.5t214 -12.5h278q19 0 36.5 -1t29.5 -2.5l12 -1.5l-22 -12v7v7q-1 88 -25.5 140t-60.5 52q-15 0 -31.5 -10.5t-27.5 -32.5t-11 -56q0 -45 24 -67.5t75 -22.5v-76q-70 0 -118 23t-72 63t-24 90
q0 56 25 99.5t68 68.5t95 25q63 0 107 -38.5t67.5 -106.5t23.5 -160q2 -30 3 -52t2 -27l-13 -13h-441zM714 -203q-23 0 -38.5 15.5t-15.5 37.5q0 23 16 38.5t38 15.5q23 0 38.5 -15.5t15.5 -38.5q0 -22 -16 -37.5t-38 -15.5z" />
    </font>
</defs>
</svg>
